  0
SECTION
  2
HEADER
  9
$ACADVER
  1
AC1009
  9
$INSBASE
 10
0.0
 20
0.0
 30
0.0
  9
$EXTMIN
 10
867.37442926913309
 20
3249.7036427750782
 30
0.0
  9
$EXTMAX
 10
1277.474429269133
 20
3488.9883556507411
 30
0.0
  9
$LIMMIN
 10
0.0
 20
0.0
  9
$LIMMAX
 10
12.0
 20
9.0
  9
$ORTHOMODE
 70
     0
  9
$REGENMODE
 70
     1
  9
$FILLMODE
 70
     1
  9
$QTEXTMODE
 70
     0
  9
$MIRRTEXT
 70
     0
  9
$DRAGMODE
 70
     2
  9
$LTSCALE
 40
1.0
  9
$OSMODE
 70
     0
  9
$ATTMODE
 70
     1
  9
$TEXTSIZE
 40
0.2
  9
$TRACEWID
 40
0.05
  9
$TEXTSTYLE
  7
STANDARD
  9
$CLAYER
  8
_ANNOTATE
  9
$CELTYPE
  6
BYLAYER
  9
$CECOLOR
 62
   256
  9
$DIMSCALE
 40
1.0
  9
$DIMASZ
 40
0.18
  9
$DIMEXO
 40
0.0625
  9
$DIMDLI
 40
0.38
  9
$DIMRND
 40
0.0
  9
$DIMDLE
 40
0.0
  9
$DIMEXE
 40
0.18
  9
$DIMTP
 40
0.0
  9
$DIMTM
 40
0.0
  9
$DIMTXT
 40
0.18
  9
$DIMCEN
 40
0.09
  9
$DIMTSZ
 40
0.0
  9
$DIMTOL
 70
     0
  9
$DIMLIM
 70
     0
  9
$DIMTIH
 70
     1
  9
$DIMTOH
 70
     1
  9
$DIMSE1
 70
     0
  9
$DIMSE2
 70
     0
  9
$DIMTAD
 70
     0
  9
$DIMZIN
 70
     0
  9
$DIMBLK
  1

  9
$DIMASO
 70
     1
  9
$DIMSHO
 70
     1
  9
$DIMPOST
  1

  9
$DIMAPOST
  1

  9
$DIMALT
 70
     0
  9
$DIMALTD
 70
     2
  9
$DIMALTF
 40
25.399999999999999
  9
$DIMLFAC
 40
1.0
  9
$DIMTOFL
 70
     0
  9
$DIMTVP
 40
0.0
  9
$DIMTIX
 70
     0
  9
$DIMSOXD
 70
     0
  9
$DIMSAH
 70
     0
  9
$DIMBLK1
  1

  9
$DIMBLK2
  1

  9
$DIMSTYLE
  2
STANDARD
  9
$DIMCLRD
 70
     0
  9
$DIMCLRE
 70
     0
  9
$DIMCLRT
 70
     0
  9
$DIMTFAC
 40
1.0
  9
$DIMGAP
 40
0.09
  9
$LUNITS
 70
     2
  9
$LUPREC
 70
     4
  9
$SKETCHINC
 40
0.1
  9
$FILLETRAD
 40
0.0
  9
$AUNITS
 70
     0
  9
$AUPREC
 70
     0
  9
$MENU
  1
.
  9
$ELEVATION
 40
0.0
  9
$PELEVATION
 40
0.0
  9
$THICKNESS
 40
0.0
  9
$LIMCHECK
 70
     0
  9
$BLIPMODE
 70
     0
  9
$CHAMFERA
 40
0.0
  9
$CHAMFERB
 40
0.0
  9
$SKPOLY
 70
     0
  9
$TDCREATE
 40
2458243.0057060188
  9
$TDUPDATE
 40
2458243.0306431018
  9
$TDINDWG
 40
0.0001303241
  9
$TDUSRTIMER
 40
0.0001303241
  9
$USRTIMER
 70
     1
  9
$ANGBASE
 50
0.0
  9
$ANGDIR
 70
     0
  9
$PDMODE
 70
     0
  9
$PDSIZE
 40
0.0
  9
$PLINEWID
 40
0.0
  9
$COORDS
 70
     2
  9
$SPLFRAME
 70
     0
  9
$SPLINETYPE
 70
     6
  9
$SPLINESEGS
 70
     8
  9
$ATTDIA
 70
     1
  9
$ATTREQ
 70
     0
  9
$HANDLING
 70
     1
  9
$HANDSEED
  5
388
  9
$SURFTAB1
 70
     6
  9
$SURFTAB2
 70
     6
  9
$SURFTYPE
 70
     6
  9
$SURFU
 70
     6
  9
$SURFV
 70
     6
  9
$UCSNAME
  2

  9
$UCSORG
 10
0.0
 20
0.0
 30
0.0
  9
$UCSXDIR
 10
1.0
 20
0.0
 30
0.0
  9
$UCSYDIR
 10
0.0
 20
1.0
 30
0.0
  9
$PUCSNAME
  2

  9
$PUCSORG
 10
0.0
 20
0.0
 30
0.0
  9
$PUCSXDIR
 10
1.0
 20
0.0
 30
0.0
  9
$PUCSYDIR
 10
0.0
 20
1.0
 30
0.0
  9
$USERI1
 70
     0
  9
$USERI2
 70
     0
  9
$USERI3
 70
     0
  9
$USERI4
 70
     0
  9
$USERI5
 70
     0
  9
$USERR1
 40
0.0
  9
$USERR2
 40
0.0
  9
$USERR3
 40
0.0
  9
$USERR4
 40
0.0
  9
$USERR5
 40
0.0
  9
$WORLDVIEW
 70
     1
  9
$SHADEDGE
 70
     3
  9
$SHADEDIF
 70
    70
  9
$TILEMODE
 70
     1
  9
$MAXACTVP
 70
    64
  9
$PLIMCHECK
 70
     0
  9
$PEXTMIN
 10
25.699999999999989
 20
19.5
 30
0.0
  9
$PEXTMAX
 10
231.30000000000001
 20
175.5
 30
0.0
  9
$PLIMMIN
 10
-20.0
 20
-7.5
  9
$PLIMMAX
 10
277.0
 20
202.5
  9
$UNITMODE
 70
     0
  9
$VISRETAIN
 70
     1
  9
$PLINEGEN
 70
     0
  9
$PSLTSCALE
 70
     1
  0
ENDSEC
  0
SECTION
  2
TABLES
  0
TABLE
  2
VPORT
 70
     1
  0
VPORT
  2
*ACTIVE
 70
     0
 10
0.0
 20
0.0
 11
1.0
 21
1.0
 12
1202.7313764184651
 22
3368.6175772029051
 13
0.0
 23
0.0
 14
1.0
 24
1.0
 15
0.0
 25
0.0
 16
0.0
 26
0.0
 36
1.0
 17
0.0
 27
0.0
 37
0.0
 40
238.20076562691341
 41
2.815750371471025
 42
50.0
 43
0.0
 44
0.0
 50
0.0
 51
0.0
 71
     0
 72
  1000
 73
     1
 74
     3
 75
     0
 76
     0
 77
     0
 78
     0
  0
ENDTAB
  0
TABLE
  2
LTYPE
 70
     1
  0
LTYPE
  2
CONTINUOUS
 70
     0
  3
Solid line
 72
    65
 73
     0
 40
0.0
  0
ENDTAB
  0
TABLE
  2
LAYER
 70
    13
  0
LAYER
  2
0
 70
     0
 62
     7
  6
CONTINUOUS
  0
LAYER
  2
DEFPOINTS
 70
     0
 62
     7
  6
CONTINUOUS
  0
LAYER
  2
_DIM
 70
     0
 62
   151
  6
CONTINUOUS
  0
LAYER
  2
_LINES
 70
     0
 62
     3
  6
CONTINUOUS
  0
LAYER
  2
_ANNOTATE
 70
     0
 62
   241
  6
CONTINUOUS
  0
ENDTAB
  0
TABLE
  2
STYLE
 70
     7
  0
STYLE
  2
STANDARD
 70
     0
 40
0.0
 41
1.0
 50
0.0
 71
     0
 42
0.2
  3
txt
  4

  0
STYLE
  2
ARIAL
 70
     0
 40
4.799999999999998
 41
1.0
 50
0.0
 71
     0
 42
0.2
  3
txt
  4

  0
STYLE
  2
ARIAL_1
 70
     0
 40
5.0
 41
1.0
 50
0.0
 71
     0
 42
0.2
  3
txt
  4

  0
ENDTAB
  0
TABLE
  2
VIEW
 70
     1
  0
ENDTAB
  0
TABLE
  2
UCS
 70
     0
  0
ENDTAB
  0
TABLE
  2
APPID
 70
     6
  0
APPID
  2
ACAD
 70
     0
  0
APPID
  2
ACADANNOTATIVE
 70
     0
  0
APPID
  2
REVIT
 70
     0
  0
APPID
  2
ACAD_PSEXT
 70
     0
  0
APPID
  2
ACAD_NAV_VCDISPLAY
 70
     0
  0
APPID
  2
ACAD_MLEADERVER
 70
     0
  0
ENDTAB
  0
TABLE
  2
DIMSTYLE
 70
     5
  0
DIMSTYLE
  2
STANDARD
 70
     0
  3

  4

  5

  6

  7

 40
1.0
 41
0.18
 42
0.0625
 43
0.38
 44
0.18
 45
0.0
 46
0.0
 47
0.0
 48
0.0
140
0.18
141
0.09
142
0.0
143
25.399999999999999
144
1.0
145
0.0
146
1.0
147
0.09
 71
     0
 72
     0
 73
     1
 74
     1
 75
     0
 76
     0
 77
     0
 78
     0
170
     0
171
     2
172
     0
173
     0
174
     0
175
     0
176
     0
177
     0
178
     0
  0
DIMSTYLE
  2
DIAGONAL_1DP
 70
     0
  3
<>
  4

  5

  6
OBLIQUE
  7
OBLIQUE
 40
304.80000000000001
 41
0.0164041994750656
 42
0.0625
 43
0.38
 44
0.015748031496063
 45
0.1
 46
0.0
 47
0.0
 48
0.0
140
4.897245119793455
141
0.09
142
0.0
143
25.399999999999999
144
1.0
145
1.0
146
1.0
147
0.0098425196850394
 71
     0
 72
     0
 73
     0
 74
     0
 75
     0
 76
     0
 77
     1
 78
     8
170
     0
171
     2
172
     1
173
     1
174
     1
175
     0
176
     0
177
     0
178
     0
  0
DIMSTYLE
  2
DIAGONAL_1DP_1
 70
     0
  3
<>
  4

  5

  6
OBLIQUE
  7
OBLIQUE
 40
304.80000000000001
 41
0.0164041994750656
 42
0.0625
 43
0.38
 44
0.015748031496063
 45
0.1
 46
0.0
 47
0.0
 48
0.0
140
4.897245119793455
141
0.09
142
0.0
143
25.399999999999999
144
1.0
145
1.0
146
1.0
147
0.0098425196850394
 71
     0
 72
     0
 73
     0
 74
     0
 75
     0
 76
     0
 77
     1
 78
     8
170
     0
171
     2
172
     1
173
     1
174
     1
175
     0
176
     0
177
     0
178
     0
  0
DIMSTYLE
  2
DIAGONAL_1DP_2
 70
     0
  3
<>
  4

  5

  6
OBLIQUE
  7
OBLIQUE
 40
304.80000000000001
 41
0.0164041994750656
 42
0.0625
 43
0.38
 44
0.015748031496063
 45
0.1
 46
0.0
 47
0.0
 48
0.0
140
4.897245119793455
141
0.09
142
0.0
143
25.399999999999999
144
1.0
145
1.0
146
1.0
147
0.0098425196850394
 71
     0
 72
     0
 73
     0
 74
     0
 75
     0
 76
     0
 77
     1
 78
     8
170
     0
171
     2
172
     1
173
     1
174
     1
175
     0
176
     0
177
     0
178
     0
  0
ENDTAB
  0
ENDSEC
  0
SECTION
  2
BLOCKS
  0
BLOCK
  8
0
  2
$MODEL_SPACE
 70
     0
 10
0.0
 20
0.0
 30
0.0
  3
$MODEL_SPACE
  1

  0
ENDBLK
  5
72
  8
0
  0
BLOCK
 67
     1
  8
0
  2
$PAPER_SPACE
 70
     0
 10
0.0
 20
0.0
 30
0.0
  3
$PAPER_SPACE
  1

  0
ENDBLK
  5
76
 67
     1
  8
0
  0
BLOCK
  8
0
  2
_OBLIQUE
 70
     0
 10
0.0
 20
0.0
 30
0.0
  3
_OBLIQUE
  1

  0
LINE
  5
B4
  8
0
  6
BYBLOCK
 62
     0
 10
-0.5
 20
-0.5
 30
0.0
 11
0.5
 21
0.5
 31
0.0
  0
ENDBLK
  5
B6
  8
0
  0
BLOCK
  8
0
  2
DIMBLOCK1-TRSS01_PROFILE_O
 70
     0
 10
0.0
 20
0.0
 30
0.0
  3
DIMBLOCK1-TRSS01_PROFILE_O
  1

  0
LINE
  5
28F
  8
_DIM
 62
     0
 10
950.64377682403347
 20
3478.4864575967299
 30
0.0
 11
950.64377682403347
 21
3483.2864575967301
 31
0.0
  0
LINE
  5
290
  8
_DIM
 62
     0
 10
959.7437768240336
 20
3478.4864575967299
 30
0.0
 11
959.7437768240336
 21
3483.2864575967301
 31
0.0
  0
LINE
  5
291
  8
_DIM
 62
     0
 10
950.64377682403347
 20
3478.4864575967299
 30
0.0
 11
945.64377682403358
 21
3478.4864575967299
 31
0.0
  0
LINE
  5
292
  8
_DIM
 62
     0
 10
959.7437768240336
 20
3478.4864575967299
 30
0.0
 11
964.74377682403349
 21
3478.4864575967299
 31
0.0
  0
LINE
  5
293
  8
_DIM
 62
     0
 10
950.64377682403347
 20
3478.4864575967299
 30
0.0
 11
959.7437768240336
 21
3478.4864575967299
 31
0.0
  0
INSERT
  5
294
  8
_DIM
 62
     0
  2
_OBLIQUE
 10
950.64377682403347
 20
3478.4864575967299
 30
0.0
 41
4.9999999999999991
 42
4.9999999999999991
 43
4.9999999999999991
  0
INSERT
  5
295
  8
_DIM
 62
     0
  2
_OBLIQUE
 10
959.7437768240336
 20
3478.4864575967299
 30
0.0
 41
4.9999999999999991
 42
4.9999999999999991
 43
4.9999999999999991
 50
180.0
  0
INSERT
  5
296
  8
_ANNOTATE
  2
*U18
 10
0.0
 20
0.0
 30
0.0
  0
POINT
  5
297
  8
DEFPOINTS
 62
     0
 10
950.64377682403347
 20
3468.4864575967308
 30
0.0
  0
POINT
  5
298
  8
DEFPOINTS
 62
     0
 10
959.7437768240336
 20
3468.4864575967308
 30
0.0
  0
POINT
  5
299
  8
DEFPOINTS
 62
     0
 10
959.7437768240336
 20
3478.4864575967299
 30
0.0
  0
ENDBLK
  5
B1
  8
0
  0
BLOCK
  8
0
  2
DIMBLOCK2-TRSS01_PROFILE_O
 70
     0
 10
0.0
 20
0.0
 30
0.0
  3
DIMBLOCK2-TRSS01_PROFILE_O
  1

  0
LINE
  5
286
  8
_DIM
 62
     0
 10
1175.9688259490349
 20
3418.2403433476402
 30
0.0
 11
1180.768825949034
 21
3418.2403433476402
 31
0.0
  0
LINE
  5
287
  8
_DIM
 62
     0
 10
1175.9688259490349
 20
3458.540343347639
 30
0.0
 11
1180.768825949034
 21
3458.540343347639
 31
0.0
  0
LINE
  5
288
  8
_DIM
 62
     0
 10
1175.9688259490349
 20
3418.2403433476402
 30
0.0
 11
1175.9688259490349
 21
3458.540343347639
 31
0.0
  0
INSERT
  5
289
  8
_DIM
 62
     0
  2
_OBLIQUE
 10
1175.9688259490349
 20
3418.2403433476402
 30
0.0
 41
4.9999999999999991
 42
4.9999999999999991
 43
4.9999999999999991
 50
270.0
  0
INSERT
  5
28A
  8
_DIM
 62
     0
  2
_OBLIQUE
 10
1175.9688259490349
 20
3458.540343347639
 30
0.0
 41
4.9999999999999991
 42
4.9999999999999991
 43
4.9999999999999991
 50
90.0
  0
INSERT
  5
28B
  8
_ANNOTATE
  2
*U17
 10
0.0
 20
0.0
 30
0.0
  0
POINT
  5
28C
  8
DEFPOINTS
 62
     0
 10
1165.968825949034
 20
3418.2403433476402
 30
0.0
  0
POINT
  5
28D
  8
DEFPOINTS
 62
     0
 10
1165.968825949034
 20
3458.540343347639
 30
0.0
  0
POINT
  5
28E
  8
DEFPOINTS
 62
     0
 10
1175.9688259490349
 20
3458.540343347639
 30
0.0
  0
ENDBLK
  5
D4
  8
0
  0
BLOCK
  8
0
  2
DIMBLOCK3-TRSS01_PROFILE_O
 70
     0
 10
0.0
 20
0.0
 30
0.0
  3
DIMBLOCK3-TRSS01_PROFILE_O
  1

  0
LINE
  5
27D
  8
_DIM
 62
     0
 10
1134.7437768240341
 20
3402.021834897816
 30
0.0
 11
1134.7437768240341
 21
3397.2218348978149
 31
0.0
  0
LINE
  5
27E
  8
_DIM
 62
     0
 10
1159.7437768240329
 20
3402.021834897816
 30
0.0
 11
1159.7437768240329
 21
3397.2218348978149
 31
0.0
  0
LINE
  5
27F
  8
_DIM
 62
     0
 10
1134.7437768240341
 20
3402.021834897816
 30
0.0
 11
1159.7437768240329
 21
3402.021834897816
 31
0.0
  0
INSERT
  5
280
  8
_DIM
 62
     0
  2
_OBLIQUE
 10
1134.7437768240341
 20
3402.021834897816
 30
0.0
 41
4.9999999999999991
 42
4.9999999999999991
 43
4.9999999999999991
 50
180.0
  0
INSERT
  5
281
  8
_DIM
 62
     0
  2
_OBLIQUE
 10
1159.7437768240329
 20
3402.021834897816
 30
0.0
 41
4.9999999999999991
 42
4.9999999999999991
 43
4.9999999999999991
  0
INSERT
  5
282
  8
_ANNOTATE
  2
*U16
 10
0.0
 20
0.0
 30
0.0
  0
POINT
  5
283
  8
DEFPOINTS
 62
     0
 10
1134.7437768240341
 20
3412.021834897816
 30
0.0
  0
POINT
  5
284
  8
DEFPOINTS
 62
     0
 10
1159.7437768240329
 20
3412.021834897816
 30
0.0
  0
POINT
  5
285
  8
DEFPOINTS
 62
     0
 10
1159.7437768240329
 20
3402.021834897816
 30
0.0
  0
ENDBLK
  5
EF
  8
0
  0
BLOCK
  8
0
  2
DIMBLOCK4-TRSS01_PROFILE_O
 70
     0
 10
0.0
 20
0.0
 30
0.0
  3
DIMBLOCK4-TRSS01_PROFILE_O
  1

  0
LINE
  5
274
  8
_DIM
 62
     0
 10
959.7437768240336
 20
3402.021834897816
 30
0.0
 11
959.7437768240336
 21
3397.2218348978149
 31
0.0
  0
LINE
  5
275
  8
_DIM
 62
     0
 10
984.76684961623414
 20
3402.021834897816
 30
0.0
 11
984.76684961623414
 21
3397.2218348978149
 31
0.0
  0
LINE
  5
276
  8
_DIM
 62
     0
 10
959.7437768240336
 20
3402.021834897816
 30
0.0
 11
984.76684961623414
 21
3402.021834897816
 31
0.0
  0
INSERT
  5
277
  8
_DIM
 62
     0
  2
_OBLIQUE
 10
959.7437768240336
 20
3402.021834897816
 30
0.0
 41
4.9999999999999991
 42
4.9999999999999991
 43
4.9999999999999991
 50
180.0
  0
INSERT
  5
278
  8
_DIM
 62
     0
  2
_OBLIQUE
 10
984.76684961623414
 20
3402.021834897816
 30
0.0
 41
4.9999999999999991
 42
4.9999999999999991
 43
4.9999999999999991
  0
INSERT
  5
279
  8
_ANNOTATE
  2
*U15
 10
0.0
 20
0.0
 30
0.0
  0
POINT
  5
27A
  8
DEFPOINTS
 62
     0
 10
959.7437768240336
 20
3412.021834897816
 30
0.0
  0
POINT
  5
27B
  8
DEFPOINTS
 62
     0
 10
984.76684961623414
 20
3412.021834897816
 30
0.0
  0
POINT
  5
27C
  8
DEFPOINTS
 62
     0
 10
984.76684961623414
 20
3402.021834897816
 30
0.0
  0
ENDBLK
  5
10A
  8
0
  0
BLOCK
  8
0
  2
DIMBLOCK5-TRSS01_PROFILE_O
 70
     0
 10
0.0
 20
0.0
 30
0.0
  3
DIMBLOCK5-TRSS01_PROFILE_O
  1

  0
LINE
  5
26A
  8
_DIM
 62
     0
 10
959.7437768240336
 20
3381.6312688447729
 30
0.0
 11
959.7437768240336
 21
3376.8312688447718
 31
0.0
  0
LINE
  5
26B
  8
_DIM
 62
     0
 10
1159.7437768240329
 20
3381.6312688447729
 30
0.0
 11
1159.7437768240329
 21
3376.8312688447718
 31
0.0
  0
LINE
  5
26C
  8
_DIM
 62
     0
 10
959.7437768240336
 20
3381.6312688447729
 30
0.0
 11
1159.7437768240329
 21
3381.6312688447729
 31
0.0
  0
INSERT
  5
26D
  8
_DIM
 62
     0
  2
_OBLIQUE
 10
959.7437768240336
 20
3381.6312688447729
 30
0.0
 41
4.9999999999999991
 42
4.9999999999999991
 43
4.9999999999999991
 50
180.0
  0
INSERT
  5
26E
  8
_DIM
 62
     0
  2
_OBLIQUE
 10
1159.7437768240329
 20
3381.6312688447729
 30
0.0
 41
4.9999999999999991
 42
4.9999999999999991
 43
4.9999999999999991
  0
INSERT
  5
26F
  8
_ANNOTATE
  2
*U13
 10
0.0
 20
0.0
 30
0.0
  0
INSERT
  5
270
  8
_ANNOTATE
  2
*U14
 10
0.0
 20
0.0
 30
0.0
  0
POINT
  5
271
  8
DEFPOINTS
 62
     0
 10
959.7437768240336
 20
3394.6952948844341
 30
0.0
  0
POINT
  5
272
  8
DEFPOINTS
 62
     0
 10
1159.7437768240329
 20
3394.6897327603351
 30
0.0
  0
POINT
  5
273
  8
DEFPOINTS
 62
     0
 10
1159.7437768240329
 20
3381.6312688447729
 30
0.0
  0
ENDBLK
  5
125
  8
0
  0
BLOCK
  8
0
  2
DIMBLOCK6-TRSS01_PROFILE_O
 70
     0
 10
0.0
 20
0.0
 30
0.0
  3
DIMBLOCK6-TRSS01_PROFILE_O
  1

  0
LINE
  5
261
  8
_DIM
 62
     0
 10
934.38313304950395
 20
3418.2403433476402
 30
0.0
 11
929.583133049504
 21
3418.2403433476402
 31
0.0
  0
LINE
  5
262
  8
_DIM
 62
     0
 10
934.38313304950395
 20
3464.2403433476402
 30
0.0
 11
929.583133049504
 21
3464.2403433476402
 31
0.0
  0
LINE
  5
263
  8
_DIM
 62
     0
 10
934.38313304950395
 20
3418.2403433476402
 30
0.0
 11
934.38313304950395
 21
3464.2403433476402
 31
0.0
  0
INSERT
  5
264
  8
_DIM
 62
     0
  2
_OBLIQUE
 10
934.38313304950395
 20
3418.2403433476402
 30
0.0
 41
4.9999999999999991
 42
4.9999999999999991
 43
4.9999999999999991
 50
270.0
  0
INSERT
  5
265
  8
_DIM
 62
     0
  2
_OBLIQUE
 10
934.38313304950395
 20
3464.2403433476402
 30
0.0
 41
4.9999999999999991
 42
4.9999999999999991
 43
4.9999999999999991
 50
90.0
  0
INSERT
  5
266
  8
_ANNOTATE
  2
*U12
 10
0.0
 20
0.0
 30
0.0
  0
POINT
  5
267
  8
DEFPOINTS
 62
     0
 10
944.38313304950361
 20
3418.2403433476402
 30
0.0
  0
POINT
  5
268
  8
DEFPOINTS
 62
     0
 10
944.38313304950361
 20
3464.2403433476402
 30
0.0
  0
POINT
  5
269
  8
DEFPOINTS
 62
     0
 10
934.38313304950395
 20
3464.2403433476402
 30
0.0
  0
ENDBLK
  5
140
  8
0
  0
BLOCK
  8
0
  2
*U10
 70
     1
 10
0.0
 20
0.0
 30
0.0
  3
*U10
  1

  0
TEXT
  5
35B
  8
_ANNOTATE
 62
     7
 10
958.86459267592284
 20
3259.1213610561149
 30
0.0
 40
5.0
  1
Standard pan sizes are 450mm or 250mm.
  7
ARIAL_1
  0
ENDBLK
  5
35D
  8
0
  0
BLOCK
  8
0
  2
*U11
 70
     1
 10
0.0
 20
0.0
 30
0.0
  3
*U11
  1

  0
TEXT
  5
35F
  8
_ANNOTATE
 62
     7
 10
958.63949035668691
 20
3251.1838610561149
 30
0.0
 40
5.0
  1
Please consult with the roofing store for custom pan options/ availability.
  7
ARIAL_1
  0
ENDBLK
  5
361
  8
0
  0
BLOCK
  8
0
  2
*U12
 70
     1
 10
0.0
 20
0.0
 30
0.0
  3
*U12
  1

  0
TEXT
  5
36D
  8
_DIM
 62
     0
 10
931.29145501403275
 20
3437.6223351621002
 30
0.0
 40
4.799999999999998
  1
46
 50
90.0
  7
ARIAL
  0
ENDBLK
  5
36F
  8
0
  0
BLOCK
  8
0
  2
*U13
 70
     1
 10
0.0
 20
0.0
 30
0.0
  3
*U13
  1

  0
TEXT
  5
371
  8
_DIM
 62
     0
 10
992.05264449115509
 20
3386.0850205500928
 30
0.0
 40
4.799999999999998
  1
Optional swages to pan available on requests
  7
ARIAL
  0
ENDBLK
  5
373
  8
0
  0
BLOCK
  8
0
  2
*U14
 70
     1
 10
0.0
 20
0.0
 30
0.0
  3
*U14
  1

  0
TEXT
  5
375
  8
_DIM
 62
     0
 10
1040.108306155548
 20
3373.8214461981138
 30
0.0
 40
4.799999999999998
  1
200 - 630mm
  7
ARIAL
  0
ENDBLK
  5
377
  8
0
  0
BLOCK
  8
0
  2
*U15
 70
     1
 10
0.0
 20
0.0
 30
0.0
  3
*U15
  1

  0
TEXT
  5
379
  8
_DIM
 62
     0
 10
968.56199807688688
 20
3405.113512933287
 30
0.0
 40
4.799999999999998
  1
25
  7
ARIAL
  0
ENDBLK
  5
37B
  8
0
  0
BLOCK
  8
0
  2
*U16
 70
     1
 10
0.0
 20
0.0
 30
0.0
  3
*U16
  1

  0
TEXT
  5
37D
  8
_DIM
 62
     0
 10
1143.5504616807871
 20
3405.113512933287
 30
0.0
 40
4.799999999999998
  1
25
  7
ARIAL
  0
ENDBLK
  5
37F
  8
0
  0
BLOCK
  8
0
  2
*U17
 70
     1
 10
0.0
 20
0.0
 30
0.0
  3
*U17
  1

  0
TEXT
  5
381
  8
_DIM
 62
     0
 10
1172.873873698011
 20
3431.9745179724691
 30
0.0
 40
4.799999999999998
  1
40.3
 50
90.0
  7
ARIAL
  0
ENDBLK
  5
383
  8
0
  0
BLOCK
  8
0
  2
*U18
 70
     1
 10
0.0
 20
0.0
 30
0.0
  3
*U18
  1

  0
TEXT
  5
385
  8
_DIM
 62
     0
 10
951.00932934790796
 20
3481.5781356322009
 30
0.0
 40
4.799999999999998
  1
9.1
  7
ARIAL
  0
ENDBLK
  5
387
  8
0
  0
ENDSEC
  0
SECTION
  2
ENTITIES
  0
DIMENSION
  5
B7
  8
_DIM
  2
DIMBLOCK1-TRSS01_PROFILE_O
 10
959.7437768240336
 20
3478.4864575967299
 30
0.0
 11
955.19377682403353
 21
3483.937207937794
 31
0.0
 70
     0
 13
950.64377682403347
 23
3468.4864575967308
 33
0.0
 14
959.7437768240336
 24
3468.4864575967308
 34
0.0
1001
ACAD
1000
DSTYLE
1002
{
1070
    49
1040
9.1000000000000227
1002
}
1001
REVIT
1002
{
1070
     1
1000
242486
1002
}
1002
{
1070
     5
1000
240857
1002
}
1002
{
1070
     2
1000
-2000260
1002
}
  0
DIMENSION
  5
D6
  8
_DIM
  2
DIMBLOCK2-TRSS01_PROFILE_O
 10
1175.9688259490349
 20
3458.540343347639
 30
0.0
 11
1170.516438500194
 21
3438.3903433476398
 31
0.0
 70
     0
 13
1165.968825949034
 23
3418.2403433476402
 33
0.0
 14
1165.968825949034
 24
3458.540343347639
 34
0.0
 50
89.999999999999915
1001
ACAD
1000
DSTYLE
1002
{
1070
    49
1040
40.300000000000182
1002
}
1001
REVIT
1002
{
1070
     1
1000
242493
1002
}
1002
{
1070
     5
1000
240857
1002
}
1002
{
1070
     2
1000
-2000260
1002
}
  0
DIMENSION
  5
F1
  8
_DIM
  2
DIMBLOCK3-TRSS01_PROFILE_O
 10
1159.7437768240329
 20
3402.021834897816
 30
0.0
 11
1147.2437768240341
 21
3407.4725852388801
 31
0.0
 70
     0
 13
1134.7437768240341
 23
3412.021834897816
 33
0.0
 14
1159.7437768240329
 24
3412.021834897816
 34
0.0
1001
ACAD
1000
DSTYLE
1002
{
1070
    49
1040
24.999999999999769
1002
}
1001
REVIT
1002
{
1070
     1
1000
242500
1002
}
1002
{
1070
     5
1000
240857
1002
}
1002
{
1070
     2
1000
-2000260
1002
}
  0
DIMENSION
  5
10B
  8
_DIM
  2
DIMBLOCK4-TRSS01_PROFILE_O
 10
984.76684961623414
 20
3402.021834897816
 30
0.0
 11
972.25531322013387
 21
3407.4725852388801
 31
0.0
 70
     0
 13
959.7437768240336
 23
3412.021834897816
 33
0.0
 14
984.76684961623414
 24
3412.021834897816
 34
0.0
1001
ACAD
1000
DSTYLE
1002
{
1070
    49
1040
25.023072792200541
1002
}
1001
REVIT
1002
{
1070
     1
1000
242507
1002
}
1002
{
1070
     5
1000
240857
1002
}
1002
{
1070
     2
1000
-2000260
1002
}
  0
DIMENSION
  5
126
  8
_DIM
  2
DIMBLOCK5-TRSS01_PROFILE_O
 10
1159.7437768240329
 20
3381.6312688447729
 30
0.0
 11
1059.7437768240329
 21
3381.6312688447729
 31
0.0
 70
     0
  1
Optional swages to pan available on requests\X200 - 630mm 
 13
959.7437768240336
 23
3394.6952948844341
 33
0.0
 14
1159.7437768240329
 24
3394.6897327603351
 34
0.0
1001
ACAD
1000
DSTYLE
1002
{
1070
    49
1040
200.00000007734309
1002
}
1001
REVIT
1002
{
1070
     1
1000
242514
1002
}
1002
{
1070
     5
1000
240857
1002
}
1002
{
1070
     2
1000
-2000260
1002
}
  0
DIMENSION
  5
141
  8
_DIM
  2
DIMBLOCK6-TRSS01_PROFILE_O
 10
934.38313304950395
 20
3464.2403433476402
 30
0.0
 11
928.93238270843926
 21
3441.2403433476388
 31
0.0
 70
     0
 13
944.38313304950361
 23
3418.2403433476402
 33
0.0
 14
944.38313304950361
 24
3464.2403433476402
 34
0.0
 50
89.999999999999915
1001
ACAD
1000
DSTYLE
1002
{
1070
    49
1040
46.0
1002
}
1001
REVIT
1002
{
1070
     1
1000
242692
1002
}
1002
{
1070
     5
1000
240857
1002
}
1002
{
1070
     2
1000
-2000260
1002
}
  0
INSERT
  5
150
  8
_ANNOTATE
  2
*U10
 10
0.0
 20
0.0
 30
0.0
  0
INSERT
  5
151
  8
_ANNOTATE
  2
*U11
 10
0.0
 20
0.0
 30
0.0
  0
LINE
  5
1AD
  8
_LINES
 10
1074.8915604912911
 20
3291.2491896181941
 30
0.0
 11
1069.30701931368
 21
3293.8123144964929
 31
0.0
1001
REVIT
1002
{
1070
     3
1000
241982
1002
}
  0
LINE
  5
1AE
  8
_LINES
 10
1068.3744292691331
 20
3295.2664685293798
 30
0.0
 11
1068.3744292691331
 21
3322.8403433476392
 31
0.0
1001
REVIT
1002
{
1070
     3
1000
241982
1002
}
  0
LINE
  5
1AF
  8
_LINES
 10
1069.974429269133
 20
3324.4403433476391
 30
0.0
 11
1075.8744292691331
 21
3324.4403433476391
 31
0.0
1001
REVIT
1002
{
1070
     3
1000
241982
1002
}
  0
LINE
  5
1B0
  8
_LINES
 10
1077.474429269133
 20
3322.8403433476392
 30
0.0
 11
1077.474429269133
 21
3284.1153433476388
 31
0.0
1001
REVIT
1002
{
1070
     3
1000
241982
1002
}
  0
LINE
  5
1B1
  8
_LINES
 10
1080.649429269133
 20
3280.9403433476391
 30
0.0
 11
1102.497502061334
 21
3280.9403433476391
 31
0.0
1001
REVIT
1002
{
1070
     3
1000
241982
1002
}
  0
LINE
  5
1B2
  8
_LINES
 10
1109.9975020613331
 20
3278.4403433476391
 30
0.0
 11
1244.974429269133
 21
3278.4403433476391
 31
0.0
1001
REVIT
1002
{
1070
     3
1000
241982
1002
}
  0
LINE
  5
1B3
  8
_LINES
 10
1244.974429269133
 20
3278.4403433476391
 30
0.0
 11
1252.474429269133
 21
3280.9403433476391
 31
0.0
1001
REVIT
1002
{
1070
     3
1000
241982
1002
}
  0
LINE
  5
1B4
  8
_LINES
 10
1252.474429269133
 20
3280.9403433476391
 30
0.0
 11
1273.9350921750511
 21
3278.4613167970419
 31
0.0
1001
REVIT
1002
{
1070
     3
1000
241982
1002
}
  0
LINE
  5
1B5
  8
_LINES
 10
1277.474429269133
 20
3281.6153433476402
 30
0.0
 11
1277.474429269133
 21
3317.290343347639
 31
0.0
1001
REVIT
1002
{
1070
     3
1000
241982
1002
}
  0
ARC
  5
1B6
  8
_LINES
 10
1276.024429269133
 20
3317.290343347639
 30
0.0
 40
1.449999999999982
 50
0.0
 51
180.0
1001
REVIT
1002
{
1070
     3
1000
241982
1002
}
  0
LINE
  5
1B7
  8
_LINES
 10
1274.5744292691329
 20
3317.290343347639
 30
0.0
 11
1274.5744292691329
 21
3301.2579072958351
 31
0.0
1001
REVIT
1002
{
1070
     3
1000
241982
1002
}
  0
LINE
  5
1B8
  8
_LINES
 10
1274.2680249387199
 20
3299.8914871185302
 30
0.0
 11
1271.174429269133
 21
3293.3403433476392
 31
0.0
1001
REVIT
1002
{
1070
     3
1000
241982
1002
}
  0
ARC
  5
1B9
  8
_LINES
 10
1075.8744292691331
 20
3322.8403433476392
 30
0.0
 40
1.6000000000000509
 50
0.0
 51
90.0
1001
REVIT
1002
{
1070
     3
1000
241982
1002
}
  0
ARC
  5
1BA
  8
_LINES
 10
1069.974429269133
 20
3322.8403433476392
 30
0.0
 40
1.6000000000000509
 50
90.0
 51
180.0
1001
REVIT
1002
{
1070
     3
1000
241982
1002
}
  0
ARC
  5
1BB
  8
_LINES
 10
1080.649429269133
 20
3284.1153433476388
 30
0.0
 40
3.1750000000000109
 50
180.0
 51
270.0
1001
REVIT
1002
{
1070
     3
1000
241982
1002
}
  0
LINE
  5
1BC
  8
_LINES
 10
1074.8915604912911
 20
3289.4314970770838
 30
0.0
 11
1069.245950001485
 21
3286.8403433476401
 31
0.0
1001
REVIT
1002
{
1070
     3
1000
241982
1002
}
  0
ARC
  5
1BD
  8
_LINES
 10
1074.474429269133
 20
3290.3403433476392
 30
0.0
 40
0.9999999999999822
 50
294.65360157591709
 51
65.346398424082921
1001
REVIT
1002
{
1070
     3
1000
241982
1002
}
  0
ARC
  5
1BE
  8
_LINES
 10
1069.974429269133
 20
3295.2664685293798
 30
0.0
 40
1.599999999999991
 50
180.0
 51
245.34639842408291
1001
REVIT
1002
{
1070
     3
1000
241982
1002
}
  0
ARC
  5
1BF
  8
_LINES
 10
1274.299429269133
 20
3281.6153433476402
 30
0.0
 40
3.1750000000000189
 50
263.41068819018659
 51
0.0
1001
REVIT
1002
{
1070
     3
1000
241982
1002
}
  0
LINE
  5
1C0
  8
_LINES
 10
1109.9975020613331
 20
3278.4403433476391
 30
0.0
 11
1102.497502061334
 21
3280.9403433476391
 31
0.0
1001
REVIT
1002
{
1070
     3
1000
241982
1002
}
  0
ARC
  5
1C1
  8
_LINES
 10
1271.3744292691331
 20
3301.2579072958351
 30
0.0
 40
3.200000000000002
 50
334.72227776445231
 51
0.0
1001
REVIT
1002
{
1070
     3
1000
241982
1002
}
  0
LINE
  5
1C2
  8
_LINES
 10
873.8915604912911
 20
3291.2491896181941
 30
0.0
 11
868.3070193136806
 21
3293.8123144964929
 31
0.0
1001
REVIT
1002
{
1070
     3
1000
241982
1002
}
  0
LINE
  5
1C3
  8
_LINES
 10
867.37442926913309
 20
3295.2664685293798
 30
0.0
 11
867.37442926913332
 21
3322.8403433476392
 31
0.0
1001
REVIT
1002
{
1070
     3
1000
241982
1002
}
  0
LINE
  5
1C4
  8
_LINES
 10
868.97442926913311
 20
3324.4403433476391
 30
0.0
 11
874.8744292691332
 21
3324.4403433476391
 31
0.0
1001
REVIT
1002
{
1070
     3
1000
241982
1002
}
  0
LINE
  5
1C5
  8
_LINES
 10
876.47442926913322
 20
3322.8403433476392
 30
0.0
 11
876.47442926913322
 21
3284.1153433476388
 31
0.0
1001
REVIT
1002
{
1070
     3
1000
241982
1002
}
  0
LINE
  5
1C6
  8
_LINES
 10
879.64942926913307
 20
3280.9403433476391
 30
0.0
 11
901.49750206133376
 21
3280.9403433476391
 31
0.0
1001
REVIT
1002
{
1070
     3
1000
241982
1002
}
  0
LINE
  5
1C7
  8
_LINES
 10
908.99750206133353
 20
3278.4403433476391
 30
0.0
 11
1043.974429269133
 21
3278.4403433476391
 31
0.0
1001
REVIT
1002
{
1070
     3
1000
241982
1002
}
  0
LINE
  5
1C8
  8
_LINES
 10
1043.974429269133
 20
3278.4403433476391
 30
0.0
 11
1051.474429269133
 21
3280.9403433476391
 31
0.0
1001
REVIT
1002
{
1070
     3
1000
241982
1002
}
  0
LINE
  5
1C9
  8
_LINES
 10
1051.474429269133
 20
3280.9403433476391
 30
0.0
 11
1072.9350921750511
 21
3278.4613167970419
 31
0.0
1001
REVIT
1002
{
1070
     3
1000
241982
1002
}
  0
LINE
  5
1CA
  8
_LINES
 10
1076.474429269133
 20
3281.6153433476402
 30
0.0
 11
1076.474429269133
 21
3317.290343347639
 31
0.0
1001
REVIT
1002
{
1070
     3
1000
241982
1002
}
  0
ARC
  5
1CB
  8
_LINES
 10
1075.024429269133
 20
3317.290343347639
 30
0.0
 40
1.449999999999982
 50
0.0
 51
180.0
1001
REVIT
1002
{
1070
     3
1000
241982
1002
}
  0
LINE
  5
1CC
  8
_LINES
 10
1073.5744292691329
 20
3317.290343347639
 30
0.0
 11
1073.5744292691329
 21
3301.2579072958351
 31
0.0
1001
REVIT
1002
{
1070
     3
1000
241982
1002
}
  0
LINE
  5
1CD
  8
_LINES
 10
1073.2680249387199
 20
3299.8914871185302
 30
0.0
 11
1070.174429269133
 21
3293.3403433476392
 31
0.0
1001
REVIT
1002
{
1070
     3
1000
241982
1002
}
  0
ARC
  5
1CE
  8
_LINES
 10
874.8744292691332
 20
3322.8403433476392
 30
0.0
 40
1.6000000000000509
 50
0.0
 51
90.0
1001
REVIT
1002
{
1070
     3
1000
241982
1002
}
  0
ARC
  5
1CF
  8
_LINES
 10
868.97442926913311
 20
3322.8403433476392
 30
0.0
 40
1.6000000000000509
 50
90.0
 51
180.0
1001
REVIT
1002
{
1070
     3
1000
241982
1002
}
  0
ARC
  5
1D0
  8
_LINES
 10
879.64942926913329
 20
3284.1153433476388
 30
0.0
 40
3.1750000000000109
 50
180.0
 51
270.0
1001
REVIT
1002
{
1070
     3
1000
241982
1002
}
  0
LINE
  5
1D1
  8
_LINES
 10
873.8915604912911
 20
3289.4314970770838
 30
0.0
 11
868.24595000148497
 21
3286.8403433476401
 31
0.0
1001
REVIT
1002
{
1070
     3
1000
241982
1002
}
  0
ARC
  5
1D2
  8
_LINES
 10
873.47442926913311
 20
3290.3403433476392
 30
0.0
 40
0.9999999999999822
 50
294.65360157591709
 51
65.346398424082921
1001
REVIT
1002
{
1070
     3
1000
241982
1002
}
  0
ARC
  5
1D3
  8
_LINES
 10
868.97442926913311
 20
3295.2664685293798
 30
0.0
 40
1.599999999999991
 50
180.0
 51
245.34639842408291
1001
REVIT
1002
{
1070
     3
1000
241982
1002
}
  0
ARC
  5
1D4
  8
_LINES
 10
1073.299429269133
 20
3281.6153433476402
 30
0.0
 40
3.1750000000000189
 50
263.41068819018659
 51
0.0
1001
REVIT
1002
{
1070
     3
1000
241982
1002
}
  0
LINE
  5
1D5
  8
_LINES
 10
908.99750206133353
 20
3278.4403433476391
 30
0.0
 11
901.49750206133365
 21
3280.9403433476391
 31
0.0
1001
REVIT
1002
{
1070
     3
1000
241982
1002
}
  0
ARC
  5
1D6
  8
_LINES
 10
1070.3744292691331
 20
3301.2579072958351
 30
0.0
 40
3.200000000000002
 50
334.72227776445231
 51
0.0
1001
REVIT
1002
{
1070
     3
1000
241982
1002
}
  0
LINE
  5
1D7
  8
_LINES
 10
957.16090804619137
 20
3431.0491896181939
 30
0.0
 11
951.57636686858098
 21
3433.6123144964931
 31
0.0
1001
REVIT
1002
{
1070
     3
1000
241982
1002
}
  0
LINE
  5
1D8
  8
_LINES
 10
950.64377682403347
 20
3435.06646852938
 30
0.0
 11
950.64377682403369
 21
3462.6403433476398
 31
0.0
1001
REVIT
1002
{
1070
     3
1000
241982
1002
}
  0
LINE
  5
1D9
  8
_LINES
 10
952.24377682403349
 20
3464.2403433476402
 30
0.0
 11
958.14377682403358
 21
3464.2403433476402
 31
0.0
1001
REVIT
1002
{
1070
     3
1000
241982
1002
}
  0
LINE
  5
1DA
  8
_LINES
 10
959.7437768240336
 20
3462.6403433476398
 30
0.0
 11
959.7437768240336
 21
3423.9153433476399
 31
0.0
1001
REVIT
1002
{
1070
     3
1000
241982
1002
}
  0
LINE
  5
1DB
  8
_LINES
 10
962.91877682403344
 20
3420.7403433476388
 30
0.0
 11
984.76684961623414
 21
3420.7403433476388
 31
0.0
1001
REVIT
1002
{
1070
     3
1000
241982
1002
}
  0
LINE
  5
1DC
  8
_LINES
 10
992.26684961623391
 20
3418.2403433476402
 30
0.0
 11
1127.2437768240329
 21
3418.2403433476402
 31
0.0
1001
REVIT
1002
{
1070
     3
1000
241982
1002
}
  0
LINE
  5
1DD
  8
_LINES
 10
1127.2437768240329
 20
3418.2403433476402
 30
0.0
 11
1134.7437768240329
 21
3420.7403433476388
 31
0.0
1001
REVIT
1002
{
1070
     3
1000
241982
1002
}
  0
LINE
  5
1DE
  8
_LINES
 10
1134.7437768240329
 20
3420.7403433476388
 30
0.0
 11
1156.204439729951
 21
3418.2613167970421
 31
0.0
1001
REVIT
1002
{
1070
     3
1000
241982
1002
}
  0
LINE
  5
1DF
  8
_LINES
 10
1159.7437768240329
 20
3421.4153433476399
 30
0.0
 11
1159.7437768240329
 21
3457.0903433476401
 31
0.0
1001
REVIT
1002
{
1070
     3
1000
241982
1002
}
  0
ARC
  5
1E0
  8
_LINES
 10
1158.293776824034
 20
3457.0903433476401
 30
0.0
 40
1.449999999999982
 50
0.0
 51
180.0
1001
REVIT
1002
{
1070
     3
1000
241982
1002
}
  0
LINE
  5
1E1
  8
_LINES
 10
1156.843776824034
 20
3457.0903433476401
 30
0.0
 11
1156.8437768240331
 21
3441.0579072958349
 31
0.0
1001
REVIT
1002
{
1070
     3
1000
241982
1002
}
  0
LINE
  5
1E2
  8
_LINES
 10
1156.5373724936201
 20
3439.6914871185299
 30
0.0
 11
1153.443776824033
 21
3433.1403433476398
 31
0.0
1001
REVIT
1002
{
1070
     3
1000
241982
1002
}
  0
ARC
  5
1E3
  8
_LINES
 10
958.14377682403358
 20
3462.6403433476398
 30
0.0
 40
1.6000000000000509
 50
0.0
 51
90.0
1001
REVIT
1002
{
1070
     3
1000
241982
1002
}
  0
ARC
  5
1E4
  8
_LINES
 10
952.24377682403349
 20
3462.6403433476398
 30
0.0
 40
1.6000000000000509
 50
90.0
 51
180.0
1001
REVIT
1002
{
1070
     3
1000
241982
1002
}
  0
ARC
  5
1E5
  8
_LINES
 10
962.91877682403367
 20
3423.9153433476399
 30
0.0
 40
3.1750000000000109
 50
180.0
 51
270.0
1001
REVIT
1002
{
1070
     3
1000
241982
1002
}
  0
LINE
  5
1E6
  8
_LINES
 10
957.16090804619137
 20
3429.2314970770849
 30
0.0
 11
951.51529755638535
 21
3426.6403433476389
 31
0.0
1001
REVIT
1002
{
1070
     3
1000
241982
1002
}
  0
ARC
  5
1E7
  8
_LINES
 10
956.74377682403372
 20
3430.1403433476398
 30
0.0
 40
0.9999999999999822
 50
294.65360157591709
 51
65.346398424082921
1001
REVIT
1002
{
1070
     3
1000
241982
1002
}
  0
ARC
  5
1E8
  8
_LINES
 10
952.24377682403349
 20
3435.06646852938
 30
0.0
 40
1.599999999999991
 50
180.0
 51
245.34639842408291
1001
REVIT
1002
{
1070
     3
1000
241982
1002
}
  0
ARC
  5
1E9
  8
_LINES
 10
1156.568776824033
 20
3421.4153433476399
 30
0.0
 40
3.1750000000000189
 50
263.41068819018659
 51
0.0
1001
REVIT
1002
{
1070
     3
1000
241982
1002
}
  0
LINE
  5
1EA
  8
_LINES
 10
992.26684961623391
 20
3418.2403433476402
 30
0.0
 11
984.76684961623403
 21
3420.7403433476388
 31
0.0
1001
REVIT
1002
{
1070
     3
1000
241982
1002
}
  0
ARC
  5
1EB
  8
_LINES
 10
1153.643776824033
 20
3441.0579072958349
 30
0.0
 40
3.200000000000002
 50
334.72227776445231
 51
0.0
1001
REVIT
1002
{
1070
     3
1000
241982
1002
}
  0
VIEWPORT
  5
19C
 67
     1
  8
0
 10
128.5
 20
97.5
 30
0.0
 40
625.60341753343243
 41
222.18000000000001
 68
     1
 69
     1
1001
ACAD
1000
MVIEW
1002
{
1070
    16
1010
0.0
1020
0.0
1030
0.0
1010
0.0
1020
0.0
1030
1.0
1040
0.0
1040
222.18000000000001
1040
128.5
1040
97.5
1040
50.0
1040
0.0
1040
0.0
1070
     0
1070
   100
1070
     1
1070
     1
1070
     0
1070
     0
1070
     0
1070
     0
1040
0.0
1040
0.0
1040
0.0
1040
10.0
1040
10.0
1040
10.0
1040
10.0
1070
     0
1002
{
1002
}
1002
}
  0
VIEWPORT
  5
1A0
 67
     1
  8
0
 10
128.5
 20
97.5
 30
0.0
 40
205.59999999999999
 41
156.0
 68
     2
 69
     2
1001
ACAD
1000
MVIEW
1002
{
1070
    16
1010
0.0
1020
0.0
1030
0.0
1010
0.0
1020
0.0
1030
1.0
1040
0.0
1040
314.16696485543059
1040
1072.424429269133
1040
3368.6175772029051
1040
50.0
1040
0.0
1040
0.0
1070
     0
1070
  1000
1070
     1
1070
     1
1070
     0
1070
     0
1070
     0
1070
     0
1040
0.0
1040
0.0
1040
0.0
1040
1.0
1040
1.0
1040
0.0
1040
0.0
1070
     0
1002
{
1002
}
1002
}
  0
ENDSEC
  0
EOF
