  0
SECTION
  2
HEADER
  9
$ACADVER
  1
AC1024
  9
$ACADMAINTVER
 70
   226
  9
$DWGCODEPAGE
  3
ANSI_1252
  9
$INSBASE
 10
0.0
 20
0.0
 30
0.0
  9
$EXTMIN
 10
3495.232191138018
 20
3421.20049522824
 30
0.0
  9
$EXTMAX
 10
4403.172929319885
 20
4070.9858500187
 30
0.0
  9
$LIMMIN
 10
0.0
 20
0.0
  9
$LIMMAX
 10
12.0
 20
9.0
  9
$ORTHOMODE
 70
     0
  9
$REGENMODE
 70
     1
  9
$FILLMODE
 70
     1
  9
$QTEXTMODE
 70
     0
  9
$MIRRTEXT
 70
     0
  9
$LTSCALE
 40
1.0
  9
$ATTMODE
 70
     1
  9
$TEXTSIZE
 40
0.2
  9
$TRACEWID
 40
0.05
  9
$TEXTSTYLE
  7
Standard
  9
$CLAYER
  8
0
  9
$CELTYPE
  6
ByLayer
  9
$CECOLOR
 62
   256
  9
$CELTSCALE
 40
1.0
  9
$DISPSILH
 70
     0
  9
$DIMSCALE
 40
1.0
  9
$DIMASZ
 40
0.18
  9
$DIMEXO
 40
0.0625
  9
$DIMDLI
 40
0.38
  9
$DIMRND
 40
0.0
  9
$DIMDLE
 40
0.0
  9
$DIMEXE
 40
0.18
  9
$DIMTP
 40
0.0
  9
$DIMTM
 40
0.0
  9
$DIMTXT
 40
0.18
  9
$DIMCEN
 40
0.09
  9
$DIMTSZ
 40
0.0
  9
$DIMTOL
 70
     0
  9
$DIMLIM
 70
     0
  9
$DIMTIH
 70
     1
  9
$DIMTOH
 70
     1
  9
$DIMSE1
 70
     0
  9
$DIMSE2
 70
     0
  9
$DIMTAD
 70
     0
  9
$DIMZIN
 70
     0
  9
$DIMBLK
  1

  9
$DIMASO
 70
     1
  9
$DIMSHO
 70
     1
  9
$DIMPOST
  1

  9
$DIMAPOST
  1

  9
$DIMALT
 70
     0
  9
$DIMALTD
 70
     2
  9
$DIMALTF
 40
25.4
  9
$DIMLFAC
 40
1.0
  9
$DIMTOFL
 70
     0
  9
$DIMTVP
 40
0.0
  9
$DIMTIX
 70
     0
  9
$DIMSOXD
 70
     0
  9
$DIMSAH
 70
     0
  9
$DIMBLK1
  1

  9
$DIMBLK2
  1

  9
$DIMSTYLE
  2
Standard
  9
$DIMCLRD
 70
     0
  9
$DIMCLRE
 70
     0
  9
$DIMCLRT
 70
     0
  9
$DIMTFAC
 40
1.0
  9
$DIMGAP
 40
0.09
  9
$DIMJUST
 70
     0
  9
$DIMSD1
 70
     0
  9
$DIMSD2
 70
     0
  9
$DIMTOLJ
 70
     1
  9
$DIMTZIN
 70
     0
  9
$DIMALTZ
 70
     0
  9
$DIMALTTZ
 70
     0
  9
$DIMUPT
 70
     0
  9
$DIMDEC
 70
     4
  9
$DIMTDEC
 70
     4
  9
$DIMALTU
 70
     2
  9
$DIMALTTD
 70
     2
  9
$DIMTXSTY
  7
Standard
  9
$DIMAUNIT
 70
     0
  9
$DIMADEC
 70
     0
  9
$DIMALTRND
 40
0.0
  9
$DIMAZIN
 70
     0
  9
$DIMDSEP
 70
    46
  9
$DIMATFIT
 70
     3
  9
$DIMFRAC
 70
     0
  9
$DIMLDRBLK
  1

  9
$DIMLUNIT
 70
     2
  9
$DIMLWD
 70
    -2
  9
$DIMLWE
 70
    -2
  9
$DIMTMOVE
 70
     0
  9
$DIMFXL
 40
1.0
  9
$DIMFXLON
 70
     0
  9
$DIMJOGANG
 40
0.7853981633974483
  9
$DIMTFILL
 70
     0
  9
$DIMTFILLCLR
 70
     0
  9
$DIMARCSYM
 70
     0
  9
$DIMLTYPE
  6

  9
$DIMLTEX1
  6

  9
$DIMLTEX2
  6

  9
$DIMTXTDIRECTION
 70
     0
  9
$LUNITS
 70
     2
  9
$LUPREC
 70
     4
  9
$SKETCHINC
 40
0.1
  9
$FILLETRAD
 40
0.0
  9
$AUNITS
 70
     0
  9
$AUPREC
 70
     0
  9
$MENU
  1
.
  9
$ELEVATION
 40
0.0
  9
$PELEVATION
 40
0.0
  9
$THICKNESS
 40
0.0
  9
$LIMCHECK
 70
     0
  9
$CHAMFERA
 40
0.0
  9
$CHAMFERB
 40
0.0
  9
$CHAMFERC
 40
0.0
  9
$CHAMFERD
 40
0.0
  9
$SKPOLY
 70
     0
  9
$TDCREATE
 40
2459165.015798611
  9
$TDUCREATE
 40
2459164.474131945
  9
$TDUPDATE
 40
2459165.015798611
  9
$TDUUPDATE
 40
2459164.474131945
  9
$TDINDWG
 40
0.0000115741
  9
$TDUSRTIMER
 40
0.0000115741
  9
$USRTIMER
 70
     1
  9
$ANGBASE
 50
0.0
  9
$ANGDIR
 70
     0
  9
$PDMODE
 70
     0
  9
$PDSIZE
 40
0.0
  9
$PLINEWID
 40
0.0
  9
$SPLFRAME
 70
     0
  9
$SPLINETYPE
 70
     6
  9
$SPLINESEGS
 70
     8
  9
$HANDSEED
  5
2E7
  9
$SURFTAB1
 70
     6
  9
$SURFTAB2
 70
     6
  9
$SURFTYPE
 70
     6
  9
$SURFU
 70
     6
  9
$SURFV
 70
     6
  9
$UCSBASE
  2

  9
$UCSNAME
  2

  9
$UCSORG
 10
0.0
 20
0.0
 30
0.0
  9
$UCSXDIR
 10
1.0
 20
0.0
 30
0.0
  9
$UCSYDIR
 10
0.0
 20
1.0
 30
0.0
  9
$UCSORTHOREF
  2

  9
$UCSORTHOVIEW
 70
     0
  9
$UCSORGTOP
 10
0.0
 20
0.0
 30
0.0
  9
$UCSORGBOTTOM
 10
0.0
 20
0.0
 30
0.0
  9
$UCSORGLEFT
 10
0.0
 20
0.0
 30
0.0
  9
$UCSORGRIGHT
 10
0.0
 20
0.0
 30
0.0
  9
$UCSORGFRONT
 10
0.0
 20
0.0
 30
0.0
  9
$UCSORGBACK
 10
0.0
 20
0.0
 30
0.0
  9
$PUCSBASE
  2

  9
$PUCSNAME
  2

  9
$PUCSORG
 10
0.0
 20
0.0
 30
0.0
  9
$PUCSXDIR
 10
1.0
 20
0.0
 30
0.0
  9
$PUCSYDIR
 10
0.0
 20
1.0
 30
0.0
  9
$PUCSORTHOREF
  2

  9
$PUCSORTHOVIEW
 70
     0
  9
$PUCSORGTOP
 10
0.0
 20
0.0
 30
0.0
  9
$PUCSORGBOTTOM
 10
0.0
 20
0.0
 30
0.0
  9
$PUCSORGLEFT
 10
0.0
 20
0.0
 30
0.0
  9
$PUCSORGRIGHT
 10
0.0
 20
0.0
 30
0.0
  9
$PUCSORGFRONT
 10
0.0
 20
0.0
 30
0.0
  9
$PUCSORGBACK
 10
0.0
 20
0.0
 30
0.0
  9
$USERI1
 70
     0
  9
$USERI2
 70
     0
  9
$USERI3
 70
     0
  9
$USERI4
 70
     0
  9
$USERI5
 70
     0
  9
$USERR1
 40
0.0
  9
$USERR2
 40
0.0
  9
$USERR3
 40
0.0
  9
$USERR4
 40
0.0
  9
$USERR5
 40
0.0
  9
$WORLDVIEW
 70
     1
  9
$SHADEDGE
 70
     3
  9
$SHADEDIF
 70
    70
  9
$TILEMODE
 70
     0
  9
$MAXACTVP
 70
    64
  9
$PINSBASE
 10
0.0
 20
0.0
 30
0.0
  9
$PLIMCHECK
 70
     0
  9
$PEXTMIN
 10
-0.0243254853795738
 20
0.0239675613783464
 30
0.0
  9
$PEXTMAX
 10
296.9756745145732
 20
210.0239675613797
 30
0.0
  9
$PLIMMIN
 10
0.0
 20
0.0
  9
$PLIMMAX
 10
12.0
 20
9.0
  9
$UNITMODE
 70
     0
  9
$VISRETAIN
 70
     1
  9
$PLINEGEN
 70
     0
  9
$PSLTSCALE
 70
     1
  9
$TREEDEPTH
 70
  3020
  9
$CMLSTYLE
  2
Standard
  9
$CMLJUST
 70
     0
  9
$CMLSCALE
 40
1.0
  9
$PROXYGRAPHICS
 70
     1
  9
$MEASUREMENT
 70
     1
  9
$CELWEIGHT
370
    -1
  9
$ENDCAPS
280
     0
  9
$JOINSTYLE
280
     0
  9
$LWDISPLAY
290
     0
  9
$INSUNITS
 70
     4
  9
$HYPERLINKBASE
  1

  9
$STYLESHEET
  1

  9
$XEDIT
290
     1
  9
$CEPSNTYPE
380
     0
  9
$PSTYLEMODE
290
     1
  9
$FINGERPRINTGUID
  2
{26921EFD-1977-1243-9D94-DA17EDC0FD24}
  9
$VERSIONGUID
  2
{8AF6C863-FAEF-6F45-96CB-CFFCDF13C7BC}
  9
$EXTNAMES
290
     1
  9
$PSVPSCALE
 40
0.0
  9
$OLESTARTUP
290
     0
  9
$SORTENTS
280
   127
  9
$INDEXCTL
280
     0
  9
$HIDETEXT
280
     1
  9
$XCLIPFRAME
280
     2
  9
$HALOGAP
280
     0
  9
$OBSCOLOR
 70
   257
  9
$OBSLTYPE
280
     0
  9
$INTERSECTIONDISPLAY
280
     0
  9
$INTERSECTIONCOLOR
 70
   257
  9
$DIMASSOC
280
     2
  9
$PROJECTNAME
  1

  9
$CAMERADISPLAY
290
     0
  9
$LENSLENGTH
 40
50.0
  9
$CAMERAHEIGHT
 40
0.0
  9
$STEPSPERSEC
 40
2.0
  9
$STEPSIZE
 40
6.0
  9
$3DDWFPREC
 40
2.0
  9
$PSOLWIDTH
 40
0.25
  9
$PSOLHEIGHT
 40
4.0
  9
$LOFTANG1
 40
1.570796326794896
  9
$LOFTANG2
 40
1.570796326794896
  9
$LOFTMAG1
 40
0.0
  9
$LOFTMAG2
 40
0.0
  9
$LOFTPARAM
 70
     7
  9
$LOFTNORMALS
280
     1
  9
$LATITUDE
 40
0.0
  9
$LONGITUDE
 40
0.0
  9
$NORTHDIRECTION
 40
0.0
  9
$TIMEZONE
 70
     0
  9
$LIGHTGLYPHDISPLAY
280
     1
  9
$TILEMODELIGHTSYNCH
280
     1
  9
$CMATERIAL
347
11
  9
$SOLIDHIST
280
     0
  9
$SHOWHIST
280
     1
  9
$DWFFRAME
280
     2
  9
$DGNFRAME
280
     0
  9
$REALWORLDSCALE
290
     1
  9
$INTERFERECOLOR
 62
     1
  9
$INTERFEREOBJVS
345
33
  9
$INTERFEREVPVS
346
30
  9
$CSHADOW
280
     0
  9
$SHADOWPLANELOCATION
 40
0.0
  0
ENDSEC
  0
SECTION
  2
CLASSES
  0
CLASS
  1
ACDBDICTIONARYWDFLT
  2
AcDbDictionaryWithDefault
  3
ObjectDBX Classes
 90
        0
 91
        1
280
     0
281
     0
  0
CLASS
  1
MATERIAL
  2
AcDbMaterial
  3
ObjectDBX Classes
 90
     1153
 91
        3
280
     0
281
     0
  0
CLASS
  1
VISUALSTYLE
  2
AcDbVisualStyle
  3
ObjectDBX Classes
 90
     4095
 91
       24
280
     0
281
     0
  0
CLASS
  1
SCALE
  2
AcDbScale
  3
ObjectDBX Classes
 90
     1153
 91
       17
280
     0
281
     0
  0
CLASS
  1
TABLESTYLE
  2
AcDbTableStyle
  3
ObjectDBX Classes
 90
     4095
 91
        1
280
     0
281
     0
  0
CLASS
  1
MLEADERSTYLE
  2
AcDbMLeaderStyle
  3
ACDB_MLEADERSTYLE_CLASS
 90
     4095
 91
        1
280
     0
281
     0
  0
CLASS
  1
ACDBSECTIONVIEWSTYLE
  2
AcDbSectionViewStyle
  3
ObjectDBX Classes
 90
     1025
 91
        1
280
     0
281
     0
  0
CLASS
  1
ACDBDETAILVIEWSTYLE
  2
AcDbDetailViewStyle
  3
ObjectDBX Classes
 90
     1025
 91
        1
280
     0
281
     0
  0
CLASS
  1
RASTERVARIABLES
  2
AcDbRasterVariables
  3
ISM
 90
        0
 91
        1
280
     0
281
     0
  0
CLASS
  1
DICTIONARYVAR
  2
AcDbDictionaryVar
  3
ObjectDBX Classes
 90
        0
 91
        5
280
     0
281
     0
  0
CLASS
  1
CELLSTYLEMAP
  2
AcDbCellStyleMap
  3
ObjectDBX Classes
 90
     1152
 91
        2
280
     0
281
     0
  0
CLASS
  1
IMAGEDEF
  2
AcDbRasterImageDef
  3
ISM
 90
        0
 91
        1
280
     0
281
     0
  0
CLASS
  1
IMAGE
  2
AcDbRasterImage
  3
ISM
 90
     2175
 91
        1
280
     0
281
     1
  0
CLASS
  1
IMAGEDEF_REACTOR
  2
AcDbRasterImageDefReactor
  3
ISM
 90
        1
 91
        1
280
     0
281
     0
  0
CLASS
  1
SORTENTSTABLE
  2
AcDbSortentsTable
  3
ObjectDBX Classes
 90
        0
 91
        1
280
     0
281
     0
  0
ENDSEC
  0
SECTION
  2
TABLES
  0
TABLE
  2
VPORT
  5
8
330
0
100
AcDbSymbolTable
 70
     1
  0
VPORT
  5
57
330
8
100
AcDbSymbolTableRecord
100
AcDbViewportTableRecord
  2
*Active
 70
     0
 10
0.0
 20
0.0
 11
1.0
 21
1.0
 12
3949.202560228953
 22
3746.093172623471
 13
0.0
 23
0.0
 14
1.0
 24
1.0
 15
0.0
 25
0.0
 16
0.0
 26
0.0
 36
1.0
 17
0.0
 27
0.0
 37
0.0
 40
649.7853547904601
 41
1.39729332384639
 42
50.0
 43
0.0
 44
0.0
 50
0.0
 51
0.0
 71
     0
 72
  1000
 73
     1
 74
     0
 75
     1
 76
     0
 77
     0
 78
     0
281
     0
 65
     1
110
0.0
120
0.0
130
0.0
111
1.0
121
0.0
131
0.0
112
0.0
122
1.0
132
0.0
 79
     0
146
0.0
 60
     3
 61
     5
292
     1
282
     1
141
0.0
142
0.0
 63
   250
421
  3355443
  0
ENDTAB
  0
TABLE
  2
LTYPE
  5
5
330
0
100
AcDbSymbolTable
 70
     4
  0
LTYPE
  5
5B
330
5
100
AcDbSymbolTableRecord
100
AcDbLinetypeTableRecord
  2
ByBlock
 70
     0
  3

 72
    65
 73
     0
 40
0.0
  0
LTYPE
  5
5C
330
5
100
AcDbSymbolTableRecord
100
AcDbLinetypeTableRecord
  2
ByLayer
 70
     0
  3

 72
    65
 73
     0
 40
0.0
  0
LTYPE
  5
5D
330
5
100
AcDbSymbolTableRecord
100
AcDbLinetypeTableRecord
  2
Continuous
 70
     0
  3
Solid line
 72
    65
 73
     0
 40
0.0
  0
LTYPE
  5
BC
330
5
100
AcDbSymbolTableRecord
100
AcDbLinetypeTableRecord
  2
Dash 2 - 2
 70
     0
  3

 72
    65
 73
     2
 40
4.0
 49
2.0
 74
     0
 49
-2.0
 74
     0
  0
LTYPE
  5
149
330
5
100
AcDbSymbolTableRecord
100
AcDbLinetypeTableRecord
  2
FPA_Flashing_Tape
 70
     0
  3

 72
    65
 73
     4
 40
3.0
 49
1.5
 74
     0
 49
-0.75
 74
     0
 49
0.0
 74
     0
 49
-0.75
 74
     0
  0
LTYPE
  5
181
330
5
100
AcDbSymbolTableRecord
100
AcDbLinetypeTableRecord
  2
Dash
 70
     0
  3

 72
    65
 73
     2
 40
6.350000000000001
 49
3.175
 74
     0
 49
-3.175
 74
     0
  0
ENDTAB
  0
TABLE
  2
LAYER
  5
2
330
0
100
AcDbSymbolTable
 70
    13
  0
LAYER
  5
54
330
2
100
AcDbSymbolTableRecord
100
AcDbLayerTableRecord
  2
0
 70
     0
 62
     7
  6
Continuous
370
    -3
390
F
347
21
  0
LAYER
  5
BA
330
2
100
AcDbSymbolTableRecord
100
AcDbLayerTableRecord
  2
A-DETL-GENF
 70
     0
 62
    92
  6
Continuous
370
    30
390
F
347
21
  0
LAYER
  5
BB
330
2
100
AcDbSymbolTableRecord
100
AcDbLayerTableRecord
  2
A-DETL
 70
     0
 62
    90
  6
Continuous
370
     9
390
F
347
21
  0
LAYER
  5
158
330
2
100
AcDbSymbolTableRecord
100
AcDbLayerTableRecord
  2
A-DETL-THIN
 70
     0
 62
   151
  6
Continuous
370
     9
390
F
347
21
  0
LAYER
  5
186
330
2
100
AcDbSymbolTableRecord
100
AcDbLayerTableRecord
  2
A-DETL-MEDM
 70
     0
 62
    33
  6
Continuous
370
    30
390
F
347
21
  0
LAYER
  5
1C6
330
2
100
AcDbSymbolTableRecord
100
AcDbLayerTableRecord
  2
G-ANNO-TEXT
 70
     0
 62
   231
  6
Continuous
370
     9
390
F
347
21
  0
LAYER
  5
21B
330
2
100
AcDbSymbolTableRecord
100
AcDbLayerTableRecord
  2
A-ANNO-DIMS
 70
     0
 62
   211
  6
Continuous
370
     9
390
F
347
21
  0
LAYER
  5
21D
330
2
100
AcDbSymbolTableRecord
100
AcDbLayerTableRecord
  2
A-ANNO-DIMS-5
 70
     0
 62
   211
  6
Continuous
370
     9
390
F
347
21
  0
LAYER
  5
232
330
2
100
AcDbSymbolTableRecord
100
AcDbLayerTableRecord
  2
Defpoints
 70
     0
 62
     7
  6
Continuous
290
     0
370
    -3
390
F
347
21
  0
LAYER
  5
26B
330
2
100
AcDbSymbolTableRecord
100
AcDbLayerTableRecord
  2
G-ANNO-NPLT
 70
     0
 62
   191
  6
Continuous
290
     0
370
    -3
390
F
347
21
  0
LAYER
  5
271
330
2
100
AcDbSymbolTableRecord
100
AcDbLayerTableRecord
  2
G-ANNO-TTLB
 70
     0
 62
     6
  6
Continuous
370
     9
390
F
347
21
  0
LAYER
  5
277
330
2
100
AcDbSymbolTableRecord
100
AcDbLayerTableRecord
  2
G-ANNO-TTLB-THIN
 70
     0
 62
   151
  6
Continuous
370
    25
390
F
347
21
  0
LAYER
  5
27A
330
2
100
AcDbSymbolTableRecord
100
AcDbLayerTableRecord
  2
G-ANNO-TTLB-MEDM
 70
     0
 62
    33
  6
Continuous
370
    50
390
F
347
21
  0
ENDTAB
  0
TABLE
  2
STYLE
  5
3
330
0
100
AcDbSymbolTable
 70
     7
  0
STYLE
  5
55
330
3
100
AcDbSymbolTableRecord
100
AcDbTextStyleTableRecord
  2
Standard
 70
     0
 40
0.0
 41
1.0
 50
0.0
 71
     0
 42
0.2
  3
txt
  4

  0
STYLE
  5
5A
330
3
100
AcDbSymbolTableRecord
100
AcDbTextStyleTableRecord
  2
Annotative
 70
     0
 40
0.0
 41
1.0
 50
0.0
 71
     0
 42
0.2
  3
txt
  4

1001
AcadAnnotative
1000
AnnotativeData
1002
{
1070
     1
1070
     1
1002
}
  0
STYLE
  5
1CD
330
3
100
AcDbSymbolTableRecord
100
AcDbTextStyleTableRecord
  2
Century Gothic
 70
     0
 40
12.5
 41
0.9
 50
0.0
 71
     0
 42
0.2
  3
GOTHIC.TTF
  4

1001
ACAD
1000
Century Gothic
1071
       34
  0
STYLE
  5
281
330
3
100
AcDbSymbolTableRecord
100
AcDbTextStyleTableRecord
  2
Century Gothic_1
 70
     0
 40
1.8
 41
0.9
 50
0.0
 71
     0
 42
0.2
  3
GOTHIC.TTF
  4

1001
ACAD
1000
Century Gothic
1071
       34
  0
STYLE
  5
2A0
330
3
100
AcDbSymbolTableRecord
100
AcDbTextStyleTableRecord
  2
Century Gothic_2
 70
     0
 40
4.0
 41
0.9
 50
0.0
 71
     0
 42
0.2
  3
GOTHIC.TTF
  4

1001
ACAD
1000
Century Gothic
1071
       34
  0
STYLE
  5
2A2
330
3
100
AcDbSymbolTableRecord
100
AcDbTextStyleTableRecord
  2
Century Gothic_3
 70
     0
 40
3.5
 41
0.9
 50
0.0
 71
     0
 42
0.2
  3
GOTHIC.TTF
  4

1001
ACAD
1000
Century Gothic
1071
       34
  0
STYLE
  5
2A5
330
3
100
AcDbSymbolTableRecord
100
AcDbTextStyleTableRecord
  2
Century Gothic_4
 70
     0
 40
4.999999999999999
 41
1.0
 50
0.0
 71
     0
 42
0.2
  3
GOTHIC.TTF
  4

1001
ACAD
1000
Century Gothic
1071
       34
  0
ENDTAB
  0
TABLE
  2
VIEW
  5
6
330
0
100
AcDbSymbolTable
 70
     0
  0
ENDTAB
  0
TABLE
  2
UCS
  5
7
330
0
100
AcDbSymbolTable
 70
     0
  0
ENDTAB
  0
TABLE
  2
APPID
  5
9
330
0
100
AcDbSymbolTable
 70
     3
  0
APPID
  5
56
330
9
100
AcDbSymbolTableRecord
100
AcDbRegAppTableRecord
  2
ACAD
 70
     0
  0
APPID
  5
5E
330
9
100
AcDbSymbolTableRecord
100
AcDbRegAppTableRecord
  2
AcadAnnotative
 70
     0
  0
APPID
  5
78
330
9
100
AcDbSymbolTableRecord
100
AcDbRegAppTableRecord
  2
REVIT
 70
     0
  0
ENDTAB
  0
TABLE
  2
DIMSTYLE
  5
A
330
0
100
AcDbSymbolTable
 70
     4
100
AcDbDimStyleTable
 71
     2
340
252
340
22C
  0
DIMSTYLE
105
58
330
A
100
AcDbSymbolTableRecord
100
AcDbDimStyleTableRecord
  2
Standard
 70
     0
340
55
  0
DIMSTYLE
105
59
330
A
100
AcDbSymbolTableRecord
100
AcDbDimStyleTableRecord
  2
Annotative
 70
     0
340
55
1001
AcadAnnotative
1000
AnnotativeData
1002
{
1070
     1
1070
     1
1002
}
  0
DIMSTYLE
105
22C
102
{ACAD_REACTORS
330
231
102
}
330
A
100
AcDbSymbolTableRecord
100
AcDbDimStyleTableRecord
  2
01_-_Diagonal
 70
     0
  3
<>
 40
304.8
 41
0.041010498687664
 44
0.0328083989501312
 49
0.0492125984251969
 69
     1
 73
     0
 74
     0
 77
     1
 78
     8
 90
     2
140
13.05210337146907
145
1.0
147
0.0164041994750656
172
     1
173
     1
174
     1
179
     2
271
     0
279
     1
288
     1
290
     1
340
1CD
343
22D
344
22D
  0
DIMSTYLE
105
252
102
{ACAD_REACTORS
330
253
102
}
330
A
100
AcDbSymbolTableRecord
100
AcDbDimStyleTableRecord
  2
01_-_Diagonal_1
 70
     0
  3
<>
 40
304.8
 41
0.041010498687664
 44
0.0328083989501312
 49
0.0492125984251969
 69
     1
 73
     0
 74
     0
 77
     1
 78
     8
 90
     2
140
13.05210337146907
145
1.0
147
0.0164041994750656
172
     1
173
     1
174
     1
179
     2
271
     0
290
     1
340
1CD
343
22D
344
22D
  0
ENDTAB
  0
TABLE
  2
BLOCK_RECORD
  5
1
330
0
100
AcDbSymbolTable
 70
    22
  0
BLOCK_RECORD
  5
70
102
{ACAD_XDICTIONARY
360
2AC
102
}
330
1
100
AcDbSymbolTableRecord
100
AcDbBlockTableRecord
  2
*Model_Space
340
73
 70
     0
280
     1
281
     0
  0
BLOCK_RECORD
  5
6C
330
1
100
AcDbSymbolTableRecord
100
AcDbBlockTableRecord
  2
*Paper_Space
340
6F
 70
     0
280
     1
281
     0
  0
BLOCK_RECORD
  5
74
330
1
100
AcDbSymbolTableRecord
100
AcDbBlockTableRecord
  2
*Paper_Space0
340
77
 70
     0
280
     1
281
     0
  0
BLOCK_RECORD
  5
CA
330
1
100
AcDbSymbolTableRecord
100
AcDbBlockTableRecord
  2
4594_Jamb Liner - 19mm H3_1-164127-W-TRSIL-03-V-G - Garage Door Head Flashing Detail _Vertical_
340
0
102
{BLKREFS
331
DD
102
}
 70
     0
280
     1
281
     0
  0
BLOCK_RECORD
  5
FD
330
1
100
AcDbSymbolTableRecord
100
AcDbBlockTableRecord
  2
4594_Packer - Timber Packer H3_2-114178-W-TRSIL-03-V-G - Garage Door Head Flashing Detail _Vertical_
340
0
102
{BLKREFS
331
105
102
}
 70
     0
280
     1
281
     0
  0
BLOCK_RECORD
  5
106
330
1
100
AcDbSymbolTableRecord
100
AcDbBlockTableRecord
  2
4811_Air Seal w Foam - Airseal on PEF Backing Rod-114086-W-TRSIL-03-V-G - Garage Door Head Flashing Detail _Vertical_
340
0
102
{BLKREFS
331
10E
102
}
 70
     0
280
     1
281
     0
  0
BLOCK_RECORD
  5
10F
330
1
100
AcDbSymbolTableRecord
100
AcDbBlockTableRecord
  2
4821_Cavity Closure - 4821_Cavity Closure-69544-W-TRSIL-03-V-G - Garage Door Head Flashing Detail _Vertical_
340
0
102
{BLKREFS
331
147
102
}
 70
     0
280
     1
281
     0
  0
BLOCK_RECORD
  5
148
330
1
100
AcDbSymbolTableRecord
100
AcDbBlockTableRecord
  2
4161_Flashing Tape - 4161_Flashing Tape-35988-W-TRSIL-03-V-G - Garage Door Head Flashing Detail _Vertical_
340
0
102
{BLKREFS
331
14D
102
}
 70
     0
280
     1
281
     0
  0
BLOCK_RECORD
  5
14E
330
1
100
AcDbSymbolTableRecord
100
AcDbBlockTableRecord
  2
4161_Flashing Tape - 4161_Flashing Tape-35989-W-TRSIL-03-V-G - Garage Door Head Flashing Detail _Vertical_
340
0
102
{BLKREFS
331
152
102
}
 70
     0
280
     1
281
     0
  0
BLOCK_RECORD
  5
153
330
1
100
AcDbSymbolTableRecord
100
AcDbBlockTableRecord
  2
4161_Flashing Tape - 4161_Flashing Tape-35990-W-TRSIL-03-V-G - Garage Door Head Flashing Detail _Vertical_
340
0
102
{BLKREFS
331
157
102
}
 70
     0
280
     1
281
     0
  0
BLOCK_RECORD
  5
15A
330
1
100
AcDbSymbolTableRecord
100
AcDbBlockTableRecord
  2
FP Timber Nog Packer1 - Variable-69545-W-TRSIL-03-V-G - Garage Door Head Flashing Detail _Vertical_
340
0
102
{BLKREFS
331
161
102
}
 70
     0
280
     1
281
     0
  0
BLOCK_RECORD
  5
162
330
1
100
AcDbSymbolTableRecord
100
AcDbBlockTableRecord
  2
FP Timber Nog Packer1 - Variable-V1-W-TRSIL-03-V-G - Garage Door Head Flashing Detail _Vertical_
340
0
102
{BLKREFS
331
16B
102
}
 70
     0
280
     1
281
     0
  0
BLOCK_RECORD
  5
180
330
1
100
AcDbSymbolTableRecord
100
AcDbBlockTableRecord
  2
HP_WProof - Building Wrap - HP_WProof - Building Wrap-69547-W-TRSIL-03-V-G - Garage Door Head Flashing Detail _Vertical_
340
0
102
{BLKREFS
331
185
102
}
 70
     0
280
     1
281
     0
  0
BLOCK_RECORD
  5
18F
330
1
100
AcDbSymbolTableRecord
100
AcDbBlockTableRecord
  2
HP_WProof - Building Wrap - HP_WProof - Building Wrap-222206-W-TRSIL-03-V-G - Garage Door Head Flashing Detail _Vertical_
340
0
102
{BLKREFS
331
193
102
}
 70
     0
280
     1
281
     0
  0
BLOCK_RECORD
  5
19A
330
1
100
AcDbSymbolTableRecord
100
AcDbBlockTableRecord
  2
FP - Break Line - FP - Break Line-100289-W-TRSIL-03-V-G - Garage Door Head Flashing Detail _Vertical_
340
0
102
{BLKREFS
331
1A2
102
}
 70
     0
280
     1
281
     0
  0
BLOCK_RECORD
  5
1A3
330
1
100
AcDbSymbolTableRecord
100
AcDbBlockTableRecord
  2
CAVIBAT Batten Profile - Non Cavibat-98797-W-TRSIL-03-V-G - Garage Door Head Flashing Detail _Vertical_
340
0
102
{BLKREFS
331
1AB
102
}
 70
     0
280
     1
281
     0
  0
BLOCK_RECORD
  5
1B4
330
1
100
AcDbSymbolTableRecord
100
AcDbBlockTableRecord
  2
FP - Break Line - FP - Break Line-222446-W-TRSIL-03-V-G - Garage Door Head Flashing Detail _Vertical_
340
0
102
{BLKREFS
331
1BC
102
}
 70
     0
280
     1
281
     0
  0
BLOCK_RECORD
  5
1BD
330
1
100
AcDbSymbolTableRecord
100
AcDbBlockTableRecord
  2
FP - Break Line - FP - Break Line-221841-W-TRSIL-03-V-G - Garage Door Head Flashing Detail _Vertical_
340
0
102
{BLKREFS
331
1C5
102
}
 70
     0
280
     1
281
     0
  0
BLOCK_RECORD
  5
22D
330
1
100
AcDbSymbolTableRecord
100
AcDbBlockTableRecord
  2
_Oblique
340
0
102
{BLKREFS
102
}
 70
     0
280
     1
281
     0
  0
BLOCK_RECORD
  5
233
330
1
100
AcDbSymbolTableRecord
100
AcDbBlockTableRecord
  2
DIMBLOCK1-W-TRSIL-03-V-G - Garage Door Head Flashing Detail _Vertical_
340
0
 70
     0
280
     1
281
     0
  0
BLOCK_RECORD
  5
254
330
1
100
AcDbSymbolTableRecord
100
AcDbBlockTableRecord
  2
DIMBLOCK2-W-TRSIL-03-V-G - Garage Door Head Flashing Detail _Vertical_
340
0
 70
     0
280
     1
281
     0
  0
BLOCK_RECORD
  5
272
330
1
100
AcDbSymbolTableRecord
100
AcDbBlockTableRecord
  2
Titleblock A4 The roofing store - Titleblock A4 The roofing store-2694-Garage Door Head Flashing Detail _Ver__
340
0
102
{BLKREFS
331
29F
102
}
 70
     0
280
     1
281
     0
  0
ENDTAB
  0
ENDSEC
  0
SECTION
  2
BLOCKS
  0
BLOCK
  5
71
330
70
100
AcDbEntity
  8
0
100
AcDbBlockBegin
  2
*Model_Space
 70
     0
 10
0.0
 20
0.0
 30
0.0
  3
*Model_Space
  1

  0
ENDBLK
  5
72
330
70
100
AcDbEntity
  8
0
100
AcDbBlockEnd
  0
BLOCK
  5
6D
330
6C
100
AcDbEntity
 67
     1
  8
0
100
AcDbBlockBegin
  2
*Paper_Space
 70
     0
 10
0.0
 20
0.0
 30
0.0
  3
*Paper_Space
  1

  0
ENDBLK
  5
6E
330
6C
100
AcDbEntity
 67
     1
  8
0
100
AcDbBlockEnd
  0
BLOCK
  5
75
330
74
100
AcDbEntity
 67
     1
  8
0
100
AcDbBlockBegin
  2
*Paper_Space0
 70
     0
 10
0.0
 20
0.0
 30
0.0
  3
*Paper_Space0
  1

  0
ENDBLK
  5
76
330
74
100
AcDbEntity
 67
     1
  8
0
100
AcDbBlockEnd
  0
BLOCK
  5
DB
330
CA
100
AcDbEntity
  8
0
100
AcDbBlockBegin
  2
4594_Jamb Liner - 19mm H3_1-164127-W-TRSIL-03-V-G - Garage Door Head Flashing Detail _Vertical_
 70
     0
 10
0.0
 20
0.0
 30
0.0
  3
4594_Jamb Liner - 19mm H3_1-164127-W-TRSIL-03-V-G - Garage Door Head Flashing Detail _Vertical_
  1

  0
HATCH
  5
D4
330
CA
100
AcDbEntity
  8
A-DETL-GENF
100
AcDbHatch
 10
0.0
 20
0.0
 30
0.0
210
0.0
220
0.0
230
1.0
  2
FP_1
 70
     0
 71
     0
 91
        1
 92
        0
 93
        9
 72
     1
 10
-92.89436252104255
 20
-9.499999999999193
 11
93.23773535993788
 21
-9.499999999999193
 72
     1
 10
93.2377353599379
 20
-9.499999999999193
 11
93.2377353599379
 21
9.50000000000109
 72
     1
 10
93.2377353599379
 20
9.500000000001088
 11
-68.30192949032518
 21
9.500000000001088
 72
     1
 10
-68.30192949032519
 20
9.500000000001088
 11
-68.30192949032519
 21
0.000000000003249
 72
     1
 10
-68.30192949032519
 20
0.0000000000032486
 11
-81.30192949032467
 21
0.0000000000032486
 72
     1
 10
-81.30192949032467
 20
0.0000000000032486
 11
-81.30192949032467
 21
9.500000000001088
 72
     1
 10
-81.30192949032467
 20
9.500000000001088
 11
-93.23773535993424
 21
9.500000000001223
 72
     1
 10
-93.23773535993424
 20
9.500000000001223
 11
-93.2377353599341
 21
-9.499999999999195
 72
     1
 10
-93.2377353599341
 20
-9.499999999999193
 11
-92.89436252104255
 21
-9.499999999999193
 97
        0
 75
     0
 76
     2
 52
0.0
 41
1.0
 77
     0
 78
    54
 53
341.565
 43
-19.377
 44
-53.033
 45
70.7109951443106
 46
-70.71048900765205
 79
     2
 49
55.90199999999999
 49
-167.705
 53
338.962
 43
-22.913
 44
-63.64
 45
707.1039507808002
 46
-282.8480922335938
 79
     2
 49
49.244
 49
-935.641
 53
225.0
 43
47.798
 44
7.071
 45
-70.71067811865475
 46
70.71067811865474
 79
     2
 49
8.381999999999999
 49
-91.61799999999999
 53
345.735
 43
-4.528
 44
-49.498
 45
3606.233783681979
 46
-919.2686831306476
 79
     2
 49
43.04599999999999
 49
-4261.597999999999
 53
341.565
 43
-1.7
 44
-84.853
 45
70.7109951443106
 46
-70.71048900765205
 79
     2
 49
22.361
 49
-201.2459999999999
 53
341.565
 43
47.798
 44
-7.071
 45
70.7109951443106
 46
-70.71048900765205
 79
     2
 49
22.361
 49
-201.2459999999999
 53
234.491
 43
-54.733
 44
-31.82
 45
-70.67408433021123
 46
-70.74765895834428
 79
     2
 49
8.381999999999999
 49
-599.945
 53
341.565
 43
44.262
 44
-17.678
 45
70.7109951443106
 46
-70.71048900765205
 79
     2
 49
44.721
 49
-178.8849999999999
 53
341.565
 43
47.798
 44
-28.284
 45
70.7109951443106
 46
-70.71048900765205
 79
     2
 49
33.54099999999999
 49
-190.0659999999999
 53
225.0
 43
8.907
 44
31.82
 45
-70.71067811865475
 46
70.71067811865474
 79
     2
 49
8.381999999999999
 49
-91.61799999999999
 53
341.565
 43
15.978
 44
-45.96199999999999
 45
70.7109951443106
 46
-70.71048900765205
 79
     2
 49
22.361
 49
-201.2459999999999
 53
341.565
 43
47.798
 44
-35.355
 45
70.7109951443106
 46
-70.71048900765205
 79
     2
 49
22.361
 49
-201.2459999999999
 53
356.634
 43
37.191
 44
-38.891
 45
1060.6595735689
 46
-70.70253448525715
 79
     2
 49
12.042
 49
-1192.117
 53
341.565
 43
19.514
 44
-42.427
 45
70.7109951443106
 46
-70.71048900765205
 79
     2
 49
11.18
 49
-212.426
 53
18.435
 43
-26.448
 44
-10.607
 45
141.4211679233492
 46
0.0004425463570357
 79
     2
 49
55.902
 49
-167.705
 53
18.435
 43
40.727
 44
-70.711
 45
141.4211679233492
 46
0.0004425463570357
 79
     2
 49
11.18
 49
-212.427
 53
18.435
 43
-19.377
 44
3.535
 45
141.4211679233492
 46
0.0004425463570357
 79
     2
 49
44.721
 49
-178.886
 53
18.435
 43
44.262
 44
-60.104
 45
141.4211679233492
 46
0.0004425463570357
 79
     2
 49
22.361
 49
-201.246
 53
18.435
 43
-5.235
 44
17.677
 45
141.4211679233492
 46
0.0004425463570357
 79
     2
 49
22.361
 49
-201.246
 53
18.435
 43
-15.842
 44
-21.213
 45
141.4211679233492
 46
0.0004425463570357
 79
     2
 49
44.721
 49
-178.885
 53
18.435
 43
-19.377
 44
-31.82
 45
141.4211679233492
 46
0.0004425463570357
 79
     2
 49
44.721
 49
-178.885
 53
18.435
 43
-12.306
 44
-38.891
 45
141.4211679233492
 46
0.0004425463570357
 79
     2
 49
33.541
 49
-190.066
 53
18.435
 43
44.262
 44
-53.033
 45
141.4211679233492
 46
0.0004425463570357
 79
     2
 49
22.361
 49
-201.246
 53
18.435
 43
19.514
 44
-42.427
 45
141.4211679233492
 46
0.0004425463570357
 79
     2
 49
11.18
 49
-212.427
 53
32.005
 43
8.199999999999999
 44
-42.427
 45
353.5551256797538
 46
212.1302410774417
 79
     2
 49
13.342
 49
-1320.825
 53
18.435
 43
44.262
 44
-45.96199999999999
 45
141.4211679233492
 46
0.0004425463570357
 79
     2
 49
11.18
 49
-212.427
 53
354.401
 43
-40.59099999999999
 44
-45.96199999999999
 45
1414.213019716811
 46
-141.4131098323589
 79
     2
 49
36.235
 49
-3587.296
 53
0.0
 43
15.978
 44
24.749
 45
70.711
 46
-70.711
 79
     2
 49
14.142
 49
-127.279
 53
0.0
 43
19.514
 44
-91.92399999999999
 45
70.711
 46
-70.711
 79
     2
 49
8.381999999999999
 49
-133.039
 53
0.0
 43
-44.126
 44
-21.213
 45
70.711
 46
-70.711
 79
     2
 49
28.284
 49
-113.137
 53
0.0
 43
-54.733
 44
-31.82
 45
70.711
 46
-70.711
 79
     2
 49
35.355
 49
-106.066
 53
235.714
 43
86.68899999999998
 44
-31.82
 45
-919.2225892407149
 46
-1343.522597701503
 79
     2
 49
8.381999999999999
 49
-3757.268
 53
0.0
 43
26.585
 44
-7.071
 45
70.711
 46
-70.711
 79
     2
 49
21.213
 49
-120.208
 53
268.03
 43
-22.913
 44
-63.64
 45
-70.55030768243716
 46
-1909.332232969399
 79
     2
 49
8.381999999999999
 49
-2043.595
 53
0.0
 43
26.585
 44
7.071
 45
70.711
 46
-70.711
 79
     2
 49
21.213
 49
-120.208
 53
0.0
 43
23.049
 44
-17.678
 45
70.711
 46
-70.711
 79
     2
 49
21.213
 49
-120.208
 53
0.0
 43
-33.519
 44
-53.033
 45
70.711
 46
-70.711
 79
     2
 49
14.142
 49
-127.279
 53
0.0
 43
23.049
 44
17.677
 45
70.711
 46
-70.711
 79
     2
 49
14.142
 49
-127.279
 53
0.0
 43
19.514
 44
-28.284
 45
70.711
 46
-70.711
 79
     2
 49
28.284
 49
-113.137
 53
0.0
 43
19.514
 44
-35.356
 45
70.711
 46
-70.711
 79
     2
 49
28.284
 49
-113.137
 53
0.0
 43
23.049
 44
-81.317
 45
70.711
 46
-70.711
 79
     2
 49
14.142
 49
-127.279
 53
0.0
 43
-33.52
 44
-10.607
 45
70.711
 46
-70.711
 79
     2
 49
8.381999999999999
 49
-133.039
 53
0.0
 43
30.12
 44
-45.96199999999999
 45
70.711
 46
-70.711
 79
     2
 49
14.142
 49
-127.279
 53
0.0
 43
37.191
 44
-53.033
 45
70.711
 46
-70.711
 79
     2
 49
8.381999999999999
 49
-133.039
 53
0.0
 43
33.656
 44
-70.711
 45
70.711
 46
-70.711
 79
     2
 49
8.381999999999999
 49
-133.039
 53
0.0
 43
37.191
 44
-60.104
 45
70.711
 46
-70.711
 79
     2
 49
8.381999999999999
 49
-133.039
 53
333.435
 43
49.21199999999999
 44
-39.598
 45
70.71034638468299
 46
-70.71066727982525
 79
     2
 49
8.381999999999999
 49
-307.846
 53
0.0
 43
69.01100000000001
 44
-42.427
 45
70.711
 46
-70.711
 79
     2
 49
8.381999999999999
 49
-133.039
 53
0.0
 43
-47.662
 44
-38.891
 45
70.711
 46
-70.711
 79
     2
 49
35.355
 49
-106.066
 53
0.0
 43
-1.7
 44
-42.427
 45
70.711
 46
-70.711
 79
     2
 49
9.898999999999999
 49
-131.522
 53
0.0
 43
30.12
 44
-38.891
 45
70.711
 46
-70.711
 79
     2
 49
8.381999999999999
 49
-133.039
 53
0.0
 43
8.907
 44
31.82
 45
70.711
 46
-70.711
 79
     2
 49
14.142
 49
-127.279
 53
335.556
 43
8.199999999999999
 44
-42.427
 45
282.8425596352959
 46
-141.4214347118359
 79
     2
 49
8.543999999999998
 49
-845.856
 53
225.0
 43
69.01100000000001
 44
-42.427
 45
-70.71067811865475
 46
70.71067811865474
 79
     2
 49
8.381999999999999
 49
-91.61799999999999
 98
        1
 10
0.0
 20
0.0
  0
LINE
  5
D5
330
CA
100
AcDbEntity
  8
A-DETL-GENF
100
AcDbLine
 10
93.23773535993495
 20
9.499999999997257
 30
0.0
 11
-68.30192949032796
 21
9.499999999997257
 31
0.0
1001
REVIT
1002
{
1070
     3
1000
19836
1002
}
  0
LINE
  5
D6
330
CA
100
AcDbEntity
  8
A-DETL-GENF
100
AcDbLine
 10
-81.30192949032613
 20
9.499999999997257
 30
0.0
 11
-93.23773535993701
 21
9.499999999997257
 31
0.0
1001
REVIT
1002
{
1070
     3
1000
19836
1002
}
  0
LINE
  5
D7
330
CA
100
AcDbEntity
  8
A-DETL-GENF
100
AcDbLine
 10
-93.23773535993701
 20
9.499999999997257
 30
0.0
 11
-93.23773535993701
 21
-9.50000000000303
 31
0.0
1001
REVIT
1002
{
1070
     3
1000
19836
1002
}
  0
LINE
  5
D8
330
CA
100
AcDbEntity
  8
A-DETL-GENF
100
AcDbLine
 10
-93.23773535993701
 20
-9.500000000003028
 30
0.0
 11
93.23773535993495
 21
-9.500000000003028
 31
0.0
1001
REVIT
1002
{
1070
     3
1000
19836
1002
}
  0
LINE
  5
D9
330
CA
100
AcDbEntity
  8
A-DETL-GENF
100
AcDbLine
 10
93.23773535993495
 20
-9.500000000003028
 30
0.0
 11
93.23773535993495
 21
1.110805092432655
 31
0.0
1001
REVIT
1002
{
1070
     3
1000
19836
1002
}
  0
LINE
  5
DA
330
CA
100
AcDbEntity
  8
A-DETL-GENF
100
AcDbLine
 10
93.23773535993495
 20
6.110805092432491
 30
0.0
 11
93.23773535993495
 21
9.499999999997257
 31
0.0
1001
REVIT
1002
{
1070
     3
1000
19836
1002
}
  0
ENDBLK
  5
DC
330
CA
100
AcDbEntity
  8
0
100
AcDbBlockEnd
  0
BLOCK
  5
103
330
FD
100
AcDbEntity
  8
0
100
AcDbBlockBegin
  2
4594_Packer - Timber Packer H3_2-114178-W-TRSIL-03-V-G - Garage Door Head Flashing Detail _Vertical_
 70
     0
 10
0.0
 20
0.0
 30
0.0
  3
4594_Packer - Timber Packer H3_2-114178-W-TRSIL-03-V-G - Garage Door Head Flashing Detail _Vertical_
  1

  0
LINE
  5
FE
330
FD
100
AcDbEntity
  8
A-DETL-GENF
100
AcDbLine
 10
176.393054916599
 20
-102.102643901798
 30
0.0
 11
236.7554039745731
 21
-102.102643901798
 31
0.0
1001
REVIT
1002
{
1070
     3
1000
19834
1002
}
  0
LINE
  5
FF
330
FD
100
AcDbEntity
  8
A-DETL-GENF
100
AcDbLine
 10
176.393054916599
 20
-94.06220990703507
 30
0.0
 11
176.393054916599
 21
-102.102643901798
 31
0.0
1001
REVIT
1002
{
1070
     3
1000
19834
1002
}
  0
LINE
  5
100
330
FD
100
AcDbEntity
  8
A-DETL-GENF
100
AcDbLine
 10
236.7554039745731
 20
-94.06220990703507
 30
0.0
 11
176.393054916599
 21
-94.06220990703507
 31
0.0
1001
REVIT
1002
{
1070
     3
1000
19834
1002
}
  0
LINE
  5
101
330
FD
100
AcDbEntity
  8
A-DETL-GENF
100
AcDbLine
 10
236.7554039745731
 20
-102.102643901798
 30
0.0
 11
236.7554039745731
 21
-94.06220990703507
 31
0.0
1001
REVIT
1002
{
1070
     3
1000
19834
1002
}
  0
LINE
  5
102
330
FD
100
AcDbEntity
  8
A-DETL-GENF
100
AcDbLine
 10
176.393054916599
 20
-102.102643901798
 30
0.0
 11
236.7554039745731
 21
-94.06220990703507
 31
0.0
1001
REVIT
1002
{
1070
     3
1000
19834
1002
}
  0
ENDBLK
  5
104
330
FD
100
AcDbEntity
  8
0
100
AcDbBlockEnd
  0
BLOCK
  5
10C
330
106
100
AcDbEntity
  8
0
100
AcDbBlockBegin
  2
4811_Air Seal w Foam - Airseal on PEF Backing Rod-114086-W-TRSIL-03-V-G - Garage Door Head Flashing Detail _Vertical_
 70
     0
 10
0.0
 20
0.0
 30
0.0
  3
4811_Air Seal w Foam - Airseal on PEF Backing Rod-114086-W-TRSIL-03-V-G - Garage Door Head Flashing Detail _Vertical_
  1

  0
LINE
  5
107
330
106
100
AcDbEntity
  8
A-DETL-GENF
100
AcDbLine
 10
-9.715368359397579
 20
-3.925855969982953
 30
0.0
 11
2.18916813828543
 21
-3.925855969982953
 31
0.0
1001
REVIT
1002
{
1070
     3
1000
19822
1002
}
  0
LINE
  5
108
330
106
100
AcDbEntity
  8
A-DETL-GENF
100
AcDbLine
 10
2.189168138284796
 20
5.031896362736645
 30
0.0
 11
-9.715368359397636
 21
5.031896362736645
 31
0.0
1001
REVIT
1002
{
1070
     3
1000
19822
1002
}
  0
SPLINE
  5
109
330
106
100
AcDbEntity
  8
A-DETL-GENF
100
AcDbSpline
210
0.0
220
0.0
230
1.0
 70
     8
 71
     3
 72
    16
 73
    12
 74
     0
 42
0.000000001
 43
0.0000000001
 40
0.0
 40
0.0
 40
0.0
 40
0.0
 40
0.0555555555555556
 40
0.1111111111111111
 40
0.1666666666666666
 40
0.2222222222222222
 40
0.3333333333333333
 40
0.5555555555555556
 40
0.7777777777777778
 40
0.8888888888888889
 40
1.0
 40
1.0
 40
1.0
 40
1.0
 10
-9.715368359397615
 20
5.031896362736645
 30
0.0
 10
-9.597844170283591
 20
5.031551781341533
 30
0.0
 10
-9.366846285999866
 20
4.986462136031421
 30
0.0
 10
-9.027703767957492
 20
4.783167870615144
 30
0.0
 10
-8.710307078647606
 20
4.451588857422123
 30
0.0
 10
-8.327601738900739
 20
3.851498541913743
 30
0.0
 10
-7.794683784270857
 20
2.434203248896998
 30
0.0
 10
-7.578944842609582
 20
-0.2908015370170615
 30
0.0
 10
-8.197245954765813
 20
-2.68544107738281
 30
0.0
 10
-9.018547732972979
 20
-3.742039760150893
 30
0.0
 10
-9.480319981169554
 20
-3.925166807192731
 30
0.0
 10
-9.715368359397603
 20
-3.925855969982954
 30
0.0
1001
REVIT
1002
{
1070
     3
1000
19822
1002
}
  0
SPLINE
  5
10A
330
106
100
AcDbEntity
  8
A-DETL-GENF
100
AcDbSpline
210
0.0
220
0.0
230
1.0
 70
     8
 71
     3
 72
    18
 73
    14
 74
     0
 42
0.000000001
 43
0.0000000001
 40
0.0
 40
0.0
 40
0.0
 40
0.0
 40
0.1538461538461539
 40
0.2307692307692308
 40
0.3076923076923077
 40
0.3846153846153846
 40
0.4615384615384616
 40
0.5384615384615385
 40
0.6153846153846155
 40
0.7115384615384616
 40
0.8076923076923076
 40
0.9038461538461538
 40
1.0
 40
1.0
 40
1.0
 40
1.0
 10
2.784631640602416
 20
-3.991572931097752
 30
0.0
 10
3.605530782446525
 20
-3.989014694871135
 30
0.0
 10
4.793760240746275
 20
-3.721000197212097
 30
0.0
 10
6.133298507071161
 20
-2.881712957152471
 30
0.0
 10
6.939630755226235
 20
-2.053909417807092
 30
0.0
 10
7.505484292448072
 20
-1.074267057087769
 30
0.0
 10
7.796709199158338
 20
-0.0001107713148068
 30
0.0
 10
7.796734977474557
 20
1.106090308426885
 30
0.0
 10
7.481129622501416
 20
2.270155179685822
 30
0.0
 10
6.781405867704786
 20
3.397317785052074
 30
0.0
 10
5.669599568706009
 20
4.350122241921274
 30
0.0
 10
4.288572468047436
 20
4.95929025664452
 30
0.0
 10
3.297693604254879
 20
5.096014426209871
 30
0.0
 10
2.784631640602309
 20
5.097613323851494
 30
0.0
1001
REVIT
1002
{
1070
     3
1000
19822
1002
}
  0
SPLINE
  5
10B
330
106
100
AcDbEntity
  8
A-DETL-GENF
100
AcDbSpline
210
0.0
220
0.0
230
1.0
 70
     8
 71
     3
 72
    18
 73
    14
 74
     0
 42
0.000000001
 43
0.0000000001
 40
0.0
 40
0.0
 40
0.0
 40
0.0
 40
0.1538461538461539
 40
0.2307692307692308
 40
0.3076923076923077
 40
0.3846153846153846
 40
0.4615384615384616
 40
0.5384615384615385
 40
0.6153846153846155
 40
0.7115384615384616
 40
0.8076923076923076
 40
0.9038461538461538
 40
1.0
 40
1.0
 40
1.0
 40
1.0
 10
2.784631640602277
 20
5.097613323851495
 30
0.0
 10
1.963732498758169
 20
5.095055087624877
 30
0.0
 10
0.775503040458419
 20
4.827040589965834
 30
0.0
 10
-0.5640352258664623
 20
3.987753349906205
 30
0.0
 10
-1.370367474021532
 20
3.159949810560823
 30
0.0
 10
-1.93622101124337
 20
2.180307449841498
 30
0.0
 10
-2.227445917953628
 20
1.106151164068533
 30
0.0
 10
-2.22747169626984
 20
-0.0000499156731571
 30
0.0
 10
-1.911866341296703
 20
-1.164114786932094
 30
0.0
 10
-1.212142586500065
 20
-2.291277392298342
 30
0.0
 10
-0.1003362875012809
 20
-3.244081849167541
 30
0.0
 10
1.280690813157291
 20
-3.853249863890785
 30
0.0
 10
2.271569676949849
 20
-3.989974033456131
 30
0.0
 10
2.784631640602416
 20
-3.991572931097753
 30
0.0
1001
REVIT
1002
{
1070
     3
1000
19822
1002
}
  0
ENDBLK
  5
10D
330
106
100
AcDbEntity
  8
0
100
AcDbBlockEnd
  0
BLOCK
  5
145
330
10F
100
AcDbEntity
  8
0
100
AcDbBlockBegin
  2
4821_Cavity Closure - 4821_Cavity Closure-69544-W-TRSIL-03-V-G - Garage Door Head Flashing Detail _Vertical_
 70
     0
 10
0.0
 20
0.0
 30
0.0
  3
4821_Cavity Closure - 4821_Cavity Closure-69544-W-TRSIL-03-V-G - Garage Door Head Flashing Detail _Vertical_
  1

  0
HATCH
  5
12C
330
10F
100
AcDbEntity
  8
A-DETL-GENF
100
AcDbHatch
 10
0.0
 20
0.0
 30
0.0
210
0.0
220
0.0
230
1.0
  2
SOLID
 70
     1
 71
     0
 91
        2
 92
        0
 93
       14
 72
     1
 10
-0.5000000000039471
 20
-0.0000000000025718
 11
-7.500000000003574
 21
-0.0000000000025718
 72
     1
 10
-7.500000000003574
 20
-0.0000000000025718
 11
-7.500000000003709
 21
-1.301369863015575
 72
     1
 10
-7.500000000003709
 20
-1.301369863015575
 11
-1.299156278201087
 21
-1.301369863015507
 72
     1
 10
-1.299156278201086
 20
-1.301369863015507
 11
-1.277022439850557
 21
-75.16812319368368
 72
     1
 10
-1.277022439850557
 20
-75.16812319368368
 11
-1.108899246169721
 21
-75.45932110706985
 72
     1
 10
-1.108899246169721
 20
-75.45932110706985
 11
-0.8177013327834096
 21
-75.62744430075077
 72
     1
 10
-0.8177013327834096
 20
-75.62744430075077
 11
-0.6495781391024384
 21
-75.64957813910123
 72
     1
 10
-0.6495781391024384
 20
-75.64957813910123
 11
-0.3247890695531819
 21
-75.56255117020509
 72
     1
 10
-0.3247890695531819
 20
-75.56255117020509
 11
-0.0870269689000665
 21
-75.32478906955197
 72
     1
 10
-0.0870269689000665
 20
-75.32478906955197
 11
-0.0000000000039254
 21
-75.00000000000264
 72
     1
 10
-0.0000000000039254
 20
-75.00000000000264
 11
-0.0170370868594731
 21
-0.3727999339251227
 72
     1
 10
-0.0170370868594731
 20
-0.3727999339251232
 11
-0.0669872981117077
 21
-0.2522094564763568
 72
     1
 10
-0.0669872981117077
 20
-0.2522094564763568
 11
-0.3705904774526349
 21
-0.019246543331826
 72
     1
 10
-0.3705904774526349
 20
-0.019246543331826
 11
-0.5000000000039471
 21
-0.0000000000025718
 97
        0
 92
        0
 93
       14
 72
     1
 10
-12.50000000000352
 20
-0.0000000000026395
 11
-19.50000000000368
 21
-0.0000000000026395
 72
     1
 10
-19.50000000000368
 20
-0.0000000000026395
 11
-19.85355339059712
 21
-0.1464466094092286
 72
     1
 10
-19.85355339059712
 20
-0.1464466094092286
 11
-19.9829629131483
 21
-0.370590477451349
 72
     1
 10
-19.9829629131483
 20
-0.370590477451349
 11
-20.00000000000371
 21
-0.5000000000025259
 72
     1
 10
-20.00000000000371
 20
-0.5000000000025259
 11
-19.97782851907137
 21
-10.82019877722232
 72
     1
 10
-19.97782851907137
 20
-10.82019877722232
 11
-19.80941940159501
 21
-11.11189192514935
 72
     1
 10
-19.80941940159501
 20
-11.11189192514935
 11
-19.51772625366792
 21
-11.28030104262584
 72
     1
 10
-19.51772625366792
 20
-11.28030104262584
 11
-19.34931713619155
 21
-11.30247252355811
 72
     1
 10
-19.34931713619155
 20
-11.30247252355811
 11
-19.02397570428554
 21
-11.21529754961443
 72
     1
 10
-19.02397570428554
 20
-11.21529754961443
 11
-18.78580924632314
 21
-10.97713109165203
 72
     1
 10
-18.78580924632314
 20
-10.97713109165203
 11
-18.69863427237953
 21
-10.65178965974595
 72
     1
 10
-18.69863427237953
 20
-10.65178965974595
 11
-18.69863427237953
 21
-1.301369863015574
 72
     1
 10
-18.69863427237953
 20
-1.301369863015575
 11
-12.50000000000365
 21
-1.301369863015575
 72
     1
 10
-12.50000000000365
 20
-1.301369863015575
 11
-12.50000000000352
 21
-0.0000000000026394
 97
        0
 75
     0
 76
     1
 98
        1
 10
0.0
 20
0.0
450
        0
451
        0
460
0.0
461
0.0
452
        0
462
0.0
453
        0
470

  0
LINE
  5
12D
330
10F
100
AcDbEntity
  8
A-DETL-GENF
100
AcDbLine
 10
-0.0000000000002749
 20
-75.0
 30
0.0
 11
-0.0000000000002749
 21
-0.5022094564738043
 31
0.0
1001
REVIT
1002
{
1070
     3
1000
19820
1002
}
  0
ARC
  5
12E
330
10F
100
AcDbEntity
  8
A-DETL-GENF
100
AcDbCircle
 10
-0.500000000000278
 20
-0.5022094564738043
 30
0.0
 40
0.5000000000000031
100
AcDbArc
 50
0.000000000000916
 51
89.99999999999976
1001
REVIT
1002
{
1070
     3
1000
19820
1002
}
  0
LINE
  5
12F
330
10F
100
AcDbEntity
  8
A-DETL-GENF
100
AcDbLine
 10
-0.5000000000002988
 20
0.0
 30
0.0
 11
-7.499999999999997
 21
0.0
 31
0.0
1001
REVIT
1002
{
1070
     3
1000
19820
1002
}
  0
LINE
  5
130
330
10F
100
AcDbEntity
  8
A-DETL-GENF
100
AcDbLine
 10
-7.499999999999997
 20
0.0
 30
0.0
 11
-7.499999999999997
 21
-1.301369863012952
 31
0.0
1001
REVIT
1002
{
1070
     3
1000
19820
1002
}
  0
LINE
  5
131
330
10F
100
AcDbEntity
  8
A-DETL-GENF
100
AcDbLine
 10
-7.499999999999997
 20
-1.301369863012952
 30
0.0
 11
-1.29915627819737
 21
-1.301369863012952
 31
0.0
1001
REVIT
1002
{
1070
     3
1000
19820
1002
}
  0
LINE
  5
132
330
10F
100
AcDbEntity
  8
A-DETL-GENF
100
AcDbLine
 10
-1.29915627819737
 20
-1.301369863012952
 30
0.0
 11
-1.29915627819737
 21
-75.0
 31
0.0
1001
REVIT
1002
{
1070
     3
1000
19820
1002
}
  0
ARC
  5
133
330
10F
100
AcDbEntity
  8
A-DETL-GENF
100
AcDbCircle
 10
-0.6495781390988226
 20
-75.0
 30
0.0
 40
0.6495781390985948
100
AcDbArc
 50
180.0000000000023
 51
0.0000000000010687
1001
REVIT
1002
{
1070
     3
1000
19820
1002
}
  0
LINE
  5
134
330
10F
100
AcDbEntity
  8
A-DETL-GENF
100
AcDbLine
 10
-12.5
 20
-1.301369863012977
 30
0.0
 11
-12.5
 21
-0.0000000000000085
 31
0.0
1001
REVIT
1002
{
1070
     3
1000
19820
1002
}
  0
LINE
  5
135
330
10F
100
AcDbEntity
  8
A-DETL-GENF
100
AcDbLine
 10
-12.5
 20
-0.0000000000000085
 30
0.0
 11
-19.5
 21
-0.0000000000000085
 31
0.0
1001
REVIT
1002
{
1070
     3
1000
19820
1002
}
  0
ARC
  5
136
330
10F
100
AcDbEntity
  8
A-DETL-GENF
100
AcDbCircle
 10
-19.5
 20
-0.4999999999999964
 30
0.0
 40
0.4999999999999954
100
AcDbArc
 50
89.99999999999952
 51
180.0000000000001
1001
REVIT
1002
{
1070
     3
1000
19820
1002
}
  0
LINE
  5
137
330
10F
100
AcDbEntity
  8
A-DETL-GENF
100
AcDbLine
 10
-19.99999999999999
 20
-0.4999999999999964
 30
0.0
 11
-19.99999999999999
 21
-10.6517896597434
 31
0.0
1001
REVIT
1002
{
1070
     3
1000
19820
1002
}
  0
ARC
  5
138
330
10F
100
AcDbEntity
  8
A-DETL-GENF
100
AcDbCircle
 10
-19.34931713618793
 20
-10.65178965974339
 30
0.0
 40
0.6506828638120661
100
AcDbArc
 50
180.0000000000007
 51
359.9999999999988
1001
REVIT
1002
{
1070
     3
1000
19820
1002
}
  0
LINE
  5
139
330
10F
100
AcDbEntity
  8
A-DETL-GENF
100
AcDbLine
 10
-18.69863427237587
 20
-10.6517896597434
 30
0.0
 11
-18.69863427237587
 21
-1.301369863012977
 31
0.0
1001
REVIT
1002
{
1070
     3
1000
19820
1002
}
  0
LINE
  5
13A
330
10F
100
AcDbEntity
  8
A-DETL-GENF
100
AcDbLine
 10
-18.69863427237587
 20
-1.301369863012977
 30
0.0
 11
-12.5
 21
-1.301369863012977
 31
0.0
1001
REVIT
1002
{
1070
     3
1000
19820
1002
}
  0
LINE
  5
13B
330
10F
100
AcDbEntity
  8
A-DETL-GENF
100
AcDbLine
 10
-1.299156278197482
 20
-1.301369863012956
 30
0.0
 11
-1.299156278197482
 21
-75.0
 31
0.0
1001
REVIT
1002
{
1070
     3
1000
19830
1002
}
  0
ARC
  5
13C
330
10F
100
AcDbEntity
  8
A-DETL-GENF
100
AcDbCircle
 10
-0.6495781390988422
 20
-75.0
 30
0.0
 40
0.6495781390986081
100
AcDbArc
 50
179.9999999999999
 51
359.9999999999996
1001
REVIT
1002
{
1070
     3
1000
19830
1002
}
  0
LINE
  5
13D
330
10F
100
AcDbEntity
  8
A-DETL-GENF
100
AcDbLine
 10
-0.0000000000002876
 20
-75.00000000000001
 30
0.0
 11
-0.0000000000002876
 21
-0.5022094564738043
 31
0.0
1001
REVIT
1002
{
1070
     3
1000
19830
1002
}
  0
ARC
  5
13E
330
10F
100
AcDbEntity
  8
A-DETL-GENF
100
AcDbCircle
 10
-0.5000000000002755
 20
-0.5022094564738002
 30
0.0
 40
0.5000000000000002
100
AcDbArc
 50
0.0000000000000763
 51
89.99999999999969
1001
REVIT
1002
{
1070
     3
1000
19830
1002
}
  0
LINE
  5
13F
330
10F
100
AcDbEntity
  8
A-DETL-GENF
100
AcDbLine
 10
-20.0
 20
-10.69684737592366
 30
0.0
 11
-20.0
 21
-0.4999999999999984
 31
0.0
1001
REVIT
1002
{
1070
     3
1000
19830
1002
}
  0
LINE
  5
140
330
10F
100
AcDbEntity
  8
A-DETL-GENF
100
AcDbLine
 10
-0.5000000000002755
 20
0.0
 30
0.0
 11
-19.5
 21
0.0
 31
0.0
1001
REVIT
1002
{
1070
     3
1000
19830
1002
}
  0
ARC
  5
141
330
10F
100
AcDbEntity
  8
A-DETL-GENF
100
AcDbCircle
 10
-19.5
 20
-0.4999999999999995
 30
0.0
 40
0.5000000000000004
100
AcDbArc
 50
90.00000000000005
 51
179.9999999999996
1001
REVIT
1002
{
1070
     3
1000
19830
1002
}
  0
LINE
  5
142
330
10F
100
AcDbEntity
  8
A-DETL-GENF
100
AcDbLine
 10
-18.69999999999998
 20
-1.301369863012957
 30
0.0
 11
-18.69999999999998
 21
-10.69684737592366
 31
0.0
1001
REVIT
1002
{
1070
     3
1000
19830
1002
}
  0
ARC
  5
143
330
10F
100
AcDbEntity
  8
A-DETL-GENF
100
AcDbCircle
 10
-19.34999999999999
 20
-10.69684737592366
 30
0.0
 40
0.6500000000000093
100
AcDbArc
 50
180.0
 51
0.0
1001
REVIT
1002
{
1070
     3
1000
19830
1002
}
  0
LINE
  5
144
330
10F
100
AcDbEntity
  8
A-DETL-GENF
100
AcDbLine
 10
-18.69999999999998
 20
-1.301369863012957
 30
0.0
 11
-1.299156278197482
 21
-1.301369863012957
 31
0.0
1001
REVIT
1002
{
1070
     3
1000
19830
1002
}
  0
ENDBLK
  5
146
330
10F
100
AcDbEntity
  8
0
100
AcDbBlockEnd
  0
BLOCK
  5
14B
330
148
100
AcDbEntity
  8
0
100
AcDbBlockBegin
  2
4161_Flashing Tape - 4161_Flashing Tape-35988-W-TRSIL-03-V-G - Garage Door Head Flashing Detail _Vertical_
 70
     0
 10
0.0
 20
0.0
 30
0.0
  3
4161_Flashing Tape - 4161_Flashing Tape-35988-W-TRSIL-03-V-G - Garage Door Head Flashing Detail _Vertical_
  1

  0
LINE
  5
14A
330
148
100
AcDbEntity
  8
A-DETL-GENF
100
AcDbLine
 10
0.0
 20
0.0
 30
0.0
 11
37.78340424268725
 21
0.0
 31
0.0
1001
REVIT
1002
{
1070
     3
1000
19860
1002
}
  0
ENDBLK
  5
14C
330
148
100
AcDbEntity
  8
0
100
AcDbBlockEnd
  0
BLOCK
  5
150
330
14E
100
AcDbEntity
  8
0
100
AcDbBlockBegin
  2
4161_Flashing Tape - 4161_Flashing Tape-35989-W-TRSIL-03-V-G - Garage Door Head Flashing Detail _Vertical_
 70
     0
 10
0.0
 20
0.0
 30
0.0
  3
4161_Flashing Tape - 4161_Flashing Tape-35989-W-TRSIL-03-V-G - Garage Door Head Flashing Detail _Vertical_
  1

  0
LINE
  5
14F
330
14E
100
AcDbEntity
  8
A-DETL-GENF
100
AcDbLine
 10
0.0
 20
0.0
 30
0.0
 11
11.30281002632941
 21
0.0
 31
0.0
1001
REVIT
1002
{
1070
     3
1000
19860
1002
}
  0
ENDBLK
  5
151
330
14E
100
AcDbEntity
  8
0
100
AcDbBlockEnd
  0
BLOCK
  5
155
330
153
100
AcDbEntity
  8
0
100
AcDbBlockBegin
  2
4161_Flashing Tape - 4161_Flashing Tape-35990-W-TRSIL-03-V-G - Garage Door Head Flashing Detail _Vertical_
 70
     0
 10
0.0
 20
0.0
 30
0.0
  3
4161_Flashing Tape - 4161_Flashing Tape-35990-W-TRSIL-03-V-G - Garage Door Head Flashing Detail _Vertical_
  1

  0
LINE
  5
154
330
153
100
AcDbEntity
  8
A-DETL-GENF
100
AcDbLine
 10
0.0
 20
0.0
 30
0.0
 11
68.01941680388501
 21
0.0
 31
0.0
1001
REVIT
1002
{
1070
     3
1000
19860
1002
}
  0
ENDBLK
  5
156
330
153
100
AcDbEntity
  8
0
100
AcDbBlockEnd
  0
BLOCK
  5
15F
330
15A
100
AcDbEntity
  8
0
100
AcDbBlockBegin
  2
FP Timber Nog Packer1 - Variable-69545-W-TRSIL-03-V-G - Garage Door Head Flashing Detail _Vertical_
 70
     0
 10
0.0
 20
0.0
 30
0.0
  3
FP Timber Nog Packer1 - Variable-69545-W-TRSIL-03-V-G - Garage Door Head Flashing Detail _Vertical_
  1

  0
LINE
  5
15B
330
15A
100
AcDbEntity
  8
A-DETL-GENF
100
AcDbLine
 10
0.0
 20
19.99999999999973
 30
0.0
 11
0.0
 21
-24.99999999999865
 31
0.0
1001
REVIT
1002
{
1070
     3
1000
16257
1002
}
  0
LINE
  5
15C
330
15A
100
AcDbEntity
  8
A-DETL-GENF
100
AcDbLine
 10
140.0000000000004
 20
-24.99999999999865
 30
0.0
 11
140.0000000000004
 21
19.99999999999973
 31
0.0
1001
REVIT
1002
{
1070
     3
1000
16257
1002
}
  0
LINE
  5
15D
330
15A
100
AcDbEntity
  8
A-DETL-GENF
100
AcDbLine
 10
0.0
 20
-24.99999999999866
 30
0.0
 11
140.0
 21
19.9999999999984
 31
0.0
1001
REVIT
1002
{
1070
     3
1000
16362
1002
}
  0
LINE
  5
15E
330
15A
100
AcDbEntity
  8
A-DETL-GENF
100
AcDbLine
 10
-0.0000000000001438
 20
19.9999999999984
 30
0.0
 11
140.0
 21
-24.99999999999895
 31
0.0
1001
REVIT
1002
{
1070
     3
1000
16362
1002
}
  0
ENDBLK
  5
160
330
15A
100
AcDbEntity
  8
0
100
AcDbBlockEnd
  0
BLOCK
  5
169
330
162
100
AcDbEntity
  8
0
100
AcDbBlockBegin
  2
FP Timber Nog Packer1 - Variable-V1-W-TRSIL-03-V-G - Garage Door Head Flashing Detail _Vertical_
 70
     0
 10
0.0
 20
0.0
 30
0.0
  3
FP Timber Nog Packer1 - Variable-V1-W-TRSIL-03-V-G - Garage Door Head Flashing Detail _Vertical_
  1

  0
LINE
  5
163
330
162
100
AcDbEntity
  8
A-DETL-GENF
100
AcDbLine
 10
140.0000000000004
 20
19.99999999999973
 30
0.0
 11
0.0
 21
19.99999999999973
 31
0.0
1001
REVIT
1002
{
1070
     3
1000
16257
1002
}
  0
LINE
  5
164
330
162
100
AcDbEntity
  8
A-DETL-GENF
100
AcDbLine
 10
0.0
 20
19.99999999999973
 30
0.0
 11
0.0
 21
-24.99999999999865
 31
0.0
1001
REVIT
1002
{
1070
     3
1000
16257
1002
}
  0
LINE
  5
165
330
162
100
AcDbEntity
  8
A-DETL-GENF
100
AcDbLine
 10
0.0
 20
-24.99999999999865
 30
0.0
 11
140.0000000000004
 21
-24.99999999999865
 31
0.0
1001
REVIT
1002
{
1070
     3
1000
16257
1002
}
  0
LINE
  5
166
330
162
100
AcDbEntity
  8
A-DETL-GENF
100
AcDbLine
 10
140.0000000000004
 20
-24.99999999999865
 30
0.0
 11
140.0000000000004
 21
19.99999999999973
 31
0.0
1001
REVIT
1002
{
1070
     3
1000
16257
1002
}
  0
LINE
  5
167
330
162
100
AcDbEntity
  8
A-DETL-GENF
100
AcDbLine
 10
0.0
 20
-24.99999999999866
 30
0.0
 11
140.0
 21
19.9999999999984
 31
0.0
1001
REVIT
1002
{
1070
     3
1000
16362
1002
}
  0
LINE
  5
168
330
162
100
AcDbEntity
  8
A-DETL-GENF
100
AcDbLine
 10
-0.0000000000001438
 20
19.9999999999984
 30
0.0
 11
140.0
 21
-24.99999999999895
 31
0.0
1001
REVIT
1002
{
1070
     3
1000
16362
1002
}
  0
ENDBLK
  5
16A
330
162
100
AcDbEntity
  8
0
100
AcDbBlockEnd
  0
BLOCK
  5
183
330
180
100
AcDbEntity
  8
0
100
AcDbBlockBegin
  2
HP_WProof - Building Wrap - HP_WProof - Building Wrap-69547-W-TRSIL-03-V-G - Garage Door Head Flashing Detail _Vertical_
 70
     0
 10
0.0
 20
0.0
 30
0.0
  3
HP_WProof - Building Wrap - HP_WProof - Building Wrap-69547-W-TRSIL-03-V-G - Garage Door Head Flashing Detail _Vertical_
  1

  0
LINE
  5
182
330
180
100
AcDbEntity
  8
A-DETL-GENF
100
AcDbLine
 10
0.0
 20
-347.4758996885133
 30
0.0
 11
0.0
 21
0.0
 31
0.0
1001
REVIT
1002
{
1070
     3
1000
16110
1002
}
  0
ENDBLK
  5
184
330
180
100
AcDbEntity
  8
0
100
AcDbBlockEnd
  0
BLOCK
  5
191
330
18F
100
AcDbEntity
  8
0
100
AcDbBlockBegin
  2
HP_WProof - Building Wrap - HP_WProof - Building Wrap-222206-W-TRSIL-03-V-G - Garage Door Head Flashing Detail _Vertical_
 70
     0
 10
0.0
 20
0.0
 30
0.0
  3
HP_WProof - Building Wrap - HP_WProof - Building Wrap-222206-W-TRSIL-03-V-G - Garage Door Head Flashing Detail _Vertical_
  1

  0
LINE
  5
190
330
18F
100
AcDbEntity
  8
A-DETL-GENF
100
AcDbLine
 10
0.0
 20
-87.77604298396946
 30
0.0
 11
0.0
 21
0.0
 31
0.0
1001
REVIT
1002
{
1070
     3
1000
16110
1002
}
  0
ENDBLK
  5
192
330
18F
100
AcDbEntity
  8
0
100
AcDbBlockEnd
  0
BLOCK
  5
1A0
330
19A
100
AcDbEntity
  8
0
100
AcDbBlockBegin
  2
FP - Break Line - FP - Break Line-100289-W-TRSIL-03-V-G - Garage Door Head Flashing Detail _Vertical_
 70
     0
 10
0.0
 20
0.0
 30
0.0
  3
FP - Break Line - FP - Break Line-100289-W-TRSIL-03-V-G - Garage Door Head Flashing Detail _Vertical_
  1

  0
LINE
  5
19B
330
19A
100
AcDbEntity
  8
A-DETL-GENF
100
AcDbLine
 10
-9.999999999999957
 20
0.0000000000045937
 30
0.0
 11
-4.999999999999864
 21
20.00000000000462
 31
0.0
1001
REVIT
1002
{
1070
     3
1000
15798
1002
}
  0
LINE
  5
19C
330
19A
100
AcDbEntity
  8
A-DETL-GENF
100
AcDbLine
 10
-4.999999999999862
 20
20.00000000000462
 30
0.0
 11
5.000000000000524
 21
-19.99999999999498
 31
0.0
1001
REVIT
1002
{
1070
     3
1000
15798
1002
}
  0
LINE
  5
19D
330
19A
100
AcDbEntity
  8
A-DETL-GENF
100
AcDbLine
 10
5.000000000000523
 20
-19.99999999999498
 30
0.0
 11
10.00000000000003
 21
0.0000000000045937
 31
0.0
1001
REVIT
1002
{
1070
     3
1000
15798
1002
}
  0
LINE
  5
19E
330
19A
100
AcDbEntity
  8
A-DETL-GENF
100
AcDbLine
 10
10.00000000000003
 20
0.0000000000045937
 30
0.0
 11
100.3208217918218
 21
0.0000000000045937
 31
0.0
1001
REVIT
1002
{
1070
     3
1000
15798
1002
}
  0
LINE
  5
19F
330
19A
100
AcDbEntity
  8
A-DETL-GENF
100
AcDbLine
 10
-100.1597755094902
 20
0.0000000000045937
 30
0.0
 11
-9.99999999999996
 21
0.0000000000045937
 31
0.0
1001
REVIT
1002
{
1070
     3
1000
15798
1002
}
  0
ENDBLK
  5
1A1
330
19A
100
AcDbEntity
  8
0
100
AcDbBlockEnd
  0
BLOCK
  5
1A9
330
1A3
100
AcDbEntity
  8
0
100
AcDbBlockBegin
  2
CAVIBAT Batten Profile - Non Cavibat-98797-W-TRSIL-03-V-G - Garage Door Head Flashing Detail _Vertical_
 70
     0
 10
0.0
 20
0.0
 30
0.0
  3
CAVIBAT Batten Profile - Non Cavibat-98797-W-TRSIL-03-V-G - Garage Door Head Flashing Detail _Vertical_
  1

  0
LINE
  5
1A4
330
1A3
100
AcDbEntity
  8
A-DETL-GENF
100
AcDbLine
 10
-0.0000000000000021
 20
0.0
 30
0.0
 11
17.99999999999888
 21
0.0
 31
0.0
1001
REVIT
1002
{
1070
     3
1000
16116
1002
}
  0
LINE
  5
1A5
330
1A3
100
AcDbEntity
  8
A-DETL-GENF
100
AcDbLine
 10
-0.0000000000000021
 20
-47.00000000000001
 30
0.0
 11
-0.0000000000000021
 21
0.0
 31
0.0
1001
REVIT
1002
{
1070
     3
1000
16116
1002
}
  0
LINE
  5
1A6
330
1A3
100
AcDbEntity
  8
A-DETL-GENF
100
AcDbLine
 10
17.99999999999888
 20
-47.00000000000001
 30
0.0
 11
-0.0000000000000021
 21
-47.00000000000001
 31
0.0
1001
REVIT
1002
{
1070
     3
1000
16116
1002
}
  0
LINE
  5
1A7
330
1A3
100
AcDbEntity
  8
A-DETL-GENF
100
AcDbLine
 10
17.99999999999888
 20
0.0
 30
0.0
 11
17.99999999999888
 21
-47.00000000000001
 31
0.0
1001
REVIT
1002
{
1070
     3
1000
16116
1002
}
  0
LINE
  5
1A8
330
1A3
100
AcDbEntity
  8
A-DETL-GENF
100
AcDbLine
 10
8.999999999999248
 20
0.0
 30
0.0
 11
8.99999999999917
 21
-47.00000000000001
 31
0.0
1001
REVIT
1002
{
1070
     3
1000
16116
1002
}
  0
ENDBLK
  5
1AA
330
1A3
100
AcDbEntity
  8
0
100
AcDbBlockEnd
  0
BLOCK
  5
1BA
330
1B4
100
AcDbEntity
  8
0
100
AcDbBlockBegin
  2
FP - Break Line - FP - Break Line-222446-W-TRSIL-03-V-G - Garage Door Head Flashing Detail _Vertical_
 70
     0
 10
0.0
 20
0.0
 30
0.0
  3
FP - Break Line - FP - Break Line-222446-W-TRSIL-03-V-G - Garage Door Head Flashing Detail _Vertical_
  1

  0
LINE
  5
1B5
330
1B4
100
AcDbEntity
  8
A-DETL-GENF
100
AcDbLine
 10
-9.99999999999996
 20
-0.0000000000045937
 30
0.0
 11
-104.4718017474315
 21
-0.0000000000045937
 31
0.0
1001
REVIT
1002
{
1070
     3
1000
15798
1002
}
  0
LINE
  5
1B6
330
1B4
100
AcDbEntity
  8
A-DETL-GENF
100
AcDbLine
 10
107.3550907662835
 20
-0.0000000000045937
 30
0.0
 11
10.00000000000003
 21
-0.0000000000045937
 31
0.0
1001
REVIT
1002
{
1070
     3
1000
15798
1002
}
  0
LINE
  5
1B7
330
1B4
100
AcDbEntity
  8
A-DETL-GENF
100
AcDbLine
 10
10.00000000000003
 20
-0.0000000000045937
 30
0.0
 11
5.000000000000523
 21
19.99999999999498
 31
0.0
1001
REVIT
1002
{
1070
     3
1000
15798
1002
}
  0
LINE
  5
1B8
330
1B4
100
AcDbEntity
  8
A-DETL-GENF
100
AcDbLine
 10
5.000000000000523
 20
19.99999999999498
 30
0.0
 11
-4.999999999999864
 21
-20.00000000000462
 31
0.0
1001
REVIT
1002
{
1070
     3
1000
15798
1002
}
  0
LINE
  5
1B9
330
1B4
100
AcDbEntity
  8
A-DETL-GENF
100
AcDbLine
 10
-4.999999999999864
 20
-20.00000000000462
 30
0.0
 11
-9.999999999999957
 21
-0.0000000000045937
 31
0.0
1001
REVIT
1002
{
1070
     3
1000
15798
1002
}
  0
ENDBLK
  5
1BB
330
1B4
100
AcDbEntity
  8
0
100
AcDbBlockEnd
  0
BLOCK
  5
1C3
330
1BD
100
AcDbEntity
  8
0
100
AcDbBlockBegin
  2
FP - Break Line - FP - Break Line-221841-W-TRSIL-03-V-G - Garage Door Head Flashing Detail _Vertical_
 70
     0
 10
0.0
 20
0.0
 30
0.0
  3
FP - Break Line - FP - Break Line-221841-W-TRSIL-03-V-G - Garage Door Head Flashing Detail _Vertical_
  1

  0
LINE
  5
1BE
330
1BD
100
AcDbEntity
  8
A-DETL-GENF
100
AcDbLine
 10
-9.99999999999996
 20
-0.0000000000045937
 30
0.0
 11
-41.01931638545559
 21
-0.0000000000045937
 31
0.0
1001
REVIT
1002
{
1070
     3
1000
15798
1002
}
  0
LINE
  5
1BF
330
1BD
100
AcDbEntity
  8
A-DETL-GENF
100
AcDbLine
 10
32.56823886226893
 20
-0.0000000000045937
 30
0.0
 11
10.00000000000003
 21
-0.0000000000045937
 31
0.0
1001
REVIT
1002
{
1070
     3
1000
15798
1002
}
  0
LINE
  5
1C0
330
1BD
100
AcDbEntity
  8
A-DETL-GENF
100
AcDbLine
 10
10.00000000000003
 20
-0.0000000000045937
 30
0.0
 11
5.000000000000523
 21
19.99999999999498
 31
0.0
1001
REVIT
1002
{
1070
     3
1000
15798
1002
}
  0
LINE
  5
1C1
330
1BD
100
AcDbEntity
  8
A-DETL-GENF
100
AcDbLine
 10
5.000000000000523
 20
19.99999999999498
 30
0.0
 11
-4.999999999999864
 21
-20.00000000000462
 31
0.0
1001
REVIT
1002
{
1070
     3
1000
15798
1002
}
  0
LINE
  5
1C2
330
1BD
100
AcDbEntity
  8
A-DETL-GENF
100
AcDbLine
 10
-4.999999999999864
 20
-20.00000000000462
 30
0.0
 11
-9.999999999999957
 21
-0.0000000000045937
 31
0.0
1001
REVIT
1002
{
1070
     3
1000
15798
1002
}
  0
ENDBLK
  5
1C4
330
1BD
100
AcDbEntity
  8
0
100
AcDbBlockEnd
  0
BLOCK
  5
22F
330
22D
100
AcDbEntity
  8
0
100
AcDbBlockBegin
  2
_Oblique
 70
     0
 10
0.0
 20
0.0
 30
0.0
  3
_Oblique
  1

  0
LINE
  5
22E
330
22D
100
AcDbEntity
  8
0
  6
ByBlock
 62
     0
370
    -2
100
AcDbLine
 10
-0.5
 20
-0.5
 30
0.0
 11
0.5
 21
0.5
 31
0.0
  0
ENDBLK
  5
230
330
22D
100
AcDbEntity
  8
0
100
AcDbBlockEnd
  0
BLOCK
  5
22A
330
233
100
AcDbEntity
  8
0
100
AcDbBlockBegin
  2
DIMBLOCK1-W-TRSIL-03-V-G - Garage Door Head Flashing Detail _Vertical_
 70
     0
 10
0.0
 20
0.0
 30
0.0
  3
DIMBLOCK1-W-TRSIL-03-V-G - Garage Door Head Flashing Detail _Vertical_
  1

  0
LINE
  5
21E
330
233
100
AcDbEntity
  8
A-ANNO-DIMS-5
100
AcDbLine
 10
3985.221242990487
 20
3714.414593313649
 30
0.0
 11
3986.515338216
 21
3719.244222445095
 31
0.0
1001
REVIT
1002
{
1070
     2
1000
-2000260
1002
}
  0
ELLIPSE
  5
21F
330
233
100
AcDbEntity
  8
A-ANNO-DIMS-5
100
AcDbEllipse
 10
3988.945806938568
 20
3728.314855203926
 30
0.0
 11
-40.15445645968699
 21
10.75935418088294
 31
0.0
210
0.0
220
0.0
230
1.0
 40
0.2860316970317942
 41
1.5707963267949
 42
3.141592653589797
1001
REVIT
1002
{
1070
     2
1000
-2000260
1002
}
  0
LINE
  5
220
330
233
100
AcDbEntity
  8
A-ANNO-DIMS-5
370
    35
100
AcDbLine
 10
3986.515338216
 20
3719.244222445095
 30
0.0
 11
3990.934755598416
 21
3711.589566998898
 31
0.0
1001
REVIT
1002
{
1070
     2
1000
-2000260
1002
}
  0
LINE
  5
221
330
233
100
AcDbEntity
  8
A-ANNO-DIMS-5
370
    35
100
AcDbLine
 10
3986.515338216
 20
3719.244222445095
 30
0.0
 11
3982.095920833585
 21
3726.898877891292
 31
0.0
1001
REVIT
1002
{
1070
     2
1000
-2000260
1002
}
  0
LINE
  5
222
330
233
100
AcDbEntity
  8
A-ANNO-DIMS-5
100
AcDbLine
 10
3972.026450821664
 20
3723.126508121632
 30
0.0
 11
3996.174596478891
 21
3716.65603199407
 31
0.0
1001
REVIT
1002
{
1070
     2
1000
-2000260
1002
}
  0
LINE
  5
223
330
233
100
AcDbEntity
  8
A-ANNO-DIMS-5
100
AcDbLine
 10
3986.515338216
 20
3719.244222445095
 30
0.0
 11
3972.026450821663
 21
3723.126508121632
 31
0.0
1001
REVIT
1002
{
1070
     2
1000
-2000260
1002
}
  0
LINE
  5
224
330
233
100
AcDbEntity
  8
A-ANNO-DIMS-5
370
    35
100
AcDbLine
 10
3985.221242990487
 20
3714.414593313649
 30
0.0
 11
3989.640660372904
 21
3706.759937867452
 31
0.0
1001
REVIT
1002
{
1070
     2
1000
-2000260
1002
}
  0
LINE
  5
225
330
233
100
AcDbEntity
  8
A-ANNO-DIMS-5
370
    35
100
AcDbLine
 10
3985.221242990487
 20
3714.414593313649
 30
0.0
 11
3980.801825608072
 21
3722.069248759847
 31
0.0
1001
REVIT
1002
{
1070
     2
1000
-2000260
1002
}
  0
LINE
  5
226
330
233
100
AcDbEntity
  8
A-ANNO-DIMS-5
100
AcDbLine
 10
3970.732355596151
 20
3718.296878990187
 30
0.0
 11
3994.880501253378
 21
3711.826402862625
 31
0.0
1001
REVIT
1002
{
1070
     2
1000
-2000260
1002
}
  0
LINE
  5
227
330
233
100
AcDbEntity
  8
A-ANNO-DIMS-5
100
AcDbLine
 10
3985.221242990487
 20
3714.414593313649
 30
0.0
 11
3970.732355596151
 21
3718.296878990187
 31
0.0
1001
REVIT
1002
{
1070
     2
1000
-2000260
1002
}
  0
MTEXT
  5
228
330
233
100
AcDbEntity
  8
A-ANNO-DIMS-5
 62
     0
100
AcDbMText
 10
4023.529989321255
 20
3719.048051463595
 30
0.0
 40
12.5
 41
93.22930979620762
 46
0.0
 71
     1
 72
     1
  1
5 mm gap
  7
Century Gothic
 11
0.2588190451024957
 21
0.965925826289075
 31
0.0
 73
     2
 44
0.9845015114479526
 90
        3
 63
     9
421
 13158600
 45
1.25
441
        0
1001
REVIT
1002
{
1070
     2
1000
-2000260
1002
}
  0
ENDBLK
  5
22B
330
233
100
AcDbEntity
  8
0
100
AcDbBlockEnd
  0
BLOCK
  5
250
330
254
100
AcDbEntity
  8
0
100
AcDbBlockBegin
  2
DIMBLOCK2-W-TRSIL-03-V-G - Garage Door Head Flashing Detail _Vertical_
 70
     0
 10
0.0
 20
0.0
 30
0.0
  3
DIMBLOCK2-W-TRSIL-03-V-G - Garage Door Head Flashing Detail _Vertical_
  1

  0
LINE
  5
245
330
254
100
AcDbEntity
  8
A-ANNO-DIMS-5
100
AcDbLine
 10
3973.024883412747
 20
3738.603429609199
 30
0.0
 11
3973.024883412747
 21
3788.599332835075
 31
0.0
1001
REVIT
1002
{
1070
     2
1000
-2000260
1002
}
  0
LINE
  5
246
330
254
100
AcDbEntity
  8
A-ANNO-DIMS-5
370
    35
100
AcDbLine
 10
3973.024883412747
 20
3788.599332835075
 30
0.0
 11
3979.274883412747
 21
3782.349332835075
 31
0.0
1001
REVIT
1002
{
1070
     2
1000
-2000260
1002
}
  0
LINE
  5
247
330
254
100
AcDbEntity
  8
A-ANNO-DIMS-5
370
    35
100
AcDbLine
 10
3973.024883412747
 20
3788.599332835075
 30
0.0
 11
3966.774883412747
 21
3794.849332835076
 31
0.0
1001
REVIT
1002
{
1070
     2
1000
-2000260
1002
}
  0
LINE
  5
248
330
254
100
AcDbEntity
  8
A-ANNO-DIMS-5
100
AcDbLine
 10
3925.815969271822
 20
3788.599332835075
 30
0.0
 11
3983.024883412747
 21
3788.599332835075
 31
0.0
1001
REVIT
1002
{
1070
     2
1000
-2000260
1002
}
  0
LINE
  5
249
330
254
100
AcDbEntity
  8
A-ANNO-DIMS-5
100
AcDbLine
 10
3973.024883412747
 20
3788.599332835075
 30
0.0
 11
3925.815969271822
 21
3788.599332835075
 31
0.0
1001
REVIT
1002
{
1070
     2
1000
-2000260
1002
}
  0
LINE
  5
24A
330
254
100
AcDbEntity
  8
A-ANNO-DIMS-5
370
    35
100
AcDbLine
 10
3973.024883412747
 20
3738.603429609199
 30
0.0
 11
3979.274883412747
 21
3732.353429609199
 31
0.0
1001
REVIT
1002
{
1070
     2
1000
-2000260
1002
}
  0
LINE
  5
24B
330
254
100
AcDbEntity
  8
A-ANNO-DIMS-5
370
    35
100
AcDbLine
 10
3973.024883412747
 20
3738.603429609199
 30
0.0
 11
3966.774883412747
 21
3744.853429609199
 31
0.0
1001
REVIT
1002
{
1070
     2
1000
-2000260
1002
}
  0
LINE
  5
24C
330
254
100
AcDbEntity
  8
A-ANNO-DIMS-5
100
AcDbLine
 10
3944.656191726259
 20
3738.603429609199
 30
0.0
 11
3983.024883412747
 21
3738.603429609199
 31
0.0
1001
REVIT
1002
{
1070
     2
1000
-2000260
1002
}
  0
LINE
  5
24D
330
254
100
AcDbEntity
  8
A-ANNO-DIMS-5
100
AcDbLine
 10
3973.024883412747
 20
3738.603429609199
 30
0.0
 11
3944.656191726259
 21
3738.603429609199
 31
0.0
1001
REVIT
1002
{
1070
     2
1000
-2000260
1002
}
  0
MTEXT
  5
24E
330
254
100
AcDbEntity
  8
A-ANNO-DIMS-5
 62
     0
100
AcDbMText
 10
3982.513335420055
 20
3724.237894863739
 30
0.0
 40
12.5
 41
94.47236726015704
 46
0.0
 71
     1
 72
     1
  1
min. cover
  7
Century Gothic
 11
0.0
 21
1.0
 31
0.0
 73
     2
 44
0.9845015114479526
 90
        3
 63
     9
421
 13158600
 45
1.25
441
        0
1001
REVIT
1002
{
1070
     2
1000
-2000260
1002
}
  0
MTEXT
  5
24F
330
254
100
AcDbEntity
  8
A-ANNO-DIMS-5
 62
     0
100
AcDbMText
 10
3952.002887264889
 20
3736.25411701525
 30
0.0
 40
12.5
 41
65.63343409653016
 46
0.0
 71
     1
 72
     1
  1
50 mm 
  7
Century Gothic
 11
0.0
 21
1.0
 31
0.0
 73
     2
 44
0.9845015114479526
 90
        3
 63
     9
421
 13158600
 45
1.25
441
        0
1001
REVIT
1002
{
1070
     2
1000
-2000260
1002
}
  0
ENDBLK
  5
251
330
254
100
AcDbEntity
  8
0
100
AcDbBlockEnd
  0
BLOCK
  5
29D
330
272
100
AcDbEntity
  8
0
100
AcDbBlockBegin
  2
Titleblock A4 The roofing store - Titleblock A4 The roofing store-2694-Garage Door Head Flashing Detail _Ver__
 70
     0
 10
0.0
 20
0.0
 30
0.0
  3
Titleblock A4 The roofing store - Titleblock A4 The roofing store-2694-Garage Door Head Flashing Detail _Ver__
  1

  0
IMAGE
  5
275
330
272
100
AcDbEntity
  8
G-ANNO-TTLB
160
               140
310
8C000000010000008400000006000000050000005617394A1B7A1640B7935150A3172A4000000000000000005617394A1B7A1640DCC928A8D10B3640000000000000000095168F065A825140DCC928A8D10B3640000000000000000095168F065A825140B7935150A3172A4000000000000000005617394A1B7A1640B79351
310
50A3172A400000000000000000
100
AcDbRasterImage
 90
        0
 10
5.619244727835242
 20
13.0461678599912
 30
0.0
 11
0.0225
 21
0.0
 31
0.0
 12
0.0
 22
0.0225
 32
0.0
 13
2863.0
 23
400.0
340
274
 70
     7
280
     0
281
    50
282
    50
283
     0
290
     0
360
276
 71
     1
 91
        2
 14
-0.5
 24
-0.5
 14
2862.5
 24
399.5
  0
LINE
  5
278
330
272
100
AcDbEntity
  8
G-ANNO-TTLB-THIN
100
AcDbLine
 10
291.9756745145733
 20
16.5981545959536
 30
0.0
 11
236.9756745145732
 21
16.5981545959536
 31
0.0
1001
REVIT
1002
{
1070
     3
1000
-2000281
1002
}
  0
LINE
  5
279
330
272
100
AcDbEntity
  8
G-ANNO-TTLB
100
AcDbLine
 10
71.28674472783522
 20
23.02396756137834
 30
0.0
 11
71.28674472783522
 21
5.023967561378343
 31
0.0
  0
LINE
  5
27B
330
272
100
AcDbEntity
  8
G-ANNO-TTLB-MEDM
100
AcDbLine
 10
291.9756745145733
 20
205.0239675613797
 30
0.0
 11
4.975674514620406
 21
205.0239675613797
 31
0.0
1001
REVIT
1002
{
1070
     3
1000
-2000282
1002
}
  0
LINE
  5
27C
330
272
100
AcDbEntity
  8
G-ANNO-TTLB-MEDM
100
AcDbLine
 10
4.975674514620408
 20
205.0239675613797
 30
0.0
 11
4.975674514620408
 21
5.02396756137836
 31
0.0
1001
REVIT
1002
{
1070
     3
1000
-2000282
1002
}
  0
LINE
  5
27D
330
272
100
AcDbEntity
  8
G-ANNO-TTLB-MEDM
100
AcDbLine
 10
4.975674514620408
 20
5.023967561378343
 30
0.0
 11
291.9756745145733
 21
5.023967561378343
 31
0.0
1001
REVIT
1002
{
1070
     3
1000
-2000282
1002
}
  0
LINE
  5
27E
330
272
100
AcDbEntity
  8
G-ANNO-TTLB-MEDM
100
AcDbLine
 10
291.9756745145733
 20
5.023967561378343
 30
0.0
 11
291.9756745145733
 21
205.0239675613797
 31
0.0
1001
REVIT
1002
{
1070
     3
1000
-2000282
1002
}
  0
LINE
  5
27F
330
272
100
AcDbEntity
  8
G-ANNO-TTLB-THIN
100
AcDbLine
 10
291.9756745145733
 20
23.02396756137834
 30
0.0
 11
4.975674514620406
 21
23.02396756137834
 31
0.0
1001
REVIT
1002
{
1070
     3
1000
-2000281
1002
}
  0
LINE
  5
280
330
272
100
AcDbEntity
  8
G-ANNO-TTLB
100
AcDbLine
 10
236.9756745145732
 20
23.02396756137834
 30
0.0
 11
236.9756745145732
 21
5.023967561378343
 31
0.0
  0
MTEXT
  5
282
330
272
100
AcDbEntity
  8
G-ANNO-TTLB
100
AcDbMText
 10
9.61486176751347
 20
34.25458782332127
 30
0.0
 40
1.8
 41
2.309769
 46
0.0
 71
     1
 72
     1
  1
\U+2022
  7
Century Gothic_1
 73
     2
 44
1.0
  0
MTEXT
  5
283
330
272
100
AcDbEntity
  8
G-ANNO-TTLB
100
AcDbMText
 10
9.61486176751347
 20
31.3441711566546
 30
0.0
 40
1.8
 41
2.309769
 46
0.0
 71
     1
 72
     1
  1
\U+2022
  7
Century Gothic_1
 73
     2
 44
1.0
  0
MTEXT
  5
284
330
272
100
AcDbEntity
  8
G-ANNO-TTLB
100
AcDbMText
 10
9.61486176751347
 20
28.43375448998793
 30
0.0
 40
1.8
 41
2.309769
 46
0.0
 71
     1
 72
     1
  1
\U+2022
  7
Century Gothic_1
 73
     2
 44
1.0
  0
MTEXT
  5
285
330
272
100
AcDbEntity
  8
G-ANNO-TTLB
100
AcDbMText
 10
11.51986176751347
 20
34.25458782332127
 30
0.0
 40
1.8
 41
154.116405
 46
0.0
 71
     1
 72
     1
  1
These details are generally in accordance with NZBC E2/AS1 and or the NZ metal roof & wall caldding code of practice.
  7
Century Gothic_1
 73
     2
 44
1.0
  0
MTEXT
  5
286
330
272
100
AcDbEntity
  8
G-ANNO-TTLB
100
AcDbMText
 10
11.51986176751347
 20
31.3441711566546
 30
0.0
 40
1.8
 41
137.0885625
 46
0.0
 71
     1
 72
     1
  1
The building Architect / Designer is ultimately responsible for details to meet the NZ Building Code & E2/AS1.
  7
Century Gothic_1
 73
     2
 44
1.0
  0
MTEXT
  5
287
330
272
100
AcDbEntity
  8
G-ANNO-TTLB
100
AcDbMText
 10
11.51986176751347
 20
28.43375448998794
 30
0.0
 40
1.8
 41
118.401226875
 46
0.0
 71
     1
 72
     1
  1
For Further information please contact your nearest roofing store www.theroofingstore.co.nz.
  7
Century Gothic_1
 73
     2
 44
1.0
  0
MTEXT
  5
288
330
272
100
AcDbEntity
  8
G-ANNO-TTLB
100
AcDbMText
 10
152.075785282666
 20
20.51531106318182
 30
0.0
 40
1.8
 41
20.77974
 46
0.0
 71
     1
 72
     1
  1
P: HEAD OFFICE 
  7
Century Gothic_1
 73
     2
 44
1.0
  0
MTEXT
  5
289
330
272
100
AcDbEntity
  8
G-ANNO-TTLB
100
AcDbMText
 10
169.220785282666
 20
20.51531106318182
 30
0.0
 40
1.8
 41
6.926579999999998
 46
0.0
 71
     1
 72
     1
  1
^I
  7
Century Gothic_1
 73
     2
 44
1.0
  0
MTEXT
  5
28A
330
272
100
AcDbEntity
  8
G-ANNO-TTLB
100
AcDbMText
 10
174.935785282666
 20
20.51531106318182
 30
0.0
 40
1.8
 41
15.079741875
 46
0.0
 71
     1
 72
     1
  1
09 277 2717
  7
Century Gothic_1
 73
     2
 44
1.0
  0
MTEXT
  5
28B
330
272
100
AcDbEntity
  8
G-ANNO-TTLB
100
AcDbMText
 10
152.075785282666
 20
17.60489439651515
 30
0.0
 40
1.8
 41
13.492400625
 46
0.0
 71
     1
 72
     1
  1
    ALBANY 
  7
Century Gothic_1
 73
     2
 44
1.0
  0
MTEXT
  5
28C
330
272
100
AcDbEntity
  8
G-ANNO-TTLB
100
AcDbMText
 10
163.208129032666
 20
17.60489439651515
 30
0.0
 40
1.8
 41
14.213919375
 46
0.0
 71
     1
 72
     1
  1
^I^I
  7
Century Gothic_1
 73
     2
 44
1.0
  0
MTEXT
  5
28D
330
272
100
AcDbEntity
  8
G-ANNO-TTLB
100
AcDbMText
 10
174.935785282666
 20
17.60489439651515
 30
0.0
 40
1.8
 41
15.079741875
 46
0.0
 71
     1
 72
     1
  1
09 972 0060
  7
Century Gothic_1
 73
     2
 44
1.0
  0
MTEXT
  5
28E
330
272
100
AcDbEntity
  8
G-ANNO-TTLB
100
AcDbMText
 10
152.075785282666
 20
14.69447772984849
 30
0.0
 40
1.8
 41
13.99746375
 46
0.0
 71
     1
 72
     1
  1
    KATIKAIT 
  7
Century Gothic_1
 73
     2
 44
1.0
  0
MTEXT
  5
28F
330
272
100
AcDbEntity
  8
G-ANNO-TTLB
100
AcDbMText
 10
163.624847782666
 20
14.69447772984849
 30
0.0
 40
1.8
 41
13.70885625
 46
0.0
 71
     1
 72
     1
  1
^I
  7
Century Gothic_1
 73
     2
 44
1.0
  0
MTEXT
  5
290
330
272
100
AcDbEntity
  8
G-ANNO-TTLB
100
AcDbMText
 10
174.935785282666
 20
14.69447772984849
 30
0.0
 40
1.8
 41
15.079741875
 46
0.0
 71
     1
 72
     1
  1
07 549 5190
  7
Century Gothic_1
 73
     2
 44
1.0
  0
MTEXT
  5
291
330
272
100
AcDbEntity
  8
G-ANNO-TTLB
100
AcDbMText
 10
152.075785282666
 20
11.78406106318182
 30
0.0
 40
1.8
 41
20.274676875
 46
0.0
 71
     1
 72
     1
  1
    WELLINGTON 
  7
Century Gothic_1
 73
     2
 44
1.0
  0
MTEXT
  5
292
330
272
100
AcDbEntity
  8
G-ANNO-TTLB
100
AcDbMText
 10
168.804066532666
 20
11.78406106318182
 30
0.0
 40
1.8
 41
7.431643124999999
 46
0.0
 71
     1
 72
     1
  1
^I
  7
Century Gothic_1
 73
     2
 44
1.0
  0
MTEXT
  5
293
330
272
100
AcDbEntity
  8
G-ANNO-TTLB
100
AcDbMText
 10
174.935785282666
 20
11.78406106318182
 30
0.0
 40
1.8
 41
15.079741875
 46
0.0
 71
     1
 72
     1
  1
04 974 5792
  7
Century Gothic_1
 73
     2
 44
1.0
  0
MTEXT
  5
294
330
272
100
AcDbEntity
  8
G-ANNO-TTLB
100
AcDbMText
 10
187.377816532666
 20
11.78406106318182
 30
0.0
 40
1.8
 41
12.626578125
 46
0.0
 71
     1
 72
     1
  1
^I
  7
Century Gothic_1
 73
     2
 44
1.0
  0
MTEXT
  5
295
330
272
100
AcDbEntity
  8
G-ANNO-TTLB
100
AcDbMText
 10
197.795785282666
 20
11.78406106318182
 30
0.0
 40
1.8
 41
41.63163187500001
 46
0.0
 71
     1
 72
     1
  1
WEB: www.theroofingstore.co.nz
  7
Century Gothic_1
 73
     2
 44
1.0
  0
MTEXT
  5
296
330
272
100
AcDbEntity
  8
G-ANNO-TTLB
100
AcDbMText
 10
152.075785282666
 20
8.873644396515153
 30
0.0
 40
1.8
 41
23.52151125
 46
0.0
 71
     1
 72
     1
  1
    CHRISTCHURCH 
  7
Century Gothic_1
 73
     2
 44
1.0
  0
MTEXT
  5
297
330
272
100
AcDbEntity
  8
G-ANNO-TTLB
100
AcDbMText
 10
171.482972782666
 20
8.873644396515153
 30
0.0
 40
1.8
 41
4.184808749999999
 46
0.0
 71
     1
 72
     1
  1
^I
  7
Century Gothic_1
 73
     2
 44
1.0
  0
MTEXT
  5
298
330
272
100
AcDbEntity
  8
G-ANNO-TTLB
100
AcDbMText
 10
174.935785282666
 20
8.873644396515153
 30
0.0
 40
1.8
 41
15.079741875
 46
0.0
 71
     1
 72
     1
  1
03 348 6528
  7
Century Gothic_1
 73
     2
 44
1.0
  0
MTEXT
  5
299
330
272
100
AcDbEntity
  8
G-ANNO-TTLB
100
AcDbMText
 10
187.377816532666
 20
8.873644396515153
 30
0.0
 40
1.8
 41
12.626578125
 46
0.0
 71
     1
 72
     1
  1
^I
  7
Century Gothic_1
 73
     2
 44
1.0
  0
MTEXT
  5
29A
330
272
100
AcDbEntity
  8
G-ANNO-TTLB
100
AcDbMText
 10
197.795785282666
 20
8.873644396515153
 30
0.0
 40
1.8
 41
45.16707375
 46
0.0
 71
     1
 72
     1
  1
Copyright © The Roofing Store 2013
  7
Century Gothic_1
 73
     2
 44
1.0
  0
MTEXT
  5
29B
330
272
100
AcDbEntity
  8
G-ANNO-TTLB
100
AcDbMText
 10
238.4531881313984
 20
13.76450265283994
 30
0.0
 40
1.8
 41
13.348096875
 46
0.0
 71
     1
 72
     1
  1
Detail No.:
  7
Century Gothic_1
 73
     2
 44
1.0
  0
MTEXT
  5
29C
330
272
100
AcDbEntity
  8
G-ANNO-TTLB
100
AcDbMText
 10
238.4531881313984
 20
20.51531106318182
 30
0.0
 40
1.8
 41
14.502526875
 46
0.0
 71
     1
 72
     1
  1
Scale:  1 : 5
  7
Century Gothic_1
 73
     2
 44
1.0
  0
ENDBLK
  5
29E
330
272
100
AcDbEntity
  8
0
100
AcDbBlockEnd
  0
ENDSEC
  0
SECTION
  2
ENTITIES
  0
HATCH
  5
C1
330
70
100
AcDbEntity
  8
A-DETL-GENF
100
AcDbHatch
 10
0.0
 20
0.0
 30
0.0
210
0.0
220
0.0
230
1.0
  2
SOLID
 70
     1
 71
     0
 91
        1
 92
        0
 93
        4
 72
     1
 10
3954.001093085858
 20
3682.957016278626
 11
3954.001093085858
 21
3687.957016278625
 72
     1
 10
3954.001093085858
 20
3687.957016278625
 11
3949.412455798507
 21
3687.957016278625
 72
     1
 10
3949.412455798507
 20
3687.957016278625
 11
3949.412455798507
 21
3682.957016278626
 72
     1
 10
3949.412455798507
 20
3682.957016278626
 11
3954.001093085858
 21
3682.957016278626
 97
        0
 75
     0
 76
     1
 98
        1
 10
0.0
 20
0.0
450
        0
451
        0
460
0.0
461
0.0
452
        0
462
0.0
453
        0
470

1001
REVIT
1002
{
1070
     1
1000
220006
1002
}
1002
{
1070
     5
1000
17867
1002
}
1002
{
1070
     2
1000
-2002000
1002
}
  0
HATCH
  5
C7
330
70
100
AcDbEntity
  8
A-DETL-GENF
100
AcDbHatch
 10
0.0
 20
0.0
 30
0.0
210
0.0
220
0.0
230
1.0
  2
SOLID
 70
     1
 71
     0
 91
        1
 92
        0
 93
        5
 72
     1
 10
3775.642243755185
 20
3441.200495228241
 11
3800.642243755186
 21
3441.200495228241
 72
     1
 10
3800.642243755186
 20
3441.200495228241
 11
3800.642243755186
 21
3665.401526426528
 72
     1
 10
3800.642243755186
 20
3665.401526426528
 11
3775.642243755186
 21
3665.401526426528
 72
     1
 10
3775.642243755186
 20
3665.401526426528
 11
3775.642243755185
 21
3456.933851133212
 72
     1
 10
3775.642243755185
 20
3456.933851133212
 11
3775.642243755185
 21
3441.200495228241
 97
        0
 75
     0
 76
     1
 98
        1
 10
0.0
 20
0.0
450
        0
451
        0
460
0.0
461
0.0
452
        0
462
0.0
453
        0
470

1001
REVIT
1002
{
1070
     1
1000
220653
1002
}
1002
{
1070
     5
1000
17867
1002
}
1002
{
1070
     2
1000
-2002000
1002
}
  0
LINE
  5
C8
330
70
100
AcDbEntity
  8
A-DETL
100
AcDbLine
 10
3762.936985078632
 20
3672.346211186189
 30
0.0
 11
3762.936985078635
 21
3441.200495228238
 31
0.0
1001
REVIT
1002
{
1070
     1
1000
220032
1002
}
1002
{
1070
     2
1000
-2000051
1002
}
1002
{
1070
     3
1000
137263
1002
}
  0
LINE
  5
C9
330
70
100
AcDbEntity
  8
A-DETL
100
AcDbLine
 10
3949.412455798503
 20
3672.346211186189
 30
0.0
 11
3949.412455798507
 21
3441.200495228242
 31
0.0
1001
REVIT
1002
{
1070
     1
1000
220786
1002
}
1002
{
1070
     2
1000
-2000051
1002
}
1002
{
1070
     3
1000
137263
1002
}
  0
INSERT
  5
DD
330
70
100
AcDbEntity
  8
A-DETL-GENF
100
AcDbBlockReference
  2
4594_Jamb Liner - 19mm H3_1-164127-W-TRSIL-03-V-G - Garage Door Head Flashing Detail _Vertical_
 10
3856.174720438568
 20
3681.846211186189
 30
0.0
1001
REVIT
1002
{
1070
     1
1000
220080
1002
}
1002
{
1070
     5
1000
83687
1002
}
1002
{
1070
     2
1000
-2002000
1002
}
  0
SPLINE
  5
DE
330
70
100
AcDbEntity
  8
A-DETL
100
AcDbSpline
210
0.0
220
0.0
230
1.0
 70
     8
 71
     3
 72
     8
 73
     4
 74
     0
 42
0.000000001
 43
0.0000000001
 40
3.08417207499754
 40
3.08417207499754
 40
3.08417207499754
 40
3.08417207499754
 40
3.546094515904355
 40
3.546094515904355
 40
3.546094515904355
 40
3.546094515904355
 10
3847.581437250699
 20
4058.268369763163
 30
0.0
 10
3849.81306263636
 20
4057.634874596046
 30
0.0
 10
3852.07832652735
 20
4057.274628560802
 30
0.0
 10
3854.352888718839
 20
4056.989913602672
 30
0.0
1001
REVIT
1002
{
1070
     1
1000
219973
1002
}
1002
{
1070
     2
1000
-2000051
1002
}
1002
{
1070
     3
1000
-2000077
1002
}
  0
SPLINE
  5
DF
330
70
100
AcDbEntity
  8
A-DETL
100
AcDbSpline
210
0.0
220
0.0
230
1.0
 70
     8
 71
     3
 72
     8
 73
     4
 74
     0
 42
0.000000001
 43
0.0000000001
 40
0.0
 40
0.0
 40
0.0
 40
0.0
 40
1.098852530229368
 40
1.098852530229368
 40
1.098852530229368
 40
1.098852530229368
 10
3802.872790948241
 20
4040.891146461699
 30
0.0
 10
3797.378528297094
 20
4040.891146461699
 30
0.0
 10
3791.366339944318
 20
4045.419184773666
 30
0.0
 10
3788.958186294435
 20
4050.956948118431
 30
0.0
1001
REVIT
1002
{
1070
     1
1000
219973
1002
}
1002
{
1070
     2
1000
-2000051
1002
}
1002
{
1070
     3
1000
-2000077
1002
}
  0
SPLINE
  5
E0
330
70
100
AcDbEntity
  8
A-DETL
100
AcDbSpline
210
0.0
220
0.0
230
1.0
 70
     8
 71
     3
 72
     8
 73
     4
 74
     0
 42
0.000000001
 43
0.0000000001
 40
0.5495211669243334
 40
0.5495211669243334
 40
0.5495211669243334
 40
0.5495211669243334
 40
1.128738090038723
 40
1.128738090038723
 40
1.128738090038723
 40
1.128738090038723
 10
3854.719633524638
 20
4055.16282815932
 30
0.0
 10
3851.883480456429
 20
4054.675997869792
 30
0.0
 10
3849.05733685332
 20
4054.107859637997
 30
0.0
 10
3846.239093350732
 20
4053.475548055206
 30
0.0
1001
REVIT
1002
{
1070
     1
1000
219973
1002
}
1002
{
1070
     2
1000
-2000051
1002
}
1002
{
1070
     3
1000
-2000077
1002
}
  0
SPLINE
  5
E1
330
70
100
AcDbEntity
  8
A-DETL
100
AcDbSpline
210
0.0
220
0.0
230
1.0
 70
     8
 71
     3
 72
     8
 73
     4
 74
     0
 42
0.000000001
 43
0.0000000001
 40
1.57595908423319
 40
1.57595908423319
 40
1.57595908423319
 40
1.57595908423319
 40
4.12310562561766
 40
4.12310562561766
 40
4.12310562561766
 40
4.12310562561766
 10
3839.836511208467
 20
4050.992048465984
 30
0.0
 10
3827.63951769631
 20
4046.615813082246
 30
0.0
 10
3815.608523655163
 20
4040.891146461699
 30
0.0
 10
3802.872790948241
 20
4040.891146461699
 30
0.0
1001
REVIT
1002
{
1070
     1
1000
219973
1002
}
1002
{
1070
     2
1000
-2000051
1002
}
1002
{
1070
     3
1000
-2000077
1002
}
  0
SPLINE
  5
E2
330
70
100
AcDbEntity
  8
A-DETL
100
AcDbSpline
210
0.0
220
0.0
230
1.0
 70
     8
 71
     3
 72
     9
 73
     5
 74
     0
 42
0.000000001
 43
0.0000000001
 40
0.0
 40
0.0
 40
0.0
 40
0.0
 40
1.414213562373095
 40
2.108399772229372
 40
2.108399772229372
 40
2.108399772229372
 40
2.108399772229372
 10
3862.872790948241
 20
4025.891146461698
 30
0.0
 10
3869.943858760107
 20
4025.891146461698
 30
0.0
 10
3881.764816544892
 20
4037.072624784665
 30
0.0
 10
3875.96233656604
 20
4048.254103107631
 30
0.0
 10
3873.180662226224
 20
4051.048539363872
 30
0.0
1001
REVIT
1002
{
1070
     1
1000
219973
1002
}
1002
{
1070
     2
1000
-2000051
1002
}
1002
{
1070
     3
1000
-2000077
1002
}
  0
SPLINE
  5
E3
330
70
100
AcDbEntity
  8
A-DETL
100
AcDbSpline
210
0.0
220
0.0
230
1.0
 70
     8
 71
     3
 72
     8
 73
     4
 74
     0
 42
0.000000001
 43
0.0000000001
 40
0.0
 40
0.0
 40
0.0
 40
0.0
 40
4.12310562561766
 40
4.12310562561766
 40
4.12310562561766
 40
4.12310562561766
 10
3802.872790948241
 20
4040.891146461699
 30
0.0
 10
3823.488319076329
 20
4040.891146461699
 30
0.0
 10
3842.257262820152
 20
4025.891146461698
 30
0.0
 10
3862.872790948241
 20
4025.891146461698
 30
0.0
1001
REVIT
1002
{
1070
     1
1000
219973
1002
}
1002
{
1070
     2
1000
-2000051
1002
}
1002
{
1070
     3
1000
-2000077
1002
}
  0
SPLINE
  5
E4
330
70
100
AcDbEntity
  8
A-DETL
100
AcDbSpline
210
0.0
220
0.0
230
1.0
 70
     8
 71
     3
 72
     9
 73
     5
 74
     0
 42
0.000000001
 43
0.0000000001
 40
0.0
 40
0.0
 40
0.0
 40
0.0
 40
1.414213562373095
 40
2.82842712474619
 40
2.82842712474619
 40
2.82842712474619
 40
2.82842712474619
 10
3802.87279094824
 20
4010.891146461697
 30
0.0
 10
3795.801723136374
 20
4010.891146461697
 30
0.0
 10
3779.943858760108
 20
4025.891146461698
 30
0.0
 10
3795.801723136376
 20
4040.891146461698
 30
0.0
 10
3802.872790948241
 20
4040.891146461699
 30
0.0
1001
REVIT
1002
{
1070
     1
1000
219973
1002
}
1002
{
1070
     2
1000
-2000051
1002
}
1002
{
1070
     3
1000
-2000077
1002
}
  0
SPLINE
  5
E5
330
70
100
AcDbEntity
  8
A-DETL
100
AcDbSpline
210
0.0
220
0.0
230
1.0
 70
     8
 71
     3
 72
     8
 73
     4
 74
     0
 42
0.000000001
 43
0.0000000001
 40
0.0
 40
0.0
 40
0.0
 40
0.0
 40
4.12310562561766
 40
4.12310562561766
 40
4.12310562561766
 40
4.12310562561766
 10
3862.872790948241
 20
4025.891146461698
 30
0.0
 10
3842.257262820152
 20
4025.891146461698
 30
0.0
 10
3823.488319076328
 20
4010.891146461697
 30
0.0
 10
3802.872790948239
 20
4010.891146461697
 30
0.0
1001
REVIT
1002
{
1070
     1
1000
219973
1002
}
1002
{
1070
     2
1000
-2000051
1002
}
1002
{
1070
     3
1000
-2000077
1002
}
  0
SPLINE
  5
E6
330
70
100
AcDbEntity
  8
A-DETL
100
AcDbSpline
210
0.0
220
0.0
230
1.0
 70
     8
 71
     3
 72
     9
 73
     5
 74
     0
 42
0.000000001
 43
0.0000000001
 40
0.0
 40
0.0
 40
0.0
 40
0.0
 40
1.414213562373095
 40
2.82842712474619
 40
2.82842712474619
 40
2.82842712474619
 40
2.82842712474619
 10
3862.872790948241
 20
3995.891146461698
 30
0.0
 10
3869.943858760106
 20
3995.891146461698
 30
0.0
 10
3885.801723136373
 20
4010.891146461696
 30
0.0
 10
3869.943858760104
 20
4025.891146461698
 30
0.0
 10
3862.872790948241
 20
4025.891146461698
 30
0.0
1001
REVIT
1002
{
1070
     1
1000
219973
1002
}
1002
{
1070
     2
1000
-2000051
1002
}
1002
{
1070
     3
1000
-2000077
1002
}
  0
SPLINE
  5
E7
330
70
100
AcDbEntity
  8
A-DETL
100
AcDbSpline
210
0.0
220
0.0
230
1.0
 70
     8
 71
     3
 72
     8
 73
     4
 74
     0
 42
0.000000001
 43
0.0000000001
 40
0.0
 40
0.0
 40
0.0
 40
0.0
 40
4.12310562561766
 40
4.12310562561766
 40
4.12310562561766
 40
4.12310562561766
 10
3802.87279094824
 20
4010.891146461697
 30
0.0
 10
3823.488319076329
 20
4010.891146461697
 30
0.0
 10
3842.257262820152
 20
3995.891146461699
 30
0.0
 10
3862.872790948241
 20
3995.891146461698
 30
0.0
1001
REVIT
1002
{
1070
     1
1000
219973
1002
}
1002
{
1070
     2
1000
-2000051
1002
}
1002
{
1070
     3
1000
-2000077
1002
}
  0
SPLINE
  5
E8
330
70
100
AcDbEntity
  8
A-DETL
100
AcDbSpline
210
0.0
220
0.0
230
1.0
 70
     8
 71
     3
 72
     9
 73
     5
 74
     0
 42
0.000000001
 43
0.0000000001
 40
0.0
 40
0.0
 40
0.0
 40
0.0
 40
1.414213562373095
 40
2.82842712474619
 40
2.82842712474619
 40
2.82842712474619
 40
2.82842712474619
 10
3802.87279094824
 20
3980.891146461699
 30
0.0
 10
3795.801723136374
 20
3980.891146461699
 30
0.0
 10
3779.943858760107
 20
3995.891146461699
 30
0.0
 10
3795.801723136376
 20
4010.891146461698
 30
0.0
 10
3802.87279094824
 20
4010.891146461697
 30
0.0
1001
REVIT
1002
{
1070
     1
1000
219973
1002
}
1002
{
1070
     2
1000
-2000051
1002
}
1002
{
1070
     3
1000
-2000077
1002
}
  0
SPLINE
  5
E9
330
70
100
AcDbEntity
  8
A-DETL
100
AcDbSpline
210
0.0
220
0.0
230
1.0
 70
     8
 71
     3
 72
     8
 73
     4
 74
     0
 42
0.000000001
 43
0.0000000001
 40
0.0
 40
0.0
 40
0.0
 40
0.0
 40
4.12310562561766
 40
4.12310562561766
 40
4.12310562561766
 40
4.12310562561766
 10
3862.872790948241
 20
3995.891146461698
 30
0.0
 10
3842.257262820152
 20
3995.891146461698
 30
0.0
 10
3823.488319076329
 20
3980.891146461697
 30
0.0
 10
3802.872790948239
 20
3980.891146461699
 30
0.0
1001
REVIT
1002
{
1070
     1
1000
219973
1002
}
1002
{
1070
     2
1000
-2000051
1002
}
1002
{
1070
     3
1000
-2000077
1002
}
  0
SPLINE
  5
EA
330
70
100
AcDbEntity
  8
A-DETL
100
AcDbSpline
210
0.0
220
0.0
230
1.0
 70
     8
 71
     3
 72
     9
 73
     5
 74
     0
 42
0.000000001
 43
0.0000000001
 40
0.0
 40
0.0
 40
0.0
 40
0.0
 40
1.414213562373095
 40
2.82842712474619
 40
2.82842712474619
 40
2.82842712474619
 40
2.82842712474619
 10
3862.872790948241
 20
3965.891146461699
 30
0.0
 10
3869.943858760106
 20
3965.891146461699
 30
0.0
 10
3885.801723136373
 20
3980.891146461699
 30
0.0
 10
3869.943858760104
 20
3995.891146461698
 30
0.0
 10
3862.872790948241
 20
3995.891146461699
 30
0.0
1001
REVIT
1002
{
1070
     1
1000
219973
1002
}
1002
{
1070
     2
1000
-2000051
1002
}
1002
{
1070
     3
1000
-2000077
1002
}
  0
SPLINE
  5
EB
330
70
100
AcDbEntity
  8
A-DETL
100
AcDbSpline
210
0.0
220
0.0
230
1.0
 70
     8
 71
     3
 72
     8
 73
     4
 74
     0
 42
0.000000001
 43
0.0000000001
 40
0.0
 40
0.0
 40
0.0
 40
0.0
 40
4.12310562561766
 40
4.12310562561766
 40
4.12310562561766
 40
4.12310562561766
 10
3802.87279094824
 20
3980.891146461699
 30
0.0
 10
3823.488319076329
 20
3980.891146461699
 30
0.0
 10
3842.257262820152
 20
3965.891146461699
 30
0.0
 10
3862.872790948241
 20
3965.891146461699
 30
0.0
1001
REVIT
1002
{
1070
     1
1000
219973
1002
}
1002
{
1070
     2
1000
-2000051
1002
}
1002
{
1070
     3
1000
-2000077
1002
}
  0
SPLINE
  5
EC
330
70
100
AcDbEntity
  8
A-DETL
100
AcDbSpline
210
0.0
220
0.0
230
1.0
 70
     8
 71
     3
 72
     9
 73
     5
 74
     0
 42
0.000000001
 43
0.0000000001
 40
0.0
 40
0.0
 40
0.0
 40
0.0
 40
1.414213562373095
 40
2.82842712474619
 40
2.82842712474619
 40
2.82842712474619
 40
2.82842712474619
 10
3802.87279094824
 20
3950.891146461698
 30
0.0
 10
3795.801723136374
 20
3950.891146461698
 30
0.0
 10
3779.943858760107
 20
3965.891146461699
 30
0.0
 10
3795.801723136376
 20
3980.891146461699
 30
0.0
 10
3802.87279094824
 20
3980.891146461699
 30
0.0
1001
REVIT
1002
{
1070
     1
1000
219973
1002
}
1002
{
1070
     2
1000
-2000051
1002
}
1002
{
1070
     3
1000
-2000077
1002
}
  0
SPLINE
  5
ED
330
70
100
AcDbEntity
  8
A-DETL
100
AcDbSpline
210
0.0
220
0.0
230
1.0
 70
     8
 71
     3
 72
     8
 73
     4
 74
     0
 42
0.000000001
 43
0.0000000001
 40
0.0
 40
0.0
 40
0.0
 40
0.0
 40
4.12310562561766
 40
4.12310562561766
 40
4.12310562561766
 40
4.12310562561766
 10
3862.872790948241
 20
3965.891146461699
 30
0.0
 10
3842.257262820152
 20
3965.891146461699
 30
0.0
 10
3823.488319076329
 20
3950.891146461698
 30
0.0
 10
3802.872790948239
 20
3950.891146461698
 30
0.0
1001
REVIT
1002
{
1070
     1
1000
219973
1002
}
1002
{
1070
     2
1000
-2000051
1002
}
1002
{
1070
     3
1000
-2000077
1002
}
  0
SPLINE
  5
EE
330
70
100
AcDbEntity
  8
A-DETL
100
AcDbSpline
210
0.0
220
0.0
230
1.0
 70
     8
 71
     3
 72
     9
 73
     5
 74
     0
 42
0.000000001
 43
0.0000000001
 40
0.0
 40
0.0
 40
0.0
 40
0.0
 40
1.414213562373095
 40
2.82842712474619
 40
2.82842712474619
 40
2.82842712474619
 40
2.82842712474619
 10
3862.872790948241
 20
3935.891146461698
 30
0.0
 10
3869.943858760106
 20
3935.891146461698
 30
0.0
 10
3885.801723136373
 20
3950.891146461696
 30
0.0
 10
3869.943858760104
 20
3965.891146461699
 30
0.0
 10
3862.872790948241
 20
3965.891146461699
 30
0.0
1001
REVIT
1002
{
1070
     1
1000
219973
1002
}
1002
{
1070
     2
1000
-2000051
1002
}
1002
{
1070
     3
1000
-2000077
1002
}
  0
SPLINE
  5
EF
330
70
100
AcDbEntity
  8
A-DETL
100
AcDbSpline
210
0.0
220
0.0
230
1.0
 70
     8
 71
     3
 72
     8
 73
     4
 74
     0
 42
0.000000001
 43
0.0000000001
 40
0.0
 40
0.0
 40
0.0
 40
0.0
 40
4.12310562561766
 40
4.12310562561766
 40
4.12310562561766
 40
4.12310562561766
 10
3802.87279094824
 20
3950.891146461698
 30
0.0
 10
3823.488319076329
 20
3950.891146461698
 30
0.0
 10
3842.257262820152
 20
3935.891146461699
 30
0.0
 10
3862.872790948241
 20
3935.891146461698
 30
0.0
1001
REVIT
1002
{
1070
     1
1000
219973
1002
}
1002
{
1070
     2
1000
-2000051
1002
}
1002
{
1070
     3
1000
-2000077
1002
}
  0
SPLINE
  5
F0
330
70
100
AcDbEntity
  8
A-DETL
100
AcDbSpline
210
0.0
220
0.0
230
1.0
 70
     8
 71
     3
 72
     9
 73
     5
 74
     0
 42
0.000000001
 43
0.0000000001
 40
0.0
 40
0.0
 40
0.0
 40
0.0
 40
1.414213562373095
 40
2.82842712474619
 40
2.82842712474619
 40
2.82842712474619
 40
2.82842712474619
 10
3802.87279094824
 20
3920.891146461698
 30
0.0
 10
3795.801723136374
 20
3920.891146461698
 30
0.0
 10
3779.943858760107
 20
3935.891146461698
 30
0.0
 10
3795.801723136376
 20
3950.891146461698
 30
0.0
 10
3802.87279094824
 20
3950.891146461699
 30
0.0
1001
REVIT
1002
{
1070
     1
1000
219973
1002
}
1002
{
1070
     2
1000
-2000051
1002
}
1002
{
1070
     3
1000
-2000077
1002
}
  0
SPLINE
  5
F1
330
70
100
AcDbEntity
  8
A-DETL
100
AcDbSpline
210
0.0
220
0.0
230
1.0
 70
     8
 71
     3
 72
     8
 73
     4
 74
     0
 42
0.000000001
 43
0.0000000001
 40
0.0
 40
0.0
 40
0.0
 40
0.0
 40
4.12310562561766
 40
4.12310562561766
 40
4.12310562561766
 40
4.12310562561766
 10
3862.872790948241
 20
3935.891146461698
 30
0.0
 10
3842.257262820152
 20
3935.891146461698
 30
0.0
 10
3823.488319076329
 20
3920.891146461698
 30
0.0
 10
3802.872790948239
 20
3920.891146461698
 30
0.0
1001
REVIT
1002
{
1070
     1
1000
219973
1002
}
1002
{
1070
     2
1000
-2000051
1002
}
1002
{
1070
     3
1000
-2000077
1002
}
  0
SPLINE
  5
F2
330
70
100
AcDbEntity
  8
A-DETL
100
AcDbSpline
210
0.0
220
0.0
230
1.0
 70
     8
 71
     3
 72
     9
 73
     5
 74
     0
 42
0.000000001
 43
0.0000000001
 40
0.0
 40
0.0
 40
0.0
 40
0.0
 40
1.414213562373095
 40
2.82842712474619
 40
2.82842712474619
 40
2.82842712474619
 40
2.82842712474619
 10
3862.872790948241
 20
3905.891146461698
 30
0.0
 10
3869.943858760106
 20
3905.891146461698
 30
0.0
 10
3885.801723136373
 20
3920.891146461699
 30
0.0
 10
3869.943858760104
 20
3935.891146461699
 30
0.0
 10
3862.872790948241
 20
3935.891146461698
 30
0.0
1001
REVIT
1002
{
1070
     1
1000
219973
1002
}
1002
{
1070
     2
1000
-2000051
1002
}
1002
{
1070
     3
1000
-2000077
1002
}
  0
SPLINE
  5
F3
330
70
100
AcDbEntity
  8
A-DETL
100
AcDbSpline
210
0.0
220
0.0
230
1.0
 70
     8
 71
     3
 72
     8
 73
     4
 74
     0
 42
0.000000001
 43
0.0000000001
 40
0.0
 40
0.0
 40
0.0
 40
0.0
 40
4.12310562561766
 40
4.12310562561766
 40
4.12310562561766
 40
4.12310562561766
 10
3802.87279094824
 20
3920.891146461698
 30
0.0
 10
3823.488319076329
 20
3920.891146461698
 30
0.0
 10
3842.257262820152
 20
3905.891146461698
 30
0.0
 10
3862.872790948241
 20
3905.891146461698
 30
0.0
1001
REVIT
1002
{
1070
     1
1000
219973
1002
}
1002
{
1070
     2
1000
-2000051
1002
}
1002
{
1070
     3
1000
-2000077
1002
}
  0
SPLINE
  5
F4
330
70
100
AcDbEntity
  8
A-DETL
100
AcDbSpline
210
0.0
220
0.0
230
1.0
 70
     8
 71
     3
 72
     9
 73
     5
 74
     0
 42
0.000000001
 43
0.0000000001
 40
0.0
 40
0.0
 40
0.0
 40
0.0
 40
1.414213562373095
 40
2.82842712474619
 40
2.82842712474619
 40
2.82842712474619
 40
2.82842712474619
 10
3802.87279094824
 20
3890.891146461699
 30
0.0
 10
3795.801723136374
 20
3890.891146461699
 30
0.0
 10
3779.943858760107
 20
3905.891146461697
 30
0.0
 10
3795.801723136376
 20
3920.891146461698
 30
0.0
 10
3802.87279094824
 20
3920.891146461699
 30
0.0
1001
REVIT
1002
{
1070
     1
1000
219973
1002
}
1002
{
1070
     2
1000
-2000051
1002
}
1002
{
1070
     3
1000
-2000077
1002
}
  0
SPLINE
  5
F5
330
70
100
AcDbEntity
  8
A-DETL
100
AcDbSpline
210
0.0
220
0.0
230
1.0
 70
     8
 71
     3
 72
     8
 73
     4
 74
     0
 42
0.000000001
 43
0.0000000001
 40
0.0
 40
0.0
 40
0.0
 40
0.0
 40
4.12310562561766
 40
4.12310562561766
 40
4.12310562561766
 40
4.12310562561766
 10
3862.872790948241
 20
3905.891146461698
 30
0.0
 10
3842.257262820152
 20
3905.891146461698
 30
0.0
 10
3823.488319076329
 20
3890.891146461699
 30
0.0
 10
3802.872790948239
 20
3890.891146461699
 30
0.0
1001
REVIT
1002
{
1070
     1
1000
219973
1002
}
1002
{
1070
     2
1000
-2000051
1002
}
1002
{
1070
     3
1000
-2000077
1002
}
  0
SPLINE
  5
F6
330
70
100
AcDbEntity
  8
A-DETL
100
AcDbSpline
210
0.0
220
0.0
230
1.0
 70
     8
 71
     3
 72
     9
 73
     5
 74
     0
 42
0.000000001
 43
0.0000000001
 40
0.0
 40
0.0
 40
0.0
 40
0.0
 40
1.414213562373095
 40
2.82842712474619
 40
2.82842712474619
 40
2.82842712474619
 40
2.82842712474619
 10
3862.872790948241
 20
3875.891146461698
 30
0.0
 10
3869.943858760106
 20
3875.891146461698
 30
0.0
 10
3885.801723136373
 20
3890.891146461699
 30
0.0
 10
3869.943858760104
 20
3905.891146461699
 30
0.0
 10
3862.872790948241
 20
3905.891146461698
 30
0.0
1001
REVIT
1002
{
1070
     1
1000
219973
1002
}
1002
{
1070
     2
1000
-2000051
1002
}
1002
{
1070
     3
1000
-2000077
1002
}
  0
SPLINE
  5
F7
330
70
100
AcDbEntity
  8
A-DETL
100
AcDbSpline
210
0.0
220
0.0
230
1.0
 70
     8
 71
     3
 72
     8
 73
     4
 74
     0
 42
0.000000001
 43
0.0000000001
 40
0.0
 40
0.0
 40
0.0
 40
0.0
 40
4.12310562561766
 40
4.12310562561766
 40
4.12310562561766
 40
4.12310562561766
 10
3802.87279094824
 20
3890.891146461699
 30
0.0
 10
3823.488319076329
 20
3890.891146461699
 30
0.0
 10
3842.257262820152
 20
3875.891146461698
 30
0.0
 10
3862.872790948241
 20
3875.891146461698
 30
0.0
1001
REVIT
1002
{
1070
     1
1000
219973
1002
}
1002
{
1070
     2
1000
-2000051
1002
}
1002
{
1070
     3
1000
-2000077
1002
}
  0
SPLINE
  5
F8
330
70
100
AcDbEntity
  8
A-DETL
100
AcDbSpline
210
0.0
220
0.0
230
1.0
 70
     8
 71
     3
 72
     9
 73
     5
 74
     0
 42
0.000000001
 43
0.0000000001
 40
0.0
 40
0.0
 40
0.0
 40
0.0
 40
1.414213562373095
 40
2.82842712474619
 40
2.82842712474619
 40
2.82842712474619
 40
2.82842712474619
 10
3802.87279094824
 20
3860.891146461698
 30
0.0
 10
3795.801723136374
 20
3860.891146461698
 30
0.0
 10
3779.943858760107
 20
3875.891146461698
 30
0.0
 10
3795.801723136376
 20
3890.891146461699
 30
0.0
 10
3802.87279094824
 20
3890.891146461699
 30
0.0
1001
REVIT
1002
{
1070
     1
1000
219973
1002
}
1002
{
1070
     2
1000
-2000051
1002
}
1002
{
1070
     3
1000
-2000077
1002
}
  0
SPLINE
  5
F9
330
70
100
AcDbEntity
  8
A-DETL
100
AcDbSpline
210
0.0
220
0.0
230
1.0
 70
     8
 71
     3
 72
     8
 73
     4
 74
     0
 42
0.000000001
 43
0.0000000001
 40
0.0
 40
0.0
 40
0.0
 40
0.0
 40
4.12310562561766
 40
4.12310562561766
 40
4.12310562561766
 40
4.12310562561766
 10
3862.872790948241
 20
3875.891146461698
 30
0.0
 10
3842.257262820152
 20
3875.891146461698
 30
0.0
 10
3823.488319076329
 20
3860.891146461698
 30
0.0
 10
3802.872790948239
 20
3860.891146461699
 30
0.0
1001
REVIT
1002
{
1070
     1
1000
219973
1002
}
1002
{
1070
     2
1000
-2000051
1002
}
1002
{
1070
     3
1000
-2000077
1002
}
  0
SPLINE
  5
FA
330
70
100
AcDbEntity
  8
A-DETL
100
AcDbSpline
210
0.0
220
0.0
230
1.0
 70
     8
 71
     3
 72
     9
 73
     5
 74
     0
 42
0.000000001
 43
0.0000000001
 40
0.0
 40
0.0
 40
0.0
 40
0.0
 40
1.414213562373095
 40
2.82842712474619
 40
2.82842712474619
 40
2.82842712474619
 40
2.82842712474619
 10
3862.872790948241
 20
3845.891146461698
 30
0.0
 10
3869.943858760106
 20
3845.891146461698
 30
0.0
 10
3885.801723136373
 20
3860.891146461696
 30
0.0
 10
3869.943858760104
 20
3875.891146461698
 30
0.0
 10
3862.872790948241
 20
3875.891146461698
 30
0.0
1001
REVIT
1002
{
1070
     1
1000
219973
1002
}
1002
{
1070
     2
1000
-2000051
1002
}
1002
{
1070
     3
1000
-2000077
1002
}
  0
SPLINE
  5
FB
330
70
100
AcDbEntity
  8
A-DETL
100
AcDbSpline
210
0.0
220
0.0
230
1.0
 70
     8
 71
     3
 72
     8
 73
     4
 74
     0
 42
0.000000001
 43
0.0000000001
 40
0.0
 40
0.0
 40
0.0
 40
0.0
 40
4.12310562561766
 40
4.12310562561766
 40
4.12310562561766
 40
4.12310562561766
 10
3802.87279094824
 20
3860.891146461698
 30
0.0
 10
3823.488319076329
 20
3860.891146461698
 30
0.0
 10
3842.257262820152
 20
3845.891146461699
 30
0.0
 10
3862.872790948241
 20
3845.891146461698
 30
0.0
1001
REVIT
1002
{
1070
     1
1000
219973
1002
}
1002
{
1070
     2
1000
-2000051
1002
}
1002
{
1070
     3
1000
-2000077
1002
}
  0
SPLINE
  5
FC
330
70
100
AcDbEntity
  8
A-DETL
100
AcDbSpline
210
0.0
220
0.0
230
1.0
 70
     8
 71
     3
 72
     8
 73
     4
 74
     0
 42
0.000000001
 43
0.0000000001
 40
0.0
 40
0.0
 40
0.0
 40
0.0
 40
1.414213562373095
 40
1.414213562373095
 40
1.414213562373095
 40
1.414213562373095
 10
3787.87279094824
 20
3845.891146461698
 30
0.0
 10
3787.87279094824
 20
3852.962214273564
 30
0.0
 10
3795.801723136374
 20
3860.891146461698
 30
0.0
 10
3802.87279094824
 20
3860.891146461698
 30
0.0
1001
REVIT
1002
{
1070
     1
1000
219973
1002
}
1002
{
1070
     2
1000
-2000051
1002
}
1002
{
1070
     3
1000
-2000077
1002
}
  0
INSERT
  5
105
330
70
100
AcDbEntity
  8
A-DETL-GENF
100
AcDbBlockReference
  2
4594_Packer - Timber Packer H3_2-114178-W-TRSIL-03-V-G - Garage Door Head Flashing Detail _Vertical_
 10
4044.653284984054
 20
3599.296208484072
 30
0.0
 50
180.0
1001
REVIT
1002
{
1070
     1
1000
219943
1002
}
1002
{
1070
     5
1000
59780
1002
}
1002
{
1070
     2
1000
-2002000
1002
}
  0
INSERT
  5
10E
330
70
100
AcDbEntity
  8
A-DETL-GENF
100
AcDbBlockReference
  2
4811_Air Seal w Foam - Airseal on PEF Backing Rod-114086-W-TRSIL-03-V-G - Garage Door Head Flashing Detail _Vertical_
 10
3798.354746505027
 20
3697.116935264382
 30
0.0
1001
REVIT
1002
{
1070
     1
1000
219946
1002
}
1002
{
1070
     5
1000
59784
1002
}
1002
{
1070
     2
1000
-2002000
1002
}
  0
INSERT
  5
147
330
70
100
AcDbEntity
  8
A-DETL-GENF
100
AcDbBlockReference
  2
4821_Cavity Closure - 4821_Cavity Closure-69544-W-TRSIL-03-V-G - Garage Door Head Flashing Detail _Vertical_
 10
3889.565987425437
 20
3755.025045949714
 30
0.0
 50
180.0
1001
REVIT
1002
{
1070
     1
1000
219951
1002
}
1002
{
1070
     5
1000
36099
1002
}
1002
{
1070
     2
1000
-2002000
1002
}
  0
INSERT
  5
14D
330
70
100
AcDbEntity
  8
A-DETL-GENF
100
AcDbBlockReference
  2
4161_Flashing Tape - 4161_Flashing Tape-35988-W-TRSIL-03-V-G - Garage Door Head Flashing Detail _Vertical_
 10
3887.305677633713
 20
3751.585627533162
 30
0.0
 50
90.00000000000127
1001
REVIT
1002
{
1070
     1
1000
219948
1002
}
1002
{
1070
     5
1000
35721
1002
}
1002
{
1070
     2
1000
-2002000
1002
}
  0
INSERT
  5
152
330
70
100
AcDbEntity
  8
A-DETL-GENF
100
AcDbBlockReference
  2
4161_Flashing Tape - 4161_Flashing Tape-35989-W-TRSIL-03-V-G - Garage Door Head Flashing Detail _Vertical_
 10
3887.305677633709
 20
3789.369031775859
 30
0.0
 50
114.9999999999999
1001
REVIT
1002
{
1070
     1
1000
219949
1002
}
1002
{
1070
     5
1000
35721
1002
}
1002
{
1070
     2
1000
-2002000
1002
}
  0
INSERT
  5
157
330
70
100
AcDbEntity
  8
A-DETL-GENF
100
AcDbBlockReference
  2
4161_Flashing Tape - 4161_Flashing Tape-35990-W-TRSIL-03-V-G - Garage Door Head Flashing Detail _Vertical_
 10
3882.528903707596
 20
3799.612856518121
 30
0.0
 50
90.00000000000127
1001
REVIT
1002
{
1070
     1
1000
219950
1002
}
1002
{
1070
     5
1000
35721
1002
}
1002
{
1070
     2
1000
-2002000
1002
}
  0
LINE
  5
159
330
70
100
AcDbEntity
  8
A-DETL-THIN
100
AcDbLine
 10
3877.87279094825
 20
3845.891146461698
 30
0.0
 11
3877.872790948248
 21
4050.9858500187
 31
0.0
1001
REVIT
1002
{
1070
     1
1000
219961
1002
}
1002
{
1070
     2
1000
-2000051
1002
}
1002
{
1070
     3
1000
-2000042
1002
}
  0
INSERT
  5
161
330
70
100
AcDbEntity
  8
A-DETL-GENF
100
AcDbBlockReference
  2
FP Timber Nog Packer1 - Variable-69545-W-TRSIL-03-V-G - Garage Door Head Flashing Detail _Vertical_
 10
3807.872790948244
 20
3705.891146461699
 30
0.0
 50
90.00000000000119
1001
REVIT
1002
{
1070
     1
1000
219952
1002
}
1002
{
1070
     5
1000
44489
1002
}
1002
{
1070
     2
1000
-2002000
1002
}
  0
INSERT
  5
16B
330
70
100
AcDbEntity
  8
A-DETL-GENF
100
AcDbBlockReference
  2
FP Timber Nog Packer1 - Variable-V1-W-TRSIL-03-V-G - Garage Door Head Flashing Detail _Vertical_
 10
3852.872790948251
 20
3705.891146461699
 30
0.0
 50
90.00000000000119
1001
REVIT
1002
{
1070
     1
1000
219953
1002
}
1002
{
1070
     5
1000
44489
1002
}
1002
{
1070
     2
1000
-2002000
1002
}
  0
HATCH
  5
170
330
70
100
AcDbEntity
  8
A-DETL-GENF
100
AcDbHatch
 10
0.0
 20
0.0
 30
0.0
210
0.0
220
0.0
230
1.0
  2
FP_2
 70
     0
 71
     0
 91
        1
 92
        0
 93
        4
 72
     1
 10
3909.083161647735
 20
3815.464816630772
 11
3909.083161647735
 21
4050.985850018704
 72
     1
 10
3909.083161647735
 20
4050.985850018704
 11
3891.083161647736
 21
4050.985850018704
 72
     1
 10
3891.083161647736
 20
4050.985850018704
 11
3891.083161647736
 21
3815.464816630772
 72
     1
 10
3891.083161647736
 20
3815.464816630772
 11
3909.083161647735
 21
3815.464816630772
 97
        0
 75
     0
 76
     2
 52
0.0
 41
1.0
 77
     0
 78
     2
 53
0.0
 43
0.0
 44
0.0
 45
0.0
 46
11.0
 79
     0
 53
90.0
 43
0.0
 44
0.0
 45
-11.0
 46
0.0000000000000007
 79
     0
 98
        1
 10
0.0
 20
0.0
1001
REVIT
1002
{
1070
     1
1000
219977
1002
}
1002
{
1070
     5
1000
14996
1002
}
1002
{
1070
     2
1000
-2002000
1002
}
  0
LINE
  5
171
330
70
100
AcDbEntity
  8
A-DETL-THIN
100
AcDbLine
 10
3909.083161647732
 20
3815.464816630768
 30
0.0
 11
3909.083161647732
 21
4050.9858500187
 31
0.0
1001
REVIT
1002
{
1070
     1
1000
219977
1002
}
1002
{
1070
     5
1000
14996
1002
}
1002
{
1070
     2
1000
-2000051
1002
}
1002
{
1070
     3
1000
-2000042
1002
}
  0
LINE
  5
172
330
70
100
AcDbEntity
  8
A-DETL-THIN
100
AcDbLine
 10
3891.083161647733
 20
4050.9858500187
 30
0.0
 11
3891.083161647733
 21
3815.464816630768
 31
0.0
1001
REVIT
1002
{
1070
     1
1000
219977
1002
}
1002
{
1070
     5
1000
14996
1002
}
1002
{
1070
     2
1000
-2000051
1002
}
1002
{
1070
     3
1000
-2000042
1002
}
  0
LINE
  5
173
330
70
100
AcDbEntity
  8
A-DETL-THIN
100
AcDbLine
 10
3891.083161647733
 20
3815.464816630768
 30
0.0
 11
3909.083161647732
 21
3815.464816630768
 31
0.0
1001
REVIT
1002
{
1070
     1
1000
219977
1002
}
1002
{
1070
     5
1000
14996
1002
}
1002
{
1070
     2
1000
-2000051
1002
}
1002
{
1070
     3
1000
-2000042
1002
}
  0
LINE
  5
174
330
70
100
AcDbEntity
  8
A-DETL-THIN
100
AcDbLine
 10
3949.412455798504
 20
3687.957016278622
 30
0.0
 11
3949.412455798504
 21
3682.957016278622
 31
0.0
1001
REVIT
1002
{
1070
     1
1000
220006
1002
}
1002
{
1070
     5
1000
17867
1002
}
1002
{
1070
     2
1000
-2000051
1002
}
1002
{
1070
     3
1000
-2000042
1002
}
  0
LINE
  5
175
330
70
100
AcDbEntity
  8
A-DETL-THIN
100
AcDbLine
 10
3949.412455798504
 20
3682.957016278622
 30
0.0
 11
3954.001093085854
 21
3682.957016278622
 31
0.0
1001
REVIT
1002
{
1070
     1
1000
220006
1002
}
1002
{
1070
     5
1000
17867
1002
}
1002
{
1070
     2
1000
-2000051
1002
}
1002
{
1070
     3
1000
-2000042
1002
}
  0
LINE
  5
176
330
70
100
AcDbEntity
  8
A-DETL-THIN
100
AcDbLine
 10
3954.001093085854
 20
3682.957016278622
 30
0.0
 11
3954.001093085854
 21
3687.957016278622
 31
0.0
1001
REVIT
1002
{
1070
     1
1000
220006
1002
}
1002
{
1070
     5
1000
17867
1002
}
1002
{
1070
     2
1000
-2000051
1002
}
1002
{
1070
     3
1000
-2000042
1002
}
  0
LINE
  5
177
330
70
100
AcDbEntity
  8
A-DETL-THIN
100
AcDbLine
 10
3954.001093085854
 20
3687.957016278622
 30
0.0
 11
3949.412455798504
 21
3687.957016278622
 31
0.0
1001
REVIT
1002
{
1070
     1
1000
220006
1002
}
1002
{
1070
     5
1000
17867
1002
}
1002
{
1070
     2
1000
-2000051
1002
}
1002
{
1070
     3
1000
-2000042
1002
}
  0
HATCH
  5
17C
330
70
100
AcDbEntity
  8
A-DETL-GENF
100
AcDbHatch
 10
0.0
 20
0.0
 30
0.0
210
0.0
220
0.0
230
1.0
  2
FP_3
 70
     0
 71
     0
 91
        1
 92
        0
 93
        4
 72
     1
 10
3787.872790948244
 20
3681.846211186191
 11
3787.872790948242
 21
4050.985850018704
 72
     1
 10
3787.872790948242
 20
4050.985850018704
 11
3774.872790948244
 21
4050.985850018704
 72
     1
 10
3774.872790948244
 20
4050.985850018704
 11
3774.872790948245
 21
3681.846211186191
 72
     1
 10
3774.872790948245
 20
3681.846211186191
 11
3787.872790948244
 21
3681.846211186191
 97
        0
 75
     0
 76
     2
 52
0.0
 41
1.0
 77
     0
 78
     9
 53
0.0
 43
0.0
 44
0.0
 45
20.32
 46
5.08
 79
     5
 49
1.675999999999999
 49
-13.564
 49
1.675999999999999
 49
-13.564
 49
-81.28
 53
0.0
 43
0.0
 44
0.0
 45
20.32
 46
5.08
 79
     6
 49
-30.48
 49
1.675999999999999
 49
-28.804
 49
1.675999999999999
 49
-13.564
 49
-35.56
 53
0.0
 43
0.0
 44
0.0
 45
20.32
 46
5.08
 79
     5
 49
-76.2
 49
1.675999999999999
 49
-8.483999999999999
 49
1.675999999999999
 49
-23.724
 53
120.0
 43
7.62
 44
2.54
 45
-14.55940905122494
 46
15.0576362048998
 79
     5
 49
1.675999999999999
 49
-13.564
 49
1.675999999999999
 49
-13.564
 49
-81.27999999999998
 53
120.0
 43
7.62
 44
2.54
 45
-14.55940905122494
 46
15.0576362048998
 79
     6
 49
-30.48
 49
1.675999999999999
 49
-28.804
 49
1.675999999999999
 49
-13.564
 49
-35.56
 53
120.0
 43
7.62
 44
2.54
 45
-14.55940905122494
 46
15.0576362048998
 79
     5
 49
-76.19999999999999
 49
1.675999999999999
 49
-8.483999999999998
 49
1.675999999999999
 49
-23.724
 53
240.0
 43
10.16
 44
12.7
 45
-5.760590948775045
 46
-20.1376362048998
 79
     5
 49
1.675999999999999
 49
-13.564
 49
1.675999999999999
 49
-13.564
 49
-81.28
 53
240.0
 43
10.16
 44
12.7
 45
-5.760590948775045
 46
-20.1376362048998
 79
     6
 49
-30.48
 49
1.675999999999999
 49
-28.804
 49
1.675999999999999
 49
-13.564
 49
-35.56
 53
240.0
 43
10.16
 44
12.7
 45
-5.760590948775045
 46
-20.1376362048998
 79
     5
 49
-76.2
 49
1.675999999999999
 49
-8.483999999999999
 49
1.675999999999999
 49
-23.724
 98
        1
 10
0.0
 20
0.0
1001
REVIT
1002
{
1070
     1
1000
219990
1002
}
1002
{
1070
     5
1000
17941
1002
}
1002
{
1070
     2
1000
-2002000
1002
}
  0
LINE
  5
17D
330
70
100
AcDbEntity
  8
A-DETL
100
AcDbLine
 10
3774.872790948241
 20
4050.9858500187
 30
0.0
 11
3774.872790948242
 21
3681.846211186189
 31
0.0
1001
REVIT
1002
{
1070
     1
1000
219990
1002
}
1002
{
1070
     5
1000
17941
1002
}
1002
{
1070
     2
1000
-2000051
1002
}
1002
{
1070
     3
1000
16210
1002
}
  0
LINE
  5
17E
330
70
100
AcDbEntity
  8
A-DETL
100
AcDbLine
 10
3774.872790948242
 20
3681.846211186189
 30
0.0
 11
3787.87279094824
 21
3681.846211186189
 31
0.0
1001
REVIT
1002
{
1070
     1
1000
219990
1002
}
1002
{
1070
     5
1000
17941
1002
}
1002
{
1070
     2
1000
-2000051
1002
}
1002
{
1070
     3
1000
16210
1002
}
  0
LINE
  5
17F
330
70
100
AcDbEntity
  8
A-DETL
100
AcDbLine
 10
3787.87279094824
 20
3681.846211186189
 30
0.0
 11
3787.872790948239
 21
4050.9858500187
 31
0.0
1001
REVIT
1002
{
1070
     1
1000
219990
1002
}
1002
{
1070
     5
1000
17941
1002
}
1002
{
1070
     2
1000
-2000051
1002
}
1002
{
1070
     3
1000
16210
1002
}
  0
INSERT
  5
185
330
70
100
AcDbEntity
  8
A-DETL-GENF
100
AcDbBlockReference
  2
HP_WProof - Building Wrap - HP_WProof - Building Wrap-69547-W-TRSIL-03-V-G - Garage Door Head Flashing Detail _Vertical_
 10
3880.226417541487
 20
3703.509950330187
 30
0.0
 50
180.0
1001
REVIT
1002
{
1070
     1
1000
220013
1002
}
1002
{
1070
     5
1000
59792
1002
}
1002
{
1070
     2
1000
-2002000
1002
}
  0
LINE
  5
187
330
70
100
AcDbEntity
  8
A-DETL-MEDM
100
AcDbLine
 10
3882.705433898394
 20
3787.60857500721
 30
0.0
 11
3882.705433898394
 21
3741.883621571297
 31
0.0
1001
REVIT
1002
{
1070
     1
1000
219995
1002
}
1002
{
1070
     2
1000
-2000051
1002
}
1002
{
1070
     3
1000
-2000043
1002
}
  0
LINE
  5
188
330
70
100
AcDbEntity
  8
A-DETL-MEDM
100
AcDbLine
 10
3882.705433898394
 20
3741.883621571297
 30
0.0
 11
3960.626847103742
 21
3721.004641829833
 31
0.0
1001
REVIT
1002
{
1070
     1
1000
219996
1002
}
1002
{
1070
     2
1000
-2000051
1002
}
1002
{
1070
     3
1000
-2000043
1002
}
  0
LINE
  5
189
330
70
100
AcDbEntity
  8
A-DETL-MEDM
100
AcDbLine
 10
3960.626847103742
 20
3721.004641829833
 30
0.0
 11
3960.626847103742
 21
3688.454024032935
 31
0.0
1001
REVIT
1002
{
1070
     1
1000
219997
1002
}
1002
{
1070
     2
1000
-2000051
1002
}
1002
{
1070
     3
1000
-2000043
1002
}
  0
LINE
  5
18A
330
70
100
AcDbEntity
  8
A-DETL-MEDM
100
AcDbLine
 10
3960.626847103742
 20
3688.454024032935
 30
0.0
 11
3954.001093085854
 21
3688.454024032935
 31
0.0
1001
REVIT
1002
{
1070
     1
1000
219998
1002
}
1002
{
1070
     2
1000
-2000051
1002
}
1002
{
1070
     3
1000
-2000043
1002
}
  0
LINE
  5
18B
330
70
100
AcDbEntity
  8
A-DETL-MEDM
100
AcDbLine
 10
3954.001093085854
 20
3688.454024032935
 30
0.0
 11
3954.001093085854
 21
3678.454024032936
 31
0.0
1001
REVIT
1002
{
1070
     1
1000
219999
1002
}
1002
{
1070
     2
1000
-2000051
1002
}
1002
{
1070
     3
1000
-2000043
1002
}
  0
LINE
  5
18C
330
70
100
AcDbEntity
  8
A-DETL-MEDM
100
AcDbLine
 10
3884.686949554124
 20
3787.60857500721
 30
0.0
 11
3884.686949554124
 21
3773.446631951715
 31
0.0
1001
REVIT
1002
{
1070
     1
1000
220000
1002
}
1002
{
1070
     2
1000
-2000051
1002
}
1002
{
1070
     3
1000
-2000043
1002
}
  0
ARC
  5
18D
330
70
100
AcDbEntity
  8
A-DETL-MEDM
100
AcDbCircle
 10
3883.696191726259
 20
3787.60857500721
 30
0.0
 40
0.990757827865309
100
AcDbArc
 50
0.0
 51
180.0
1001
REVIT
1002
{
1070
     1
1000
220001
1002
}
1002
{
1070
     2
1000
-2000051
1002
}
1002
{
1070
     3
1000
-2000043
1002
}
  0
LINE
  5
18E
330
70
100
AcDbEntity
  8
A-DETL-MEDM
100
AcDbLine
 10
3954.001093085854
 20
3678.454024032936
 30
0.0
 11
3956.604131924336
 21
3675.850985194454
 31
0.0
1001
REVIT
1002
{
1070
     1
1000
220011
1002
}
1002
{
1070
     2
1000
-2000051
1002
}
1002
{
1070
     3
1000
-2000043
1002
}
  0
INSERT
  5
193
330
70
100
AcDbEntity
  8
A-DETL-GENF
100
AcDbBlockReference
  2
HP_WProof - Building Wrap - HP_WProof - Building Wrap-222206-W-TRSIL-03-V-G - Garage Door Head Flashing Detail _Vertical_
 10
3880.226417541487
 20
3703.509950330187
 30
0.0
 50
270.0
1001
REVIT
1002
{
1070
     1
1000
220014
1002
}
1002
{
1070
     5
1000
59792
1002
}
1002
{
1070
     2
1000
-2002000
1002
}
  0
LINE
  5
194
330
70
100
AcDbEntity
  8
A-DETL-THIN
100
AcDbLine
 10
3929.296798935095
 20
3729.399502935449
 30
0.0
 11
3929.296798935095
 21
3734.399502935449
 31
0.0
1001
REVIT
1002
{
1070
     1
1000
220016
1002
}
1002
{
1070
     2
1000
-2000051
1002
}
1002
{
1070
     3
1000
-2000042
1002
}
  0
LINE
  5
195
330
70
100
AcDbEntity
  8
A-DETL-THIN
100
AcDbLine
 10
3929.296798935095
 20
3734.399502935449
 30
0.0
 11
3919.854625031058
 21
3738.603429609199
 31
0.0
1001
REVIT
1002
{
1070
     1
1000
220017
1002
}
1002
{
1070
     2
1000
-2000051
1002
}
1002
{
1070
     3
1000
-2000042
1002
}
  0
LINE
  5
196
330
70
100
AcDbEntity
  8
A-DETL-THIN
100
AcDbLine
 10
3914.265793485305
 20
3741.091737730725
 30
0.0
 11
3882.705433898394
 21
3755.14331513747
 31
0.0
1001
REVIT
1002
{
1070
     1
1000
220017
1002
}
1002
{
1070
     2
1000
-2000051
1002
}
1002
{
1070
     3
1000
-2000042
1002
}
  0
LINE
  5
197
330
70
100
AcDbEntity
  8
A-DETL-THIN
100
AcDbLine
 10
3914.265793485306
 20
3738.603429609199
 30
0.0
 11
3938.865793485306
 21
3738.603429609199
 31
0.0
1001
REVIT
1002
{
1070
     1
1000
219984
1002
}
1002
{
1070
     5
1000
17873
1002
}
1002
{
1070
     2
1000
-2000051
1002
}
1002
{
1070
     3
1000
-2000042
1002
}
  0
LINE
  5
198
330
70
100
AcDbEntity
  8
A-DETL-THIN
100
AcDbLine
 10
3938.865793485306
 20
3738.603429609199
 30
0.0
 11
3938.865793485306
 21
4050.9858500187
 31
0.0
1001
REVIT
1002
{
1070
     1
1000
219984
1002
}
1002
{
1070
     5
1000
17873
1002
}
1002
{
1070
     2
1000
-2000051
1002
}
1002
{
1070
     3
1000
-2000042
1002
}
  0
LINE
  5
199
330
70
100
AcDbEntity
  8
A-DETL-THIN
100
AcDbLine
 10
3914.265793485306
 20
4050.9858500187
 30
0.0
 11
3914.265793485306
 21
3738.603429609199
 31
0.0
1001
REVIT
1002
{
1070
     1
1000
219984
1002
}
1002
{
1070
     5
1000
17873
1002
}
1002
{
1070
     2
1000
-2000051
1002
}
1002
{
1070
     3
1000
-2000042
1002
}
  0
INSERT
  5
1A2
330
70
100
AcDbEntity
  8
A-DETL-GENF
100
AcDbBlockReference
  2
FP - Break Line - FP - Break Line-100289-W-TRSIL-03-V-G - Garage Door Head Flashing Detail _Vertical_
 10
3855.760230067448
 20
4050.985850018696
 30
0.0
1001
REVIT
1002
{
1070
     1
1000
219974
1002
}
1002
{
1070
     5
1000
59790
1002
}
1002
{
1070
     2
1000
-2002000
1002
}
  0
INSERT
  5
1AB
330
70
100
AcDbEntity
  8
A-DETL-GENF
100
AcDbBlockReference
  2
CAVIBAT Batten Profile - Non Cavibat-98797-W-TRSIL-03-V-G - Garage Door Head Flashing Detail _Vertical_
 10
3891.083161647734
 20
3815.464816630768
 30
0.0
1001
REVIT
1002
{
1070
     1
1000
220018
1002
}
1002
{
1070
     5
1000
98797
1002
}
1002
{
1070
     2
1000
-2002000
1002
}
  0
LINE
  5
1AC
330
70
100
AcDbEntity
  8
A-DETL-THIN
100
AcDbLine
 10
3800.642243755183
 20
3441.200495228239
 30
0.0
 11
3800.642243755183
 21
3665.401526426525
 31
0.0
1001
REVIT
1002
{
1070
     1
1000
220653
1002
}
1002
{
1070
     5
1000
17867
1002
}
1002
{
1070
     2
1000
-2000051
1002
}
1002
{
1070
     3
1000
-2000042
1002
}
  0
LINE
  5
1AD
330
70
100
AcDbEntity
  8
A-DETL-THIN
100
AcDbLine
 10
3800.642243755183
 20
3665.401526426525
 30
0.0
 11
3775.642243755184
 21
3665.401526426525
 31
0.0
1001
REVIT
1002
{
1070
     1
1000
220653
1002
}
1002
{
1070
     5
1000
17867
1002
}
1002
{
1070
     2
1000
-2000051
1002
}
1002
{
1070
     3
1000
-2000042
1002
}
  0
LINE
  5
1AE
330
70
100
AcDbEntity
  8
A-DETL-THIN
100
AcDbLine
 10
3775.642243755183
 20
3665.401526426525
 30
0.0
 11
3775.642243755182
 21
3441.200495228238
 31
0.0
1001
REVIT
1002
{
1070
     1
1000
220653
1002
}
1002
{
1070
     5
1000
17867
1002
}
1002
{
1070
     2
1000
-2000051
1002
}
1002
{
1070
     3
1000
-2000042
1002
}
  0
LINE
  5
1AF
330
70
100
AcDbEntity
  8
A-DETL
100
AcDbLine
 10
3775.642243755183
 20
3665.401526426525
 30
0.0
 11
3524.274871637738
 21
3665.401526426526
 31
0.0
1001
REVIT
1002
{
1070
     1
1000
220944
1002
}
1002
{
1070
     2
1000
-2000051
1002
}
1002
{
1070
     3
1000
221009
1002
}
  0
LINE
  5
1B0
330
70
100
AcDbEntity
  8
A-DETL
100
AcDbLine
 10
3775.642243755183
 20
3640.401526426525
 30
0.0
 11
3525.71449950295
 21
3640.401526426525
 31
0.0
1001
REVIT
1002
{
1070
     1
1000
221699
1002
}
1002
{
1070
     2
1000
-2000051
1002
}
1002
{
1070
     3
1000
221009
1002
}
  0
LINE
  5
1B1
330
70
100
AcDbEntity
  8
A-DETL
100
AcDbLine
 10
3560.642243755183
 20
3640.401526426525
 30
0.0
 11
3555.642243755183
 21
3640.401526426525
 31
0.0
1001
REVIT
1002
{
1070
     1
1000
221165
1002
}
1002
{
1070
     2
1000
-2000051
1002
}
1002
{
1070
     3
1000
221009
1002
}
  0
ARC
  5
1B2
330
70
100
AcDbEntity
  8
A-DETL
100
AcDbCircle
 10
3560.642243755184
 20
3425.401526426526
 30
0.0
 40
214.9999999999995
100
AcDbArc
 50
4.215647386235842
 51
90.00000000000044
1001
REVIT
1002
{
1070
     1
1000
221643
1002
}
1002
{
1070
     2
1000
-2000051
1002
}
1002
{
1070
     3
1000
221009
1002
}
  0
ARC
  5
1B3
330
70
100
AcDbEntity
  8
A-DETL
100
AcDbCircle
 10
3560.642243755184
 20
3425.401526426526
 30
0.0
 40
239.9999999999995
100
AcDbArc
 50
3.776025964868449
 51
90.00000000000021
1001
REVIT
1002
{
1070
     1
1000
221672
1002
}
1002
{
1070
     2
1000
-2000051
1002
}
1002
{
1070
     3
1000
221009
1002
}
  0
INSERT
  5
1BC
330
70
100
AcDbEntity
  8
A-DETL-GENF
100
AcDbBlockReference
  2
FP - Break Line - FP - Break Line-222446-W-TRSIL-03-V-G - Garage Door Head Flashing Detail _Vertical_
 10
3853.62697356781
 20
3441.200495228244
 30
0.0
1001
REVIT
1002
{
1070
     1
1000
219947
1002
}
1002
{
1070
     5
1000
59790
1002
}
1002
{
1070
     2
1000
-2002000
1002
}
  0
INSERT
  5
1C5
330
70
100
AcDbEntity
  8
A-DETL-GENF
100
AcDbBlockReference
  2
FP - Break Line - FP - Break Line-221841-W-TRSIL-03-V-G - Garage Door Head Flashing Detail _Vertical_
 10
3525.714499502954
 20
3655.761433392829
 30
0.0
 50
270.0000000000008
1001
REVIT
1002
{
1070
     1
1000
221745
1002
}
1002
{
1070
     5
1000
59790
1002
}
1002
{
1070
     2
1000
-2002000
1002
}
  0
LINE
  5
1C7
330
70
100
AcDbEntity
  8
G-ANNO-TEXT
100
AcDbLine
 10
3630.043539851028
 20
3848.537350396791
 30
0.0
 11
3602.328284888018
 21
3848.537350396791
 31
0.0
1001
REVIT
1002
{
1070
     1
1000
219962
1002
}
1002
{
1070
     5
1000
16489
1002
}
1002
{
1070
     2
1000
-2000300
1002
}
  0
LINE
  5
1C8
330
70
100
AcDbEntity
  8
G-ANNO-TEXT
100
AcDbLine
 10
3779.334155377863
 20
3848.537350396791
 30
0.0
 11
3764.334155377863
 21
3850.512137860601
 31
0.0
1001
REVIT
1002
{
1070
     1
1000
219962
1002
}
1002
{
1070
     5
1000
16489
1002
}
1002
{
1070
     2
1000
-2000300
1002
}
  0
LINE
  5
1C9
330
70
100
AcDbEntity
  8
G-ANNO-TEXT
100
AcDbLine
 10
3764.334155377863
 20
3850.512137860601
 30
0.0
 11
3764.334155377863
 21
3846.562562932979
 31
0.0
1001
REVIT
1002
{
1070
     1
1000
219962
1002
}
1002
{
1070
     5
1000
16489
1002
}
1002
{
1070
     2
1000
-2000300
1002
}
  0
LINE
  5
1CA
330
70
100
AcDbEntity
  8
G-ANNO-TEXT
100
AcDbLine
 10
3764.334155377863
 20
3846.562562932979
 30
0.0
 11
3779.334155377863
 21
3848.537350396791
 31
0.0
1001
REVIT
1002
{
1070
     1
1000
219962
1002
}
1002
{
1070
     5
1000
16489
1002
}
1002
{
1070
     2
1000
-2000300
1002
}
  0
HATCH
  5
1CB
330
70
100
AcDbEntity
  8
G-ANNO-TEXT
100
AcDbHatch
 10
0.0
 20
0.0
 30
0.0
210
0.0
220
0.0
230
1.0
  2
SOLID
 70
     1
 71
     0
 91
        1
 92
        0
 93
        3
 72
     1
 10
3779.334155377863
 20
3848.537350396791
 11
3764.334155377863
 21
3850.512137860601
 72
     1
 10
3764.334155377863
 20
3850.512137860601
 11
3764.334155377863
 21
3846.562562932979
 72
     1
 10
3764.334155377863
 20
3846.562562932979
 11
3779.334155377863
 21
3848.537350396791
 97
        0
 75
     0
 76
     1
 98
        1
 10
0.0
 20
0.0
450
        0
451
        0
460
0.0
461
0.0
452
        0
462
0.0
453
        0
470

1001
REVIT
1002
{
1070
     1
1000
219962
1002
}
1002
{
1070
     5
1000
16489
1002
}
1002
{
1070
     2
1000
-2000300
1002
}
  0
LINE
  5
1CC
330
70
100
AcDbEntity
  8
G-ANNO-TEXT
100
AcDbLine
 10
3779.334155377863
 20
3848.537350396791
 30
0.0
 11
3630.043539851028
 21
3848.537350396791
 31
0.0
1001
REVIT
1002
{
1070
     1
1000
219962
1002
}
1002
{
1070
     5
1000
16489
1002
}
1002
{
1070
     2
1000
-2000300
1002
}
  0
MTEXT
  5
1CE
330
70
100
AcDbEntity
  8
G-ANNO-TEXT
100
AcDbMText
 10
3495.232191138018
 20
3854.78735039679
 30
0.0
 40
12.5
 41
123.740465625
 46
0.0
 71
     1
 72
     1
  1
Internal lining
  7
Century Gothic
 73
     2
 44
1.0
1001
REVIT
1002
{
1070
     1
1000
219962
1002
}
1002
{
1070
     5
1000
16489
1002
}
1002
{
1070
     2
1000
-2000300
1002
}
  0
LINE
  5
1CF
330
70
100
AcDbEntity
  8
G-ANNO-TEXT
100
AcDbLine
 10
3686.581677653997
 20
3737.442887417002
 30
0.0
 11
3686.565003638019
 21
3737.442887417002
 31
0.0
1001
REVIT
1002
{
1070
     1
1000
219963
1002
}
1002
{
1070
     5
1000
16489
1002
}
1002
{
1070
     2
1000
-2000300
1002
}
  0
LINE
  5
1D0
330
70
100
AcDbEntity
  8
G-ANNO-TEXT
100
AcDbLine
 10
3793.034959920804
 20
3698.520180369645
 30
0.0
 11
3781.106667107087
 21
3707.826931471801
 31
0.0
1001
REVIT
1002
{
1070
     1
1000
219963
1002
}
1002
{
1070
     5
1000
16489
1002
}
1002
{
1070
     2
1000
-2000300
1002
}
  0
LINE
  5
1D1
330
70
100
AcDbEntity
  8
G-ANNO-TEXT
100
AcDbLine
 10
3781.106667107087
 20
3707.826931471801
 30
0.0
 11
3779.10434939523
 21
3704.422542262312
 31
0.0
1001
REVIT
1002
{
1070
     1
1000
219963
1002
}
1002
{
1070
     5
1000
16489
1002
}
1002
{
1070
     2
1000
-2000300
1002
}
  0
LINE
  5
1D2
330
70
100
AcDbEntity
  8
G-ANNO-TEXT
100
AcDbLine
 10
3779.10434939523
 20
3704.422542262312
 30
0.0
 11
3793.034959920804
 21
3698.520180369645
 31
0.0
1001
REVIT
1002
{
1070
     1
1000
219963
1002
}
1002
{
1070
     5
1000
16489
1002
}
1002
{
1070
     2
1000
-2000300
1002
}
  0
HATCH
  5
1D3
330
70
100
AcDbEntity
  8
G-ANNO-TEXT
100
AcDbHatch
 10
0.0
 20
0.0
 30
0.0
210
0.0
220
0.0
230
1.0
  2
SOLID
 70
     1
 71
     0
 91
        1
 92
        0
 93
        3
 72
     1
 10
3793.034959920804
 20
3698.520180369645
 11
3781.106667107087
 21
3707.826931471801
 72
     1
 10
3781.106667107087
 20
3707.826931471801
 11
3779.10434939523
 21
3704.422542262312
 72
     1
 10
3779.10434939523
 20
3704.422542262312
 11
3793.034959920804
 21
3698.520180369645
 97
        0
 75
     0
 76
     1
 98
        1
 10
0.0
 20
0.0
450
        0
451
        0
460
0.0
461
0.0
452
        0
462
0.0
453
        0
470

1001
REVIT
1002
{
1070
     1
1000
219963
1002
}
1002
{
1070
     5
1000
16489
1002
}
1002
{
1070
     2
1000
-2000300
1002
}
  0
LINE
  5
1D4
330
70
100
AcDbEntity
  8
G-ANNO-TEXT
100
AcDbLine
 10
3726.85762797621
 20
3737.442887417002
 30
0.0
 11
3686.581677653997
 21
3737.442887417002
 31
0.0
1001
REVIT
1002
{
1070
     1
1000
219963
1002
}
1002
{
1070
     5
1000
16489
1002
}
1002
{
1070
     2
1000
-2000300
1002
}
  0
LINE
  5
1D5
330
70
100
AcDbEntity
  8
G-ANNO-TEXT
100
AcDbLine
 10
3793.034959920804
 20
3698.520180369645
 30
0.0
 11
3726.85762797621
 21
3737.442887417002
 31
0.0
1001
REVIT
1002
{
1070
     1
1000
219963
1002
}
1002
{
1070
     5
1000
16489
1002
}
1002
{
1070
     2
1000
-2000300
1002
}
  0
MTEXT
  5
1D6
330
70
100
AcDbEntity
  8
G-ANNO-TEXT
100
AcDbMText
 10
3495.232191138018
 20
3743.692887417001
 30
0.0
 40
12.5
 41
225.83536875
 46
0.0
 71
     1
 72
     1
  1
Continuous sealant over 
  7
Century Gothic
 73
     2
 44
1.0
1001
REVIT
1002
{
1070
     1
1000
219963
1002
}
1002
{
1070
     5
1000
16489
1002
}
1002
{
1070
     2
1000
-2000300
1002
}
  0
MTEXT
  5
1D7
330
70
100
AcDbEntity
  8
G-ANNO-TEXT
100
AcDbMText
 10
3495.232191138018
 20
3722.856949917002
 30
0.0
 40
12.5
 41
67.462003125
 46
0.0
 71
     1
 72
     1
  1
PEF rod
  7
Century Gothic
 73
     2
 44
1.0
1001
REVIT
1002
{
1070
     1
1000
219963
1002
}
1002
{
1070
     5
1000
16489
1002
}
1002
{
1070
     2
1000
-2000300
1002
}
  0
LINE
  5
1D8
330
70
100
AcDbEntity
  8
G-ANNO-TEXT
100
AcDbLine
 10
3636.605104544527
 20
3792.334311232193
 30
0.0
 11
3602.328284888018
 21
3792.334311232193
 31
0.0
1001
REVIT
1002
{
1070
     1
1000
219964
1002
}
1002
{
1070
     5
1000
16489
1002
}
1002
{
1070
     2
1000
-2000300
1002
}
  0
LINE
  5
1D9
330
70
100
AcDbEntity
  8
G-ANNO-TEXT
100
AcDbLine
 10
3819.648941992164
 20
3699.610197115789
 30
0.0
 11
3811.424275894036
 21
3712.308805429361
 31
0.0
1001
REVIT
1002
{
1070
     1
1000
219964
1002
}
1002
{
1070
     5
1000
16489
1002
}
1002
{
1070
     2
1000
-2000300
1002
}
  0
LINE
  5
1DA
330
70
100
AcDbEntity
  8
G-ANNO-TEXT
100
AcDbLine
 10
3811.424275894036
 20
3712.308805429361
 30
0.0
 11
3808.417882917528
 21
3709.747410617993
 31
0.0
1001
REVIT
1002
{
1070
     1
1000
219964
1002
}
1002
{
1070
     5
1000
16489
1002
}
1002
{
1070
     2
1000
-2000300
1002
}
  0
LINE
  5
1DB
330
70
100
AcDbEntity
  8
G-ANNO-TEXT
100
AcDbLine
 10
3808.417882917528
 20
3709.747410617993
 30
0.0
 11
3819.648941992164
 21
3699.610197115789
 31
0.0
1001
REVIT
1002
{
1070
     1
1000
219964
1002
}
1002
{
1070
     5
1000
16489
1002
}
1002
{
1070
     2
1000
-2000300
1002
}
  0
HATCH
  5
1DC
330
70
100
AcDbEntity
  8
G-ANNO-TEXT
100
AcDbHatch
 10
0.0
 20
0.0
 30
0.0
210
0.0
220
0.0
230
1.0
  2
SOLID
 70
     1
 71
     0
 91
        1
 92
        0
 93
        3
 72
     1
 10
3819.648941992164
 20
3699.610197115789
 11
3811.424275894036
 21
3712.308805429361
 72
     1
 10
3811.424275894036
 20
3712.308805429361
 11
3808.417882917528
 21
3709.747410617993
 72
     1
 10
3808.417882917528
 20
3709.747410617993
 11
3819.648941992164
 21
3699.610197115789
 97
        0
 75
     0
 76
     1
 98
        1
 10
0.0
 20
0.0
450
        0
451
        0
460
0.0
461
0.0
452
        0
462
0.0
453
        0
470

1001
REVIT
1002
{
1070
     1
1000
219964
1002
}
1002
{
1070
     5
1000
16489
1002
}
1002
{
1070
     2
1000
-2000300
1002
}
  0
LINE
  5
1DD
330
70
100
AcDbEntity
  8
G-ANNO-TEXT
100
AcDbLine
 10
3740.649600707659
 20
3792.334311232193
 30
0.0
 11
3636.605104544527
 21
3792.334311232193
 31
0.0
1001
REVIT
1002
{
1070
     1
1000
219964
1002
}
1002
{
1070
     5
1000
16489
1002
}
1002
{
1070
     2
1000
-2000300
1002
}
  0
LINE
  5
1DE
330
70
100
AcDbEntity
  8
G-ANNO-TEXT
100
AcDbLine
 10
3819.648941992164
 20
3699.610197115789
 30
0.0
 11
3740.649600707659
 21
3792.334311232193
 31
0.0
1001
REVIT
1002
{
1070
     1
1000
219964
1002
}
1002
{
1070
     5
1000
16489
1002
}
1002
{
1070
     2
1000
-2000300
1002
}
  0
MTEXT
  5
1DF
330
70
100
AcDbEntity
  8
G-ANNO-TEXT
100
AcDbMText
 10
3495.232191138018
 20
3798.584311232193
 30
0.0
 40
12.5
 41
123.740465625
 46
0.0
 71
     1
 72
     1
  1
Packer to suit
  7
Century Gothic
 73
     2
 44
1.0
1001
REVIT
1002
{
1070
     1
1000
219964
1002
}
1002
{
1070
     5
1000
16489
1002
}
1002
{
1070
     2
1000
-2000300
1002
}
  0
LINE
  5
1E0
330
70
100
AcDbEntity
  8
G-ANNO-TEXT
100
AcDbLine
 10
3653.606295712601
 20
3597.571207297886
 30
0.0
 11
3620.187659888018
 21
3597.571207297886
 31
0.0
1001
REVIT
1002
{
1070
     1
1000
219965
1002
}
1002
{
1070
     5
1000
16489
1002
}
1002
{
1070
     2
1000
-2000300
1002
}
  0
LINE
  5
1E1
330
70
100
AcDbEntity
  8
G-ANNO-TEXT
100
AcDbLine
 10
3821.109664032512
 20
3676.349387924204
 30
0.0
 11
3809.235428401943
 21
3666.973764546692
 31
0.0
1001
REVIT
1002
{
1070
     1
1000
219965
1002
}
1002
{
1070
     5
1000
16489
1002
}
1002
{
1070
     2
1000
-2000300
1002
}
  0
LINE
  5
1E2
330
70
100
AcDbEntity
  8
G-ANNO-TEXT
100
AcDbLine
 10
3809.235428401943
 20
3666.973764546692
 30
0.0
 11
3812.066623059312
 21
3664.219952839079
 31
0.0
1001
REVIT
1002
{
1070
     1
1000
219965
1002
}
1002
{
1070
     5
1000
16489
1002
}
1002
{
1070
     2
1000
-2000300
1002
}
  0
LINE
  5
1E3
330
70
100
AcDbEntity
  8
G-ANNO-TEXT
100
AcDbLine
 10
3812.066623059312
 20
3664.219952839079
 30
0.0
 11
3821.109664032512
 21
3676.349387924204
 31
0.0
1001
REVIT
1002
{
1070
     1
1000
219965
1002
}
1002
{
1070
     5
1000
16489
1002
}
1002
{
1070
     2
1000
-2000300
1002
}
  0
HATCH
  5
1E4
330
70
100
AcDbEntity
  8
G-ANNO-TEXT
100
AcDbHatch
 10
0.0
 20
0.0
 30
0.0
210
0.0
220
0.0
230
1.0
  2
SOLID
 70
     1
 71
     0
 91
        1
 92
        0
 93
        3
 72
     1
 10
3821.109664032512
 20
3676.349387924204
 11
3809.235428401943
 21
3666.973764546692
 72
     1
 10
3809.235428401943
 20
3666.973764546692
 11
3812.066623059312
 21
3664.219952839079
 72
     1
 10
3812.066623059312
 20
3664.219952839079
 11
3821.109664032512
 21
3676.349387924204
 97
        0
 75
     0
 76
     1
 98
        1
 10
0.0
 20
0.0
450
        0
451
        0
460
0.0
461
0.0
452
        0
462
0.0
453
        0
470

1001
REVIT
1002
{
1070
     1
1000
219965
1002
}
1002
{
1070
     5
1000
16489
1002
}
1002
{
1070
     2
1000
-2000300
1002
}
  0
LINE
  5
1E5
330
70
100
AcDbEntity
  8
G-ANNO-TEXT
100
AcDbLine
 10
3744.484669156758
 20
3597.571207297886
 30
0.0
 11
3653.606295712601
 21
3597.571207297886
 31
0.0
1001
REVIT
1002
{
1070
     1
1000
219965
1002
}
1002
{
1070
     5
1000
16489
1002
}
1002
{
1070
     2
1000
-2000300
1002
}
  0
LINE
  5
1E6
330
70
100
AcDbEntity
  8
G-ANNO-TEXT
100
AcDbLine
 10
3821.109664032512
 20
3676.349387924204
 30
0.0
 11
3744.484669156758
 21
3597.571207297886
 31
0.0
1001
REVIT
1002
{
1070
     1
1000
219965
1002
}
1002
{
1070
     5
1000
16489
1002
}
1002
{
1070
     2
1000
-2000300
1002
}
  0
MTEXT
  5
1E7
330
70
100
AcDbEntity
  8
G-ANNO-TEXT
100
AcDbMText
 10
3495.232191138018
 20
3603.821207297886
 30
0.0
 40
12.5
 41
145.386028125
 46
0.0
 71
     1
 72
     1
  1
H3.1 Jamb Liner
  7
Century Gothic
 73
     2
 44
1.0
1001
REVIT
1002
{
1070
     1
1000
219965
1002
}
1002
{
1070
     5
1000
16489
1002
}
1002
{
1070
     2
1000
-2000300
1002
}
  0
LINE
  5
1E8
330
70
100
AcDbEntity
  8
G-ANNO-TEXT
100
AcDbLine
 10
3934.014682900975
 20
4013.011644013211
 30
0.0
 11
3949.014682900975
 21
4011.036856549401
 31
0.0
1001
REVIT
1002
{
1070
     1
1000
219966
1002
}
1002
{
1070
     5
1000
16489
1002
}
1002
{
1070
     2
1000
-2000300
1002
}
  0
LINE
  5
1E9
330
70
100
AcDbEntity
  8
G-ANNO-TEXT
100
AcDbLine
 10
3949.014682900975
 20
4011.036856549401
 30
0.0
 11
3949.014682900975
 21
4014.986431477022
 31
0.0
1001
REVIT
1002
{
1070
     1
1000
219966
1002
}
1002
{
1070
     5
1000
16489
1002
}
1002
{
1070
     2
1000
-2000300
1002
}
  0
LINE
  5
1EA
330
70
100
AcDbEntity
  8
G-ANNO-TEXT
100
AcDbLine
 10
3949.014682900975
 20
4014.986431477022
 30
0.0
 11
3934.014682900975
 21
4013.011644013211
 31
0.0
1001
REVIT
1002
{
1070
     1
1000
219966
1002
}
1002
{
1070
     5
1000
16489
1002
}
1002
{
1070
     2
1000
-2000300
1002
}
  0
HATCH
  5
1EB
330
70
100
AcDbEntity
  8
G-ANNO-TEXT
100
AcDbHatch
 10
0.0
 20
0.0
 30
0.0
210
0.0
220
0.0
230
1.0
  2
SOLID
 70
     1
 71
     0
 91
        1
 92
        0
 93
        3
 72
     1
 10
3934.014682900975
 20
4013.011644013211
 11
3949.014682900975
 21
4011.036856549401
 72
     1
 10
3949.014682900975
 20
4011.036856549401
 11
3949.014682900975
 21
4014.986431477022
 72
     1
 10
3949.014682900975
 20
4014.986431477022
 11
3934.014682900975
 21
4013.011644013211
 97
        0
 75
     0
 76
     1
 98
        1
 10
0.0
 20
0.0
450
        0
451
        0
460
0.0
461
0.0
452
        0
462
0.0
453
        0
470

1001
REVIT
1002
{
1070
     1
1000
219966
1002
}
1002
{
1070
     5
1000
16489
1002
}
1002
{
1070
     2
1000
-2000300
1002
}
  0
LINE
  5
1EC
330
70
100
AcDbEntity
  8
G-ANNO-TEXT
100
AcDbLine
 10
3934.014682900975
 20
4013.011644013211
 30
0.0
 11
4051.843929319885
 21
4013.011644013211
 31
0.0
1001
REVIT
1002
{
1070
     1
1000
219966
1002
}
1002
{
1070
     5
1000
16489
1002
}
1002
{
1070
     2
1000
-2000300
1002
}
  0
MTEXT
  5
1ED
330
70
100
AcDbEntity
  8
G-ANNO-TEXT
100
AcDbMText
 10
4056.843929319886
 20
4019.26164401321
 30
0.0
 40
12.5
 41
225.11385
 46
0.0
 71
     1
 72
     1
  1
TRS Interlocking Vertical 
  7
Century Gothic
 73
     2
 44
1.0
1001
REVIT
1002
{
1070
     1
1000
219966
1002
}
1002
{
1070
     5
1000
16489
1002
}
1002
{
1070
     2
1000
-2000300
1002
}
  0
MTEXT
  5
1EE
330
70
100
AcDbEntity
  8
G-ANNO-TEXT
100
AcDbMText
 10
4056.843929319886
 20
3998.425706513211
 30
0.0
 40
12.5
 41
87.30376874999999
 46
0.0
 71
     1
 72
     1
  1
Cladding
  7
Century Gothic
 73
     2
 44
1.0
1001
REVIT
1002
{
1070
     1
1000
219966
1002
}
1002
{
1070
     5
1000
16489
1002
}
1002
{
1070
     2
1000
-2000300
1002
}
  0
LINE
  5
1EF
330
70
100
AcDbEntity
  8
G-ANNO-TEXT
100
AcDbLine
 10
3882.8919617691
 20
3841.728256708275
 30
0.0
 11
3894.317643081887
 21
3851.645594660862
 31
0.0
1001
REVIT
1002
{
1070
     1
1000
219967
1002
}
1002
{
1070
     5
1000
16489
1002
}
1002
{
1070
     2
1000
-2000300
1002
}
  0
LINE
  5
1F0
330
70
100
AcDbEntity
  8
G-ANNO-TEXT
100
AcDbLine
 10
3894.317643081887
 20
3851.645594660862
 30
0.0
 11
3891.361526493223
 21
3854.264853491738
 31
0.0
1001
REVIT
1002
{
1070
     1
1000
219967
1002
}
1002
{
1070
     5
1000
16489
1002
}
1002
{
1070
     2
1000
-2000300
1002
}
  0
LINE
  5
1F1
330
70
100
AcDbEntity
  8
G-ANNO-TEXT
100
AcDbLine
 10
3891.361526493223
 20
3854.264853491738
 30
0.0
 11
3882.8919617691
 21
3841.728256708275
 31
0.0
1001
REVIT
1002
{
1070
     1
1000
219967
1002
}
1002
{
1070
     5
1000
16489
1002
}
1002
{
1070
     2
1000
-2000300
1002
}
  0
HATCH
  5
1F2
330
70
100
AcDbEntity
  8
G-ANNO-TEXT
100
AcDbHatch
 10
0.0
 20
0.0
 30
0.0
210
0.0
220
0.0
230
1.0
  2
SOLID
 70
     1
 71
     0
 91
        1
 92
        0
 93
        3
 72
     1
 10
3882.8919617691
 20
3841.728256708275
 11
3894.317643081887
 21
3851.645594660862
 72
     1
 10
3894.317643081887
 20
3851.645594660862
 11
3891.361526493223
 21
3854.264853491738
 72
     1
 10
3891.361526493223
 20
3854.264853491738
 11
3882.8919617691
 21
3841.728256708275
 97
        0
 75
     0
 76
     1
 98
        1
 10
0.0
 20
0.0
450
        0
451
        0
460
0.0
461
0.0
452
        0
462
0.0
453
        0
470

1001
REVIT
1002
{
1070
     1
1000
219967
1002
}
1002
{
1070
     5
1000
16489
1002
}
1002
{
1070
     2
1000
-2000300
1002
}
  0
LINE
  5
1F3
330
70
100
AcDbEntity
  8
G-ANNO-TEXT
100
AcDbLine
 10
3977.182420171504
 20
3948.145226635265
 30
0.0
 11
4051.843929319885
 21
3948.145226635262
 31
0.0
1001
REVIT
1002
{
1070
     1
1000
219967
1002
}
1002
{
1070
     5
1000
16489
1002
}
1002
{
1070
     2
1000
-2000300
1002
}
  0
LINE
  5
1F4
330
70
100
AcDbEntity
  8
G-ANNO-TEXT
100
AcDbLine
 10
3882.8919617691
 20
3841.728256708275
 30
0.0
 11
3977.182420171504
 21
3948.145226635265
 31
0.0
1001
REVIT
1002
{
1070
     1
1000
219967
1002
}
1002
{
1070
     5
1000
16489
1002
}
1002
{
1070
     2
1000
-2000300
1002
}
  0
MTEXT
  5
1F5
330
70
100
AcDbEntity
  8
G-ANNO-TEXT
100
AcDbMText
 10
4056.843929319886
 20
3954.39522663526
 30
0.0
 40
12.5
 41
200.5822125
 46
0.0
 71
     1
 72
     1
  1
Flexible flashing tape 
  7
Century Gothic
 73
     2
 44
1.0
1001
REVIT
1002
{
1070
     1
1000
219967
1002
}
1002
{
1070
     5
1000
16489
1002
}
1002
{
1070
     2
1000
-2000300
1002
}
  0
MTEXT
  5
1F6
330
70
100
AcDbEntity
  8
G-ANNO-TEXT
100
AcDbMText
 10
4056.843929319886
 20
3933.55928913526
 30
0.0
 40
12.5
 41
191.9239875
 46
0.0
 71
     1
 72
     1
  1
lapped over flashing
  7
Century Gothic
 73
     2
 44
1.0
1001
REVIT
1002
{
1070
     1
1000
219967
1002
}
1002
{
1070
     5
1000
16489
1002
}
1002
{
1070
     2
1000
-2000300
1002
}
  0
LINE
  5
1F7
330
70
100
AcDbEntity
  8
G-ANNO-TEXT
100
AcDbLine
 10
3909.155796563533
 20
3763.636063503689
 30
0.0
 11
3919.33479654447
 21
3774.829264337915
 31
0.0
1001
REVIT
1002
{
1070
     1
1000
219968
1002
}
1002
{
1070
     5
1000
16489
1002
}
1002
{
1070
     2
1000
-2000300
1002
}
  0
LINE
  5
1F8
330
70
100
AcDbEntity
  8
G-ANNO-TEXT
100
AcDbLine
 10
3919.33479654447
 20
3774.829264337915
 30
0.0
 11
3916.090941979361
 21
3777.082384323473
 31
0.0
1001
REVIT
1002
{
1070
     1
1000
219968
1002
}
1002
{
1070
     5
1000
16489
1002
}
1002
{
1070
     2
1000
-2000300
1002
}
  0
LINE
  5
1F9
330
70
100
AcDbEntity
  8
G-ANNO-TEXT
100
AcDbLine
 10
3916.090941979361
 20
3777.082384323473
 30
0.0
 11
3909.155796563533
 21
3763.636063503689
 31
0.0
1001
REVIT
1002
{
1070
     1
1000
219968
1002
}
1002
{
1070
     5
1000
16489
1002
}
1002
{
1070
     2
1000
-2000300
1002
}
  0
HATCH
  5
1FA
330
70
100
AcDbEntity
  8
G-ANNO-TEXT
100
AcDbHatch
 10
0.0
 20
0.0
 30
0.0
210
0.0
220
0.0
230
1.0
  2
SOLID
 70
     1
 71
     0
 91
        1
 92
        0
 93
        3
 72
     1
 10
3909.155796563533
 20
3763.636063503689
 11
3919.33479654447
 21
3774.829264337915
 72
     1
 10
3919.33479654447
 20
3774.829264337915
 11
3916.090941979361
 21
3777.082384323473
 72
     1
 10
3916.090941979361
 20
3777.082384323473
 11
3909.155796563533
 21
3763.636063503689
 97
        0
 75
     0
 76
     1
 98
        1
 10
0.0
 20
0.0
450
        0
451
        0
460
0.0
461
0.0
452
        0
462
0.0
453
        0
470

1001
REVIT
1002
{
1070
     1
1000
219968
1002
}
1002
{
1070
     5
1000
16489
1002
}
1002
{
1070
     2
1000
-2000300
1002
}
  0
LINE
  5
1FB
330
70
100
AcDbEntity
  8
G-ANNO-TEXT
100
AcDbLine
 10
3987.227603057343
 20
3876.037350396792
 30
0.0
 11
4051.843929319885
 21
3876.03735039679
 31
0.0
1001
REVIT
1002
{
1070
     1
1000
219968
1002
}
1002
{
1070
     5
1000
16489
1002
}
1002
{
1070
     2
1000
-2000300
1002
}
  0
LINE
  5
1FC
330
70
100
AcDbEntity
  8
G-ANNO-TEXT
100
AcDbLine
 10
3909.155796563533
 20
3763.636063503689
 30
0.0
 11
3987.227603057343
 21
3876.037350396792
 31
0.0
1001
REVIT
1002
{
1070
     1
1000
219968
1002
}
1002
{
1070
     5
1000
16489
1002
}
1002
{
1070
     2
1000
-2000300
1002
}
  0
MTEXT
  5
1FD
330
70
100
AcDbEntity
  8
G-ANNO-TEXT
100
AcDbMText
 10
4056.843929319886
 20
3882.28735039679
 30
0.0
 40
12.5
 41
123.018946875
 46
0.0
 71
     1
 72
     1
  1
Cavity Closer
  7
Century Gothic
 73
     2
 44
1.0
1001
REVIT
1002
{
1070
     1
1000
219968
1002
}
1002
{
1070
     5
1000
16489
1002
}
1002
{
1070
     2
1000
-2000300
1002
}
  0
LINE
  5
1FE
330
70
100
AcDbEntity
  8
G-ANNO-TEXT
100
AcDbLine
 10
3897.535289158291
 20
3739.674316192761
 30
0.0
 11
3910.013389240133
 21
3748.229829261816
 31
0.0
1001
REVIT
1002
{
1070
     1
1000
219969
1002
}
1002
{
1070
     5
1000
16489
1002
}
1002
{
1070
     2
1000
-2000300
1002
}
  0
LINE
  5
1FF
330
70
100
AcDbEntity
  8
G-ANNO-TEXT
100
AcDbLine
 10
3910.013389240133
 20
3748.229829261816
 30
0.0
 11
3907.373878567467
 21
3751.167877171191
 31
0.0
1001
REVIT
1002
{
1070
     1
1000
219969
1002
}
1002
{
1070
     5
1000
16489
1002
}
1002
{
1070
     2
1000
-2000300
1002
}
  0
LINE
  5
200
330
70
100
AcDbEntity
  8
G-ANNO-TEXT
100
AcDbLine
 10
3907.373878567467
 20
3751.167877171191
 30
0.0
 11
3897.535289158291
 21
3739.674316192761
 31
0.0
1001
REVIT
1002
{
1070
     1
1000
219969
1002
}
1002
{
1070
     5
1000
16489
1002
}
1002
{
1070
     2
1000
-2000300
1002
}
  0
HATCH
  5
201
330
70
100
AcDbEntity
  8
G-ANNO-TEXT
100
AcDbHatch
 10
0.0
 20
0.0
 30
0.0
210
0.0
220
0.0
230
1.0
  2
SOLID
 70
     1
 71
     0
 91
        1
 92
        0
 93
        3
 72
     1
 10
3897.535289158291
 20
3739.674316192761
 11
3910.013389240133
 21
3748.229829261816
 72
     1
 10
3910.013389240133
 20
3748.229829261816
 11
3907.373878567467
 21
3751.167877171191
 72
     1
 10
3907.373878567467
 20
3751.167877171191
 11
3897.535289158291
 21
3739.674316192761
 97
        0
 75
     0
 76
     1
 98
        1
 10
0.0
 20
0.0
450
        0
451
        0
460
0.0
461
0.0
452
        0
462
0.0
453
        0
470

1001
REVIT
1002
{
1070
     1
1000
219969
1002
}
1002
{
1070
     5
1000
16489
1002
}
1002
{
1070
     2
1000
-2000300
1002
}
  0
LINE
  5
202
330
70
100
AcDbEntity
  8
G-ANNO-TEXT
100
AcDbLine
 10
3995.667815685654
 20
3827.835523597911
 30
0.0
 11
4051.843929319886
 21
3827.835523597909
 31
0.0
1001
REVIT
1002
{
1070
     1
1000
219969
1002
}
1002
{
1070
     5
1000
16489
1002
}
1002
{
1070
     2
1000
-2000300
1002
}
  0
LINE
  5
203
330
70
100
AcDbEntity
  8
G-ANNO-TEXT
100
AcDbLine
 10
3897.535289158291
 20
3739.674316192761
 30
0.0
 11
3995.667815685654
 21
3827.835523597911
 31
0.0
1001
REVIT
1002
{
1070
     1
1000
219969
1002
}
1002
{
1070
     5
1000
16489
1002
}
1002
{
1070
     2
1000
-2000300
1002
}
  0
MTEXT
  5
204
330
70
100
AcDbEntity
  8
G-ANNO-TEXT
100
AcDbMText
 10
4056.843929319886
 20
3834.085523597908
 30
0.0
 40
12.5
 41
260.107509375
 46
0.0
 71
     1
 72
     1
  1
Garage door head flashing 
  7
Century Gothic
 73
     2
 44
1.0
1001
REVIT
1002
{
1070
     1
1000
219969
1002
}
1002
{
1070
     5
1000
16489
1002
}
1002
{
1070
     2
1000
-2000300
1002
}
  0
MTEXT
  5
205
330
70
100
AcDbEntity
  8
G-ANNO-TEXT
100
AcDbMText
 10
4056.843929319886
 20
3813.249586097908
 30
0.0
 40
12.5
 41
104.980978125
 46
0.0
 71
     1
 72
     1
  1
with 15° fall
  7
Century Gothic
 73
     2
 44
1.0
1001
REVIT
1002
{
1070
     1
1000
219969
1002
}
1002
{
1070
     5
1000
16489
1002
}
1002
{
1070
     2
1000
-2000300
1002
}
  0
LINE
  5
206
330
70
100
AcDbEntity
  8
G-ANNO-TEXT
100
AcDbLine
 10
3792.357892081604
 20
3571.056695942494
 30
0.0
 11
3807.357892081603
 21
3569.081908478683
 31
0.0
1001
REVIT
1002
{
1070
     1
1000
219970
1002
}
1002
{
1070
     5
1000
16489
1002
}
1002
{
1070
     2
1000
-2000300
1002
}
  0
LINE
  5
207
330
70
100
AcDbEntity
  8
G-ANNO-TEXT
100
AcDbLine
 10
3807.357892081603
 20
3569.081908478683
 30
0.0
 11
3807.357892081603
 21
3573.031483406305
 31
0.0
1001
REVIT
1002
{
1070
     1
1000
219970
1002
}
1002
{
1070
     5
1000
16489
1002
}
1002
{
1070
     2
1000
-2000300
1002
}
  0
LINE
  5
208
330
70
100
AcDbEntity
  8
G-ANNO-TEXT
100
AcDbLine
 10
3807.357892081603
 20
3573.031483406305
 30
0.0
 11
3792.357892081604
 21
3571.056695942494
 31
0.0
1001
REVIT
1002
{
1070
     1
1000
219970
1002
}
1002
{
1070
     5
1000
16489
1002
}
1002
{
1070
     2
1000
-2000300
1002
}
  0
HATCH
  5
209
330
70
100
AcDbEntity
  8
G-ANNO-TEXT
100
AcDbHatch
 10
0.0
 20
0.0
 30
0.0
210
0.0
220
0.0
230
1.0
  2
SOLID
 70
     1
 71
     0
 91
        1
 92
        0
 93
        3
 72
     1
 10
3792.357892081604
 20
3571.056695942494
 11
3807.357892081603
 21
3569.081908478683
 72
     1
 10
3807.357892081603
 20
3569.081908478683
 11
3807.357892081603
 21
3573.031483406305
 72
     1
 10
3807.357892081603
 20
3573.031483406305
 11
3792.357892081604
 21
3571.056695942494
 97
        0
 75
     0
 76
     1
 98
        1
 10
0.0
 20
0.0
450
        0
451
        0
460
0.0
461
0.0
452
        0
462
0.0
453
        0
470

1001
REVIT
1002
{
1070
     1
1000
219970
1002
}
1002
{
1070
     5
1000
16489
1002
}
1002
{
1070
     2
1000
-2000300
1002
}
  0
LINE
  5
20A
330
70
100
AcDbEntity
  8
G-ANNO-TEXT
100
AcDbLine
 10
3792.357892081604
 20
3571.056695942494
 30
0.0
 11
4051.843929319886
 21
3571.056695942494
 31
0.0
1001
REVIT
1002
{
1070
     1
1000
219970
1002
}
1002
{
1070
     5
1000
16489
1002
}
1002
{
1070
     2
1000
-2000300
1002
}
  0
MTEXT
  5
20B
330
70
100
AcDbEntity
  8
G-ANNO-TEXT
100
AcDbMText
 10
4056.843929319886
 20
3577.306695942493
 30
0.0
 40
12.5
 41
211.765753125
 46
0.0
 71
     1
 72
     1
  1
Selected Garage Door
  7
Century Gothic
 73
     2
 44
1.0
1001
REVIT
1002
{
1070
     1
1000
219970
1002
}
1002
{
1070
     5
1000
16489
1002
}
1002
{
1070
     2
1000
-2000300
1002
}
  0
LINE
  5
20C
330
70
100
AcDbEntity
  8
G-ANNO-TEXT
100
AcDbLine
 10
3716.155949910976
 20
3980.511644013212
 30
0.0
 11
3693.41109738802
 21
3980.511644013212
 31
0.0
1001
REVIT
1002
{
1070
     1
1000
219971
1002
}
1002
{
1070
     5
1000
16489
1002
}
1002
{
1070
     2
1000
-2000300
1002
}
  0
LINE
  5
20D
330
70
100
AcDbEntity
  8
G-ANNO-TEXT
100
AcDbLine
 10
3896.880741161857
 20
3980.511644013218
 30
0.0
 11
3881.880741161857
 21
3982.486431477028
 31
0.0
1001
REVIT
1002
{
1070
     1
1000
219971
1002
}
1002
{
1070
     5
1000
16489
1002
}
1002
{
1070
     2
1000
-2000300
1002
}
  0
LINE
  5
20E
330
70
100
AcDbEntity
  8
G-ANNO-TEXT
100
AcDbLine
 10
3881.880741161857
 20
3982.486431477028
 30
0.0
 11
3881.880741161857
 21
3978.536856549406
 31
0.0
1001
REVIT
1002
{
1070
     1
1000
219971
1002
}
1002
{
1070
     5
1000
16489
1002
}
1002
{
1070
     2
1000
-2000300
1002
}
  0
LINE
  5
20F
330
70
100
AcDbEntity
  8
G-ANNO-TEXT
100
AcDbLine
 10
3881.880741161857
 20
3978.536856549406
 30
0.0
 11
3896.880741161857
 21
3980.511644013218
 31
0.0
1001
REVIT
1002
{
1070
     1
1000
219971
1002
}
1002
{
1070
     5
1000
16489
1002
}
1002
{
1070
     2
1000
-2000300
1002
}
  0
HATCH
  5
210
330
70
100
AcDbEntity
  8
G-ANNO-TEXT
100
AcDbHatch
 10
0.0
 20
0.0
 30
0.0
210
0.0
220
0.0
230
1.0
  2
SOLID
 70
     1
 71
     0
 91
        1
 92
        0
 93
        3
 72
     1
 10
3896.880741161857
 20
3980.511644013218
 11
3881.880741161857
 21
3982.486431477028
 72
     1
 10
3881.880741161857
 20
3982.486431477028
 11
3881.880741161857
 21
3978.536856549406
 72
     1
 10
3881.880741161857
 20
3978.536856549406
 11
3896.880741161857
 21
3980.511644013218
 97
        0
 75
     0
 76
     1
 98
        1
 10
0.0
 20
0.0
450
        0
451
        0
460
0.0
461
0.0
452
        0
462
0.0
453
        0
470

1001
REVIT
1002
{
1070
     1
1000
219971
1002
}
1002
{
1070
     5
1000
16489
1002
}
1002
{
1070
     2
1000
-2000300
1002
}
  0
LINE
  5
211
330
70
100
AcDbEntity
  8
G-ANNO-TEXT
100
AcDbLine
 10
3896.880741161857
 20
3980.511644013218
 30
0.0
 11
3716.155949910976
 21
3980.511644013212
 31
0.0
1001
REVIT
1002
{
1070
     1
1000
219971
1002
}
1002
{
1070
     5
1000
16489
1002
}
1002
{
1070
     2
1000
-2000300
1002
}
  0
MTEXT
  5
212
330
70
100
AcDbEntity
  8
G-ANNO-TEXT
100
AcDbMText
 10
3495.232191138018
 20
3986.761644013211
 30
0.0
 40
12.5
 41
234.132834375
 46
0.0
 71
     1
 72
     1
  1
Horizontal support cavity 
  7
Century Gothic
 73
     2
 44
1.0
1001
REVIT
1002
{
1070
     1
1000
219971
1002
}
1002
{
1070
     5
1000
16489
1002
}
1002
{
1070
     2
1000
-2000300
1002
}
  0
MTEXT
  5
213
330
70
100
AcDbEntity
  8
G-ANNO-TEXT
100
AcDbMText
 10
3495.232191138018
 20
3965.925706513211
 30
0.0
 40
12.5
 41
246.7594125
 46
0.0
 71
     1
 72
     1
  1
battens @ 600mm crs max.
  7
Century Gothic
 73
     2
 44
1.0
1001
REVIT
1002
{
1070
     1
1000
219971
1002
}
1002
{
1070
     5
1000
16489
1002
}
1002
{
1070
     2
1000
-2000300
1002
}
  0
LINE
  5
214
330
70
100
AcDbEntity
  8
G-ANNO-TEXT
100
AcDbLine
 10
3643.58090819117
 20
3900.257345285348
 30
0.0
 11
3604.411878638018
 21
3900.257345285348
 31
0.0
1001
REVIT
1002
{
1070
     1
1000
219972
1002
}
1002
{
1070
     5
1000
16489
1002
}
1002
{
1070
     2
1000
-2000300
1002
}
  0
LINE
  5
215
330
70
100
AcDbEntity
  8
G-ANNO-TEXT
100
AcDbLine
 10
3879.705545862009
 20
3900.257345285348
 30
0.0
 11
3864.705545862009
 21
3902.232132749158
 31
0.0
1001
REVIT
1002
{
1070
     1
1000
219972
1002
}
1002
{
1070
     5
1000
16489
1002
}
1002
{
1070
     2
1000
-2000300
1002
}
  0
LINE
  5
216
330
70
100
AcDbEntity
  8
G-ANNO-TEXT
100
AcDbLine
 10
3864.705545862009
 20
3902.232132749158
 30
0.0
 11
3864.705545862009
 21
3898.282557821537
 31
0.0
1001
REVIT
1002
{
1070
     1
1000
219972
1002
}
1002
{
1070
     5
1000
16489
1002
}
1002
{
1070
     2
1000
-2000300
1002
}
  0
LINE
  5
217
330
70
100
AcDbEntity
  8
G-ANNO-TEXT
100
AcDbLine
 10
3864.705545862009
 20
3898.282557821537
 30
0.0
 11
3879.705545862009
 21
3900.257345285348
 31
0.0
1001
REVIT
1002
{
1070
     1
1000
219972
1002
}
1002
{
1070
     5
1000
16489
1002
}
1002
{
1070
     2
1000
-2000300
1002
}
  0
HATCH
  5
218
330
70
100
AcDbEntity
  8
G-ANNO-TEXT
100
AcDbHatch
 10
0.0
 20
0.0
 30
0.0
210
0.0
220
0.0
230
1.0
  2
SOLID
 70
     1
 71
     0
 91
        1
 92
        0
 93
        3
 72
     1
 10
3879.705545862009
 20
3900.257345285348
 11
3864.705545862009
 21
3902.232132749158
 72
     1
 10
3864.705545862009
 20
3902.232132749158
 11
3864.705545862009
 21
3898.282557821537
 72
     1
 10
3864.705545862009
 20
3898.282557821537
 11
3879.705545862009
 21
3900.257345285348
 97
        0
 75
     0
 76
     1
 98
        1
 10
0.0
 20
0.0
450
        0
451
        0
460
0.0
461
0.0
452
        0
462
0.0
453
        0
470

1001
REVIT
1002
{
1070
     1
1000
219972
1002
}
1002
{
1070
     5
1000
16489
1002
}
1002
{
1070
     2
1000
-2000300
1002
}
  0
LINE
  5
219
330
70
100
AcDbEntity
  8
G-ANNO-TEXT
100
AcDbLine
 10
3879.705545862009
 20
3900.257345285348
 30
0.0
 11
3643.58090819117
 21
3900.257345285348
 31
0.0
1001
REVIT
1002
{
1070
     1
1000
219972
1002
}
1002
{
1070
     5
1000
16489
1002
}
1002
{
1070
     2
1000
-2000300
1002
}
  0
MTEXT
  5
21A
330
70
100
AcDbEntity
  8
G-ANNO-TEXT
100
AcDbMText
 10
3495.232191138018
 20
3906.507345285348
 30
0.0
 40
12.5
 41
126.26578125
 46
0.0
 71
     1
 72
     1
  1
Wall underlay
  7
Century Gothic
 73
     2
 44
1.0
1001
REVIT
1002
{
1070
     1
1000
219972
1002
}
1002
{
1070
     5
1000
16489
1002
}
1002
{
1070
     2
1000
-2000300
1002
}
  0
DIMENSION
  5
231
330
70
100
AcDbEntity
  8
A-ANNO-DIMS
100
AcDbDimension
280
     0
  2
DIMBLOCK1-W-TRSIL-03-V-G - Garage Door Head Flashing Detail _Vertical_
 10
3986.515338215998
 20
3719.244222445095
 30
0.0
 11
4043.644131675506
 21
3761.917525137372
 31
0.0
 70
   160
  1
<>
 72
     2
 41
0.9845015114479526
 42
5.0
 73
     0
 74
     0
 75
     0
 53
75.00000000000149
  3
01_-_Diagonal
100
AcDbAlignedDimension
 13
3970.732355596151
 23
3718.296878990187
 33
0.0
 14
3972.026450821663
 24
3723.126508121632
 34
0.0
 50
75.00000000000555
100
AcDbRotatedDimension
1001
ACAD
1000
DSTYLE
1002
{
1070
     3
1000
<>mm gap
1070
    49
1040
4.999999999999566
1002
}
1001
REVIT
1002
{
1070
     1
1000
220002
1002
}
1002
{
1070
     5
1000
17724
1002
}
1002
{
1070
     2
1000
-2000260
1002
}
  0
DIMENSION
  5
253
330
70
100
AcDbEntity
  8
A-ANNO-DIMS
100
AcDbDimension
280
     0
  2
DIMBLOCK2-W-TRSIL-03-V-G - Garage Door Head Flashing Detail _Vertical_
 10
3973.024883412749
 20
3788.599332835077
 30
0.0
 11
3973.024883412749
 21
3763.601381222136
 31
0.0
 70
    32
  1
<>\Xmin. cover
 71
     5
 42
49.99590322587664
 73
     0
 74
     0
 75
     0
  3
01_-_Diagonal_1
100
AcDbAlignedDimension
 13
3944.656191726259
 23
3738.603429609199
 33
0.0
 14
3925.815969271822
 24
3788.599332835075
 34
0.0
 50
89.99999999999991
100
AcDbRotatedDimension
1001
ACAD
1000
DSTYLE
1002
{
1070
     3
1000
<>mm 
1070
    49
1040
53.42793577805431
1002
}
1001
REVIT
1002
{
1070
     1
1000
220012
1002
}
1002
{
1070
     5
1000
17724
1002
}
1002
{
1070
     2
1000
-2000260
1002
}
  0
LINE
  5
263
330
70
100
AcDbEntity
  8
G-ANNO-TEXT
100
AcDbLine
 10
3952.216027648047
 20
3685.652743896173
 30
0.0
 11
3965.689407986046
 21
3678.770316432344
 31
0.0
1001
REVIT
1002
{
1070
     1
1000
220015
1002
}
1002
{
1070
     5
1000
16489
1002
}
1002
{
1070
     2
1000
-2000300
1002
}
  0
LINE
  5
264
330
70
100
AcDbEntity
  8
G-ANNO-TEXT
100
AcDbLine
 10
3965.689407986046
 20
3678.770316432344
 30
0.0
 11
3967.011616988111
 21
3682.491996894684
 31
0.0
1001
REVIT
1002
{
1070
     1
1000
220015
1002
}
1002
{
1070
     5
1000
16489
1002
}
1002
{
1070
     2
1000
-2000300
1002
}
  0
LINE
  5
265
330
70
100
AcDbEntity
  8
G-ANNO-TEXT
100
AcDbLine
 10
3967.011616988111
 20
3682.491996894684
 30
0.0
 11
3952.216027648047
 21
3685.652743896173
 31
0.0
1001
REVIT
1002
{
1070
     1
1000
220015
1002
}
1002
{
1070
     5
1000
16489
1002
}
1002
{
1070
     2
1000
-2000300
1002
}
  0
HATCH
  5
266
330
70
100
AcDbEntity
  8
G-ANNO-TEXT
100
AcDbHatch
 10
0.0
 20
0.0
 30
0.0
210
0.0
220
0.0
230
1.0
  2
SOLID
 70
     1
 71
     0
 91
        1
 92
        0
 93
        3
 72
     1
 10
3952.216027648047
 20
3685.652743896173
 11
3965.689407986046
 21
3678.770316432344
 72
     1
 10
3965.689407986046
 20
3678.770316432344
 11
3967.011616988111
 21
3682.491996894684
 72
     1
 10
3967.011616988111
 20
3682.491996894684
 11
3952.216027648047
 21
3685.652743896173
 97
        0
 75
     0
 76
     1
 98
        1
 10
0.0
 20
0.0
450
        0
451
        0
460
0.0
461
0.0
452
        0
462
0.0
453
        0
470

1001
REVIT
1002
{
1070
     1
1000
220015
1002
}
1002
{
1070
     5
1000
16489
1002
}
1002
{
1070
     2
1000
-2000300
1002
}
  0
LINE
  5
267
330
70
100
AcDbEntity
  8
G-ANNO-TEXT
100
AcDbLine
 10
4020.171964656655
 20
3661.509899671422
 30
0.0
 11
4051.843929319885
 21
3661.509899671422
 31
0.0
1001
REVIT
1002
{
1070
     1
1000
220015
1002
}
1002
{
1070
     5
1000
16489
1002
}
1002
{
1070
     2
1000
-2000300
1002
}
  0
LINE
  5
268
330
70
100
AcDbEntity
  8
G-ANNO-TEXT
100
AcDbLine
 10
3952.216027648047
 20
3685.652743896173
 30
0.0
 11
4020.171964656655
 21
3661.509899671422
 31
0.0
1001
REVIT
1002
{
1070
     1
1000
220015
1002
}
1002
{
1070
     5
1000
16489
1002
}
1002
{
1070
     2
1000
-2000300
1002
}
  0
MTEXT
  5
269
330
70
100
AcDbEntity
  8
G-ANNO-TEXT
100
AcDbMText
 10
4056.843929319886
 20
3667.75989967142
 30
0.0
 40
12.5
 41
346.3290000000001
 46
0.0
 71
     1
 72
     1
  1
Seal behind flashing to joinery in very 
  7
Century Gothic
 73
     2
 44
1.0
1001
REVIT
1002
{
1070
     1
1000
220015
1002
}
1002
{
1070
     5
1000
16489
1002
}
1002
{
1070
     2
1000
-2000300
1002
}
  0
MTEXT
  5
26A
330
70
100
AcDbEntity
  8
G-ANNO-TEXT
100
AcDbMText
 10
4056.843929319886
 20
3646.923962171421
 30
0.0
 40
12.5
 41
226.917646875
 46
0.0
 71
     1
 72
     1
  1
high & above wind zone
  7
Century Gothic
 73
     2
 44
1.0
1001
REVIT
1002
{
1070
     1
1000
220015
1002
}
1002
{
1070
     5
1000
16489
1002
}
1002
{
1070
     2
1000
-2000300
1002
}
  0
VIEWPORT
  5
26C
330
6C
100
AcDbEntity
 67
     1
  8
G-ANNO-NPLT
100
AcDbViewport
 10
152.8641819772825
 20
120.7900869643614
 30
0.0
 40
175.1258024372386
 41
151.6307930311155
 68
    -1
 69
     2
 12
3915.160395230932
 22
3771.908867440913
 13
0.0
 23
0.0
 14
0.0
 24
0.0
 15
0.0
 25
0.0
 16
0.0
 26
0.0
 36
1.0
 17
0.0
 27
0.0
 37
0.0
 42
0.0
 43
0.0
 44
0.0
 45
758.1539651555774
 50
0.0
 51
0.0
 72
  1000
 90
    32768
  1

281
     0
 71
     1
 74
     1
110
0.0
120
0.0
130
0.0
111
1.0
121
0.0
131
0.0
112
0.0
122
1.0
132
0.0
 79
     0
146
0.0
170
     0
 61
     5
292
     1
282
     1
141
0.0
142
0.0
 63
   250
421
  3355443
  0
VIEWPORT
  5
26E
330
6C
100
AcDbEntity
 67
     1
  8
0
100
AcDbViewport
 10
6.0
 20
4.5
 30
0.0
 40
12.0
 41
9.0
 68
    -1
 69
     1
 12
6.0
 22
4.5
 13
0.0
 23
0.0
 14
0.0
 24
0.0
 15
0.0
 25
0.0
 16
0.0
 26
0.0
 36
1.0
 17
0.0
 27
0.0
 37
0.0
 42
50.0
 43
0.0
 44
0.0
 45
12.0
 50
0.0
 51
0.0
 72
   100
 90
    32800
  1

281
     0
 71
     1
 74
     1
110
0.0
120
0.0
130
0.0
111
1.0
121
0.0
131
0.0
112
0.0
122
1.0
132
0.0
 79
     0
146
0.0
170
     0
 61
     5
292
     1
282
     1
141
0.0
142
0.0
 63
   250
421
  3355443
  0
INSERT
  5
29F
330
6C
100
AcDbEntity
 67
     1
  8
G-ANNO-TTLB
100
AcDbBlockReference
  2
Titleblock A4 The roofing store - Titleblock A4 The roofing store-2694-Garage Door Head Flashing Detail _Ver__
 10
0.0
 20
0.0
 30
0.0
1001
REVIT
1002
{
1070
     1
1000
222423
1002
}
1002
{
1070
     5
1000
2694
1002
}
1002
{
1070
     2
1000
-2000280
1002
}
  0
MTEXT
  5
2A1
330
6C
100
AcDbEntity
 67
     1
  8
G-ANNO-TTLB
100
AcDbMText
 10
252.3895146630469
 20
12.52446433240663
 30
0.0
 40
4.0
 41
44.084795625
 46
0.0
 71
     1
 72
     1
  1
W-TRSIL-03-V-G
  7
Century Gothic_2
 73
     2
 44
1.0
1001
REVIT
1002
{
1070
     1
1000
222423
1002
}
1002
{
1070
     5
1000
2694
1002
}
1002
{
1070
     2
1000
-2000280
1002
}
  0
MTEXT
  5
2A3
330
6C
100
AcDbEntity
 67
     1
  8
G-ANNO-TTLB
100
AcDbMText
 10
76.05126760874208
 20
10.95227683240663
 30
0.0
 40
3.5
 41
105.991104375
 46
0.0
 71
     1
 72
     1
  1
Garage Door Head Flashing Detail (Ver.)
  7
Century Gothic_3
 73
     2
 44
1.0
1001
REVIT
1002
{
1070
     1
1000
222423
1002
}
1002
{
1070
     5
1000
2694
1002
}
1002
{
1070
     2
1000
-2000280
1002
}
  0
MTEXT
  5
2A4
330
6C
100
AcDbEntity
 67
     1
  8
G-ANNO-TTLB
100
AcDbMText
 10
271.6845146630469
 20
20.51531106318182
 30
0.0
 40
1.8
 41
22.2227775
 46
0.0
 71
     1
 72
     1
  1
Date: 10/11/2020
  7
Century Gothic_1
 73
     2
 44
1.0
1001
REVIT
1002
{
1070
     1
1000
222423
1002
}
1002
{
1070
     5
1000
2694
1002
}
1002
{
1070
     2
1000
-2000280
1002
}
  0
MTEXT
  5
2A6
330
6C
100
AcDbEntity
 67
     1
  8
G-ANNO-TTLB
100
AcDbMText
 10
75.81756651341409
 20
19.95645689651516
 30
0.0
 40
4.999999999999999
 41
63.814325
 46
0.0
 71
     1
 72
     1
  1
TRS Interlocking
  7
Century Gothic_4
 73
     2
 44
1.0
1001
REVIT
1002
{
1070
     1
1000
222423
1002
}
1002
{
1070
     5
1000
2694
1002
}
1002
{
1070
     2
1000
-2000280
1002
}
  0
ENDSEC
  0
SECTION
  2
OBJECTS
  0
DICTIONARY
  5
C
330
0
100
AcDbDictionary
281
     1
  3
ACAD_CIP_PREVIOUS_PRODUCT_INFO
350
79
  3
ACAD_COLOR
350
63
  3
ACAD_DETAILVIEWSTYLE
350
6A
  3
ACAD_GROUP
350
D
  3
ACAD_IMAGE_DICT
350
273
  3
ACAD_IMAGE_VARS
350
7A
  3
ACAD_LAYOUT
350
62
  3
ACAD_MATERIAL
350
10
  3
ACAD_MLEADERSTYLE
350
66
  3
ACAD_MLINESTYLE
350
5F
  3
ACAD_PLOTSETTINGS
350
61
  3
ACAD_PLOTSTYLENAME
350
E
  3
ACAD_SCALELIST
350
42
  3
ACAD_SECTIONVIEWSTYLE
350
68
  3
ACAD_TABLESTYLE
350
64
  3
ACAD_VISUALSTYLE
350
29
  3
ACDB_RECOMPOSE_DATA
350
2B0
  3
AcDbVariableDictionary
350
7B
  3
REVIT_DICTIONARY
350
2A7
  0
DICTIONARY
  5
2AC
330
70
100
AcDbDictionary
280
     1
281
     1
  3
ACAD_SORTENTS
360
2AD
  0
IMAGEDEF_REACTOR
  5
276
330
275
100
AcDbRasterImageDefReactor
 90
        2
330
275
  0
XRECORD
  5
79
102
{ACAD_REACTORS
330
C
102
}
330
C
100
AcDbXrecord
280
     1
300
RVT
300
2019
300
RVT2019
  0
DICTIONARY
  5
63
102
{ACAD_REACTORS
330
C
102
}
330
C
100
AcDbDictionary
281
     1
  0
DICTIONARY
  5
6A
102
{ACAD_REACTORS
330
C
102
}
330
C
100
AcDbDictionary
281
     1
  3
Imperial24
350
6B
  0
DICTIONARY
  5
D
102
{ACAD_REACTORS
330
C
102
}
330
C
100
AcDbDictionary
281
     1
  0
DICTIONARY
  5
273
102
{ACAD_REACTORS
330
C
102
}
330
C
100
AcDbDictionary
281
     1
  3
TRSInterlockingCladdingDetails-TheRoofingStore_w-107754
350
274
  0
RASTERVARIABLES
  5
7A
102
{ACAD_REACTORS
330
C
102
}
330
C
100
AcDbRasterVariables
 90
        0
 70
     0
 71
     1
 72
     1
  0
DICTIONARY
  5
62
102
{ACAD_REACTORS
330
C
102
}
330
C
100
AcDbDictionary
281
     1
  3
Layout1
350
6F
  3
Layout2
350
77
  3
Model
350
73
  0
DICTIONARY
  5
10
102
{ACAD_REACTORS
330
C
102
}
330
C
100
AcDbDictionary
281
     1
  3
ByBlock
350
19
  3
ByLayer
350
11
  3
Global
350
21
  0
DICTIONARY
  5
66
102
{ACAD_REACTORS
330
C
102
}
330
C
100
AcDbDictionary
281
     1
  3
Standard
350
67
  0
DICTIONARY
  5
5F
102
{ACAD_REACTORS
330
C
102
}
330
C
100
AcDbDictionary
281
     1
  3
Standard
350
60
  0
DICTIONARY
  5
61
102
{ACAD_REACTORS
330
C
102
}
330
C
100
AcDbDictionary
281
     1
  0
ACDBDICTIONARYWDFLT
  5
E
102
{ACAD_REACTORS
330
C
102
}
330
C
100
AcDbDictionary
281
     1
  3
Normal
350
F
100
AcDbDictionaryWithDefault
340
F
  0
DICTIONARY
  5
42
102
{ACAD_REACTORS
330
C
102
}
330
C
100
AcDbDictionary
281
     1
  3
A0
350
43
  3
A1
350
44
  3
A2
350
45
  3
A3
350
46
  3
A4
350
47
  3
A5
350
48
  3
A6
350
49
  3
A7
350
4A
  3
A8
350
4B
  3
A9
350
4C
  3
B0
350
4D
  3
B1
350
4E
  3
B2
350
4F
  3
B3
350
50
  3
B4
350
51
  3
B5
350
52
  3
B6
350
53
  0
DICTIONARY
  5
68
102
{ACAD_REACTORS
330
C
102
}
330
C
100
AcDbDictionary
281
     1
  3
Imperial24
350
69
  0
DICTIONARY
  5
64
102
{ACAD_REACTORS
330
C
102
}
330
C
100
AcDbDictionary
281
     1
  3
Standard
350
65
  0
DICTIONARY
  5
29
102
{ACAD_REACTORS
330
C
102
}
330
C
100
AcDbDictionary
281
     1
  3
2dWireframe
350
2F
  3
Basic
350
2E
  3
Brighten
350
35
  3
ColorChange
350
39
  3
Conceptual
350
32
  3
Dim
350
34
  3
EdgeColorOff
350
41
  3
Facepattern
350
38
  3
Flat
350
2A
  3
FlatWithEdges
350
2B
  3
Gouraud
350
2C
  3
GouraudWithEdges
350
2D
  3
Hidden
350
31
  3
JitterOff
350
3F
  3
Linepattern
350
37
  3
OverhangOff
350
40
  3
Realistic
350
33
  3
Shaded
350
3E
  3
Shaded with edges
350
3D
  3
Shades of Gray
350
3A
  3
Sketchy
350
3B
  3
Thicken
350
36
  3
Wireframe
350
30
  3
X-Ray
350
3C
  0
XRECORD
  5
2B0
102
{ACAD_REACTORS
330
C
102
}
330
C
100
AcDbXrecord
280
     1
 90
        1
330
65
  0
DICTIONARY
  5
7B
102
{ACAD_REACTORS
330
C
102
}
330
C
100
AcDbDictionary
281
     1
  3
CANNOSCALE
350
80
  3
CMLEADERSTYLE
350
7D
  3
CTABLESTYLE
350
7C
  3
CVIEWDETAILSTYLE
350
7E
  3
CVIEWSECTIONSTYLE
350
7F
  0
DICTIONARY
  5
2A7
102
{ACAD_REACTORS
330
C
102
}
330
C
100
AcDbDictionary
281
     1
  3
DRAWING_TOOL
350
2AB
  3
REVIT_CATEGORY_MAPPING
350
2A9
  3
REVIT_SUB_CATEGORY_MAPPING
350
2AA
  3
REVIT_TYPE_MAPPING
350
2A8
  0
SORTENTSTABLE
  5
2AD
102
{ACAD_REACTORS
330
2AC
102
}
330
2AC
100
AcDbSortentsTable
330
70
  0
ACDBDETAILVIEWSTYLE
  5
6B
102
{ACAD_XDICTIONARY
360
2E5
102
}
102
{ACAD_REACTORS
330
6A
102
}
330
6A
100
AcDbModelDocViewStyle
 70
     0
  3
Imperial24
290
     0
100
AcDbDetailViewStyle
 70
     0
 71
     0
 90
        3
 71
     1
340
55
 62
   256
 40
0.24
340
0
 62
   256
 40
0.24
300

 40
0.36
280
     3
 71
     2
340
5D
 90
       25
 62
   256
 71
     3
340
55
 62
   256
 40
0.24
 90
        1
 40
0.75
 90
        1
300
%<\AcVar ViewType \f "%tc1">% %<\AcVar ViewDetailId>%\PSCALE %<\AcVar ViewScale \f "%sn">%
 71
     4
340
5D
 90
       25
 62
   256
340
5D
 90
       25
 62
   256
280
     0
  0
IMAGEDEF
  5
274
102
{ACAD_REACTORS
330
273
330
276
102
}
330
273
100
AcDbRasterImageDef
 90
        0
  1
E:\CAD Files\TRS Interlocking Panel\Custom Detail with TRS Weatherboard 20201110\TRSInterlockingCladdingDetails-TheRoofingStore_w-107754.jpg
 10
2863.0
 20
400.0
 11
0.0846666666666667
 21
0.0846666666666667
280
     1
281
     5
  0
LAYOUT
  5
6F
102
{ACAD_REACTORS
330
62
102
}
330
62
100
AcDbPlotSettings
  1

  2

  4

  6

 40
0.0
 41
0.0
 42
0.0
 43
0.0
 44
0.0
 45
0.0
 46
0.0
 47
0.0
 48
0.0
 49
0.0
140
0.0
141
0.0
142
1.0
143
1.0
 70
   688
 72
     0
 73
     0
 74
     5
  7

 75
    16
147
1.0
 76
     0
 77
     2
 78
   300
148
0.0
149
0.0
100
AcDbLayout
  1
Layout1
 70
     1
 71
     1
 10
0.0
 20
0.0
 11
12.0
 21
9.0
 12
0.0
 22
0.0
 32
0.0
 14
0.0
 24
0.0
 34
0.0
 15
0.0
 25
0.0
 35
0.0
146
0.0
 13
0.0
 23
0.0
 33
0.0
 16
1.0
 26
0.0
 36
0.0
 17
0.0
 27
1.0
 37
0.0
 76
     0
330
6C
  0
LAYOUT
  5
77
102
{ACAD_REACTORS
330
62
102
}
330
62
100
AcDbPlotSettings
  1

  2

  4

  6

 40
0.0
 41
0.0
 42
0.0
 43
0.0
 44
0.0
 45
0.0
 46
0.0
 47
0.0
 48
0.0
 49
0.0
140
0.0
141
0.0
142
1.0
143
1.0
 70
   688
 72
     0
 73
     0
 74
     5
  7

 75
    16
147
1.0
 76
     0
 77
     2
 78
   300
148
0.0
149
0.0
100
AcDbLayout
  1
Layout2
 70
     1
 71
     2
 10
0.0
 20
0.0
 11
12.0
 21
9.0
 12
0.0
 22
0.0
 32
0.0
 14
0.0
 24
0.0
 34
0.0
 15
0.0
 25
0.0
 35
0.0
146
0.0
 13
0.0
 23
0.0
 33
0.0
 16
1.0
 26
0.0
 36
0.0
 17
0.0
 27
1.0
 37
0.0
 76
     0
330
74
  0
LAYOUT
  5
73
102
{ACAD_REACTORS
330
62
102
}
330
62
100
AcDbPlotSettings
  1

  2

  4

  6

 40
0.0
 41
0.0
 42
0.0
 43
0.0
 44
0.0
 45
0.0
 46
0.0
 47
0.0
 48
0.0
 49
0.0
140
0.0
141
0.0
142
1.0
143
1.0
 70
  1712
 72
     0
 73
     0
 74
     0
  7

 75
     0
147
1.0
 76
     0
 77
     2
 78
   300
148
0.0
149
0.0
100
AcDbLayout
  1
Model
 70
     1
 71
     0
 10
0.0
 20
0.0
 11
12.0
 21
9.0
 12
0.0
 22
0.0
 32
0.0
 14
0.0
 24
0.0
 34
0.0
 15
0.0
 25
0.0
 35
0.0
146
0.0
 13
0.0
 23
0.0
 33
0.0
 16
1.0
 26
0.0
 36
0.0
 17
0.0
 27
1.0
 37
0.0
 76
     0
330
70
  0
MATERIAL
  5
19
102
{ACAD_XDICTIONARY
360
1A
102
}
102
{ACAD_REACTORS
330
10
102
}
330
10
100
AcDbMaterial
  1
ByBlock
 72
     0
 43
0.0208333333333333
 43
0.0
 43
0.0
 43
0.0
 43
0.0
 43
0.0208333333333333
 43
0.0
 43
0.0
 43
0.0
 43
0.0
 43
1.0
 43
0.0
 43
0.0
 43
0.0
 43
0.0
 43
1.0
 77
     0
 47
0.0208333333333333
 47
0.0
 47
0.0
 47
0.0
 47
0.0
 47
0.0208333333333333
 47
0.0
 47
0.0
 47
0.0
 47
0.0
 47
1.0
 47
0.0
 47
0.0
 47
0.0
 47
0.0
 47
1.0
171
     0
 49
0.0208333333333333
 49
0.0
 49
0.0
 49
0.0
 49
0.0
 49
0.0208333333333333
 49
0.0
 49
0.0
 49
0.0
 49
0.0
 49
1.0
 49
0.0
 49
0.0
 49
0.0
 49
0.0
 49
1.0
175
     0
142
0.0208333333333333
142
0.0
142
0.0
142
0.0
142
0.0
142
0.0208333333333333
142
0.0
142
0.0
142
0.0
142
0.0
142
1.0
142
0.0
142
0.0
142
0.0
142
0.0
142
1.0
179
     0
144
0.0208333333333333
144
0.0
144
0.0
144
0.0
144
0.0
144
0.0208333333333333
144
0.0
144
0.0
144
0.0
144
0.0
144
1.0
144
0.0
144
0.0
144
0.0
144
0.0
144
1.0
147
0.0208333333333333
147
0.0
147
0.0
147
0.0
147
0.0
147
0.0208333333333333
147
0.0
147
0.0
147
0.0
147
0.0
147
1.0
147
0.0
147
0.0
147
0.0
147
0.0
147
1.0
  0
MATERIAL
  5
11
102
{ACAD_XDICTIONARY
360
12
102
}
102
{ACAD_REACTORS
330
10
102
}
330
10
100
AcDbMaterial
  1
ByLayer
 72
     0
 43
0.0208333333333333
 43
0.0
 43
0.0
 43
0.0
 43
0.0
 43
0.0208333333333333
 43
0.0
 43
0.0
 43
0.0
 43
0.0
 43
1.0
 43
0.0
 43
0.0
 43
0.0
 43
0.0
 43
1.0
 77
     0
 47
0.0208333333333333
 47
0.0
 47
0.0
 47
0.0
 47
0.0
 47
0.0208333333333333
 47
0.0
 47
0.0
 47
0.0
 47
0.0
 47
1.0
 47
0.0
 47
0.0
 47
0.0
 47
0.0
 47
1.0
171
     0
 49
0.0208333333333333
 49
0.0
 49
0.0
 49
0.0
 49
0.0
 49
0.0208333333333333
 49
0.0
 49
0.0
 49
0.0
 49
0.0
 49
1.0
 49
0.0
 49
0.0
 49
0.0
 49
0.0
 49
1.0
175
     0
142
0.0208333333333333
142
0.0
142
0.0
142
0.0
142
0.0
142
0.0208333333333333
142
0.0
142
0.0
142
0.0
142
0.0
142
1.0
142
0.0
142
0.0
142
0.0
142
0.0
142
1.0
179
     0
144
0.0208333333333333
144
0.0
144
0.0
144
0.0
144
0.0
144
0.0208333333333333
144
0.0
144
0.0
144
0.0
144
0.0
144
1.0
144
0.0
144
0.0
144
0.0
144
0.0
144
1.0
147
0.0208333333333333
147
0.0
147
0.0
147
0.0
147
0.0
147
0.0208333333333333
147
0.0
147
0.0
147
0.0
147
0.0
147
1.0
147
0.0
147
0.0
147
0.0
147
0.0
147
1.0
  0
MATERIAL
  5
21
102
{ACAD_XDICTIONARY
360
22
102
}
102
{ACAD_REACTORS
330
10
102
}
330
10
100
AcDbMaterial
  1
Global
 72
     0
 43
0.0208333333333333
 43
0.0
 43
0.0
 43
0.0
 43
0.0
 43
0.0208333333333333
 43
0.0
 43
0.0
 43
0.0
 43
0.0
 43
1.0
 43
0.0
 43
0.0
 43
0.0
 43
0.0
 43
1.0
 77
     0
 47
0.0208333333333333
 47
0.0
 47
0.0
 47
0.0
 47
0.0
 47
0.0208333333333333
 47
0.0
 47
0.0
 47
0.0
 47
0.0
 47
1.0
 47
0.0
 47
0.0
 47
0.0
 47
0.0
 47
1.0
171
     0
 49
0.0208333333333333
 49
0.0
 49
0.0
 49
0.0
 49
0.0
 49
0.0208333333333333
 49
0.0
 49
0.0
 49
0.0
 49
0.0
 49
1.0
 49
0.0
 49
0.0
 49
0.0
 49
0.0
 49
1.0
175
     0
142
0.0208333333333333
142
0.0
142
0.0
142
0.0
142
0.0
142
0.0208333333333333
142
0.0
142
0.0
142
0.0
142
0.0
142
1.0
142
0.0
142
0.0
142
0.0
142
0.0
142
1.0
179
     0
144
0.0208333333333333
144
0.0
144
0.0
144
0.0
144
0.0
144
0.0208333333333333
144
0.0
144
0.0
144
0.0
144
0.0
144
1.0
144
0.0
144
0.0
144
0.0
144
0.0
144
1.0
147
0.0208333333333333
147
0.0
147
0.0
147
0.0
147
0.0
147
0.0208333333333333
147
0.0
147
0.0
147
0.0
147
0.0
147
1.0
147
0.0
147
0.0
147
0.0
147
0.0
147
1.0
  0
MLEADERSTYLE
  5
67
102
{ACAD_XDICTIONARY
360
2E1
102
}
102
{ACAD_REACTORS
330
66
102
}
330
66
100
AcDbMLeaderStyle
179
     2
170
     2
171
     1
172
     0
 90
        2
 40
0.0
 41
0.0
173
     1
 91
-1056964608
340
5B
 92
       -2
290
     1
 42
0.09
291
     1
 43
0.36
  3
Standard
 44
0.18
300

342
55
174
     1
178
     6
175
     1
176
     0
 93
-1056964608
 45
0.18
292
     0
297
     0
 46
0.18
 94
-1056964608
 47
1.0
 49
1.0
140
1.0
293
     1
141
0.0
294
     1
177
     0
142
1.0
295
     0
296
     0
143
0.125
271
     0
272
     9
273
     9
  0
MLINESTYLE
  5
60
102
{ACAD_REACTORS
330
5F
102
}
330
5F
100
AcDbMlineStyle
  2
STANDARD
 70
     0
  3

 62
   256
 51
90.0
 52
90.0
 71
     2
 49
0.5
 62
   256
  6
BYLAYER
 49
-0.5
 62
   256
  6
BYLAYER
  0
ACDBPLACEHOLDER
  5
F
102
{ACAD_REACTORS
330
E
102
}
330
E
  0
SCALE
  5
43
102
{ACAD_REACTORS
330
42
102
}
330
42
100
AcDbScale
 70
     0
300
1:1
140
1.0
141
1.0
290
     1
  0
SCALE
  5
44
102
{ACAD_REACTORS
330
42
102
}
330
42
100
AcDbScale
 70
     0
300
1/128" = 1'-0"
140
0.0078125
141
12.0
290
     0
  0
SCALE
  5
45
102
{ACAD_REACTORS
330
42
102
}
330
42
100
AcDbScale
 70
     0
300
1/64" = 1'-0"
140
0.015625
141
12.0
290
     0
  0
SCALE
  5
46
102
{ACAD_REACTORS
330
42
102
}
330
42
100
AcDbScale
 70
     0
300
1/32" = 1'-0"
140
0.03125
141
12.0
290
     0
  0
SCALE
  5
47
102
{ACAD_REACTORS
330
42
102
}
330
42
100
AcDbScale
 70
     0
300
1/16" = 1'-0"
140
0.0625
141
12.0
290
     0
  0
SCALE
  5
48
102
{ACAD_REACTORS
330
42
102
}
330
42
100
AcDbScale
 70
     0
300
3/32" = 1'-0"
140
0.09375
141
12.0
290
     0
  0
SCALE
  5
49
102
{ACAD_REACTORS
330
42
102
}
330
42
100
AcDbScale
 70
     0
300
1/8" = 1'-0"
140
0.125
141
12.0
290
     0
  0
SCALE
  5
4A
102
{ACAD_REACTORS
330
42
102
}
330
42
100
AcDbScale
 70
     0
300
3/16" = 1'-0"
140
0.1875
141
12.0
290
     0
  0
SCALE
  5
4B
102
{ACAD_REACTORS
330
42
102
}
330
42
100
AcDbScale
 70
     0
300
1/4" = 1'-0"
140
0.25
141
12.0
290
     0
  0
SCALE
  5
4C
102
{ACAD_REACTORS
330
42
102
}
330
42
100
AcDbScale
 70
     0
300
3/8" = 1'-0"
140
0.375
141
12.0
290
     0
  0
SCALE
  5
4D
102
{ACAD_REACTORS
330
42
102
}
330
42
100
AcDbScale
 70
     0
300
1/2" = 1'-0"
140
0.5
141
12.0
290
     0
  0
SCALE
  5
4E
102
{ACAD_REACTORS
330
42
102
}
330
42
100
AcDbScale
 70
     0
300
3/4" = 1'-0"
140
0.75
141
12.0
290
     0
  0
SCALE
  5
4F
102
{ACAD_REACTORS
330
42
102
}
330
42
100
AcDbScale
 70
     0
300
1" = 1'-0"
140
1.0
141
12.0
290
     0
  0
SCALE
  5
50
102
{ACAD_REACTORS
330
42
102
}
330
42
100
AcDbScale
 70
     0
300
1-1/2" = 1'-0"
140
1.5
141
12.0
290
     0
  0
SCALE
  5
51
102
{ACAD_REACTORS
330
42
102
}
330
42
100
AcDbScale
 70
     0
300
3" = 1'-0"
140
3.0
141
12.0
290
     0
  0
SCALE
  5
52
102
{ACAD_REACTORS
330
42
102
}
330
42
100
AcDbScale
 70
     0
300
6" = 1'-0"
140
6.0
141
12.0
290
     0
  0
SCALE
  5
53
102
{ACAD_REACTORS
330
42
102
}
330
42
100
AcDbScale
 70
     0
300
1'-0" = 1'-0"
140
12.0
141
12.0
290
     0
  0
ACDBSECTIONVIEWSTYLE
  5
69
102
{ACAD_XDICTIONARY
360
2E3
102
}
102
{ACAD_REACTORS
330
68
102
}
330
68
100
AcDbModelDocViewStyle
 70
     0
  3
Imperial24
290
     0
100
AcDbSectionViewStyle
 70
     0
 71
     0
 90
       78
 71
     1
340
55
 62
   256
 40
0.24
340
0
340
0
 62
   256
 40
0.24
300
I, O, Q, S, X, Z
 40
0.48
 90
        3
 40
0.18
 90
        1
 71
     2
340
5D
 90
       25
 62
   256
340
5D
 90
       50
 62
   256
 40
0.24
 40
0.0
 40
0.24
 71
     3
340
55
 62
   256
 40
0.24
 90
        1
 40
0.75
 90
        1
300
%<\AcVar ViewType \f "%tc1">% %<\AcVar ViewSectionStartId>%-%<\AcVar ViewSectionEndId>%\PSCALE %<\AcVar ViewScale \f "%sn">%
 71
     4
 62
   256
 62
   257
300
ANSI31
 40
1.0
 90
        0
290
     0
290
     0
 90
        6
 40
0.0
 40
1.570796326794896
 40
0.2617993877991494
 40
1.308996938995747
 40
-0.2617993877991494
 40
1.832595714594046
  0
TABLESTYLE
  5
65
102
{ACAD_XDICTIONARY
360
2AE
102
}
102
{ACAD_REACTORS
330
64
102
}
330
64
100
AcDbTableStyle
280
     0
  3
Standard
 70
     0
 71
     0
 40
0.06
 41
0.06
280
     0
281
     0
  7
Standard
140
0.18
170
     2
 62
     0
 63
     7
283
     0
 90
      512
 91
        0
  1

274
    -2
284
     1
 64
     0
275
    -2
285
     1
 65
     0
276
    -2
286
     1
 66
     0
277
    -2
287
     1
 67
     0
278
    -2
288
     1
 68
     0
279
    -2
289
     1
 69
     0
  7
Standard
140
0.25
170
     5
 62
     0
 63
     7
283
     0
 90
      512
 91
        0
  1

274
    -2
284
     1
 64
     0
275
    -2
285
     1
 65
     0
276
    -2
286
     1
 66
     0
277
    -2
287
     1
 67
     0
278
    -2
288
     1
 68
     0
279
    -2
289
     1
 69
     0
  7
Standard
140
0.18
170
     5
 62
     0
 63
     7
283
     0
 90
      512
 91
        0
  1

274
    -2
284
     1
 64
     0
275
    -2
285
     1
 65
     0
276
    -2
286
     1
 66
     0
277
    -2
287
     1
 67
     0
278
    -2
288
     1
 68
     0
279
    -2
289
     1
 69
     0
  0
VISUALSTYLE
  5
2F
102
{ACAD_XDICTIONARY
360
2BB
102
}
102
{ACAD_REACTORS
330
29
102
}
330
29
100
AcDbVisualStyle
  2
2dWireframe
 70
     4
177
     2
291
     0
 71
     0
176
     1
 72
     2
176
     1
 73
     0
176
     1
 90
        0
176
     1
 40
0.6
176
     1
 41
30.0
176
     1
 63
     7
421
 16777215
176
     1
 74
     1
176
     1
 91
        4
176
     1
 64
     7
176
     1
 65
   257
176
     1
 75
     1
176
     1
175
     1
176
     1
 42
1.0
176
     1
 92
        0
176
     1
 66
   257
176
     1
 43
1.0
176
     1
 76
     1
176
     1
 77
     6
176
     1
 78
     2
176
     1
 67
     7
176
     1
 79
     5
176
     1
170
     0
176
     1
171
     0
176
     1
290
     0
176
     1
 93
        1
176
     1
 44
0.0
176
     1
173
     0
176
     1
1001
ACAD
1000
AcDbSavedByObjectVersion
1070
     0
  0
VISUALSTYLE
  5
2E
102
{ACAD_XDICTIONARY
360
2B9
102
}
102
{ACAD_REACTORS
330
29
102
}
330
29
100
AcDbVisualStyle
  2
Basic
 70
     7
177
     2
291
     1
 71
     1
176
     1
 72
     0
176
     1
 73
     1
176
     1
 90
        0
176
     1
 40
0.6
176
     1
 41
30.0
176
     1
 63
     7
421
 16777215
176
     1
 74
     0
176
     1
 91
        4
176
     1
 64
     7
176
     1
 65
   257
176
     1
 75
     1
176
     1
175
     1
176
     1
 42
1.0
176
     1
 92
        8
176
     1
 66
     7
176
     1
 43
1.0
176
     1
 76
     1
176
     1
 77
     6
176
     1
 78
     2
176
     1
 67
     7
176
     1
 79
     5
176
     1
170
     0
176
     1
171
     0
176
     1
290
     0
176
     1
 93
        1
176
     1
 44
0.0
176
     1
173
     0
176
     1
1001
ACAD
1000
AcDbSavedByObjectVersion
1070
     0
  0
VISUALSTYLE
  5
35
102
{ACAD_XDICTIONARY
360
2C7
102
}
102
{ACAD_REACTORS
330
29
102
}
330
29
100
AcDbVisualStyle
  2
Brighten
 70
    12
177
     2
291
     1
 71
     2
176
     1
 72
     2
176
     1
 73
     0
176
     1
 90
        0
176
     1
 40
0.6
176
     1
 41
30.0
176
     1
 63
     7
421
 16777215
176
     1
 74
     1
176
     1
 91
        4
176
     1
 64
     7
176
     1
 65
   257
176
     1
 75
     1
176
     1
175
     1
176
     1
 42
1.0
176
     1
 92
        8
176
     1
 66
     7
176
     1
 43
1.0
176
     1
 76
     1
176
     1
 77
     6
176
     1
 78
     2
176
     1
 67
     7
176
     1
 79
     5
176
     1
170
     0
176
     1
171
     0
176
     1
290
     0
176
     1
 93
        1
176
     1
 44
50.0
176
     1
173
     0
176
     1
1001
ACAD
1000
AcDbSavedByObjectVersion
1070
     0
  0
VISUALSTYLE
  5
39
102
{ACAD_XDICTIONARY
360
2CF
102
}
102
{ACAD_REACTORS
330
29
102
}
330
29
100
AcDbVisualStyle
  2
ColorChange
 70
    16
177
     2
291
     1
 71
     2
176
     1
 72
     2
176
     1
 73
     3
176
     1
 90
        0
176
     1
 40
0.6
176
     1
 41
30.0
176
     1
 63
     8
421
  8421504
176
     1
 74
     1
176
     1
 91
        4
176
     1
 64
     7
176
     1
 65
   257
176
     1
 75
     1
176
     1
175
     1
176
     1
 42
1.0
176
     1
 92
        8
176
     1
 66
     8
424
  8421504
176
     1
 43
1.0
176
     1
 76
     1
176
     1
 77
     6
176
     1
 78
     2
176
     1
 67
     7
176
     1
 79
     5
176
     1
170
     0
176
     1
171
     0
176
     1
290
     0
176
     1
 93
        1
176
     1
 44
0.0
176
     1
173
     0
176
     1
1001
ACAD
1000
AcDbSavedByObjectVersion
1070
     0
  0
VISUALSTYLE
  5
32
102
{ACAD_XDICTIONARY
360
2C1
102
}
102
{ACAD_REACTORS
330
29
102
}
330
29
100
AcDbVisualStyle
  2
Conceptual
 70
     9
177
     2
291
     0
 71
     3
176
     1
 72
     2
176
     1
 73
     0
176
     1
 90
        0
176
     1
 40
0.6
176
     1
 41
30.0
176
     1
 63
     7
421
 16777215
176
     1
 74
     2
176
     1
 91
        2
176
     1
 64
     7
176
     1
 65
   257
176
     1
 75
     1
176
     1
175
     1
176
     1
 42
179.0
176
     1
 92
        8
176
     1
 66
     7
176
     1
 43
1.0
176
     1
 76
     1
176
     1
 77
     6
176
     1
 78
     2
176
     1
 67
     7
176
     1
 79
     3
176
     1
170
     0
176
     1
171
     0
176
     1
290
     0
176
     1
 93
        1
176
     1
 44
0.0
176
     1
173
     0
176
     1
1001
ACAD
1000
AcDbSavedByObjectVersion
1070
     0
  0
VISUALSTYLE
  5
34
102
{ACAD_XDICTIONARY
360
2C5
102
}
102
{ACAD_REACTORS
330
29
102
}
330
29
100
AcDbVisualStyle
  2
Dim
 70
    11
177
     2
291
     1
 71
     2
176
     1
 72
     2
176
     1
 73
     0
176
     1
 90
        0
176
     1
 40
0.6
176
     1
 41
30.0
176
     1
 63
     7
421
 16777215
176
     1
 74
     1
176
     1
 91
        4
176
     1
 64
     7
176
     1
 65
   257
176
     1
 75
     1
176
     1
175
     1
176
     1
 42
1.0
176
     1
 92
        8
176
     1
 66
     7
176
     1
 43
1.0
176
     1
 76
     1
176
     1
 77
     6
176
     1
 78
     2
176
     1
 67
     7
176
     1
 79
     5
176
     1
170
     0
176
     1
171
     0
176
     1
290
     0
176
     1
 93
        1
176
     1
 44
-50.0
176
     1
173
     0
176
     1
1001
ACAD
1000
AcDbSavedByObjectVersion
1070
     0
  0
VISUALSTYLE
  5
41
102
{ACAD_XDICTIONARY
360
2DF
102
}
102
{ACAD_REACTORS
330
29
102
}
330
29
100
AcDbVisualStyle
  2
EdgeColorOff
 70
    22
177
     2
291
     1
 71
     2
176
     0
 72
     2
176
     0
 73
     0
176
     0
 90
        0
176
     0
 40
0.6
176
     0
 41
30.0
176
     0
 63
     7
421
 16777215
176
     0
 74
     1
176
     0
 91
        4
176
     0
 64
     7
176
     0
 65
   257
176
     0
 75
     1
176
     0
175
     1
176
     0
 42
1.0
176
     0
 92
        8
176
     2
 66
     7
176
     0
 43
1.0
176
     0
 76
     1
176
     0
 77
     6
176
     0
 78
     2
176
     0
 67
     7
176
     0
 79
     5
176
     0
170
     0
176
     0
171
     0
176
     0
290
     0
176
     0
 93
        1
176
     0
 44
0.0
176
     0
173
     0
176
     0
1001
ACAD
1000
AcDbSavedByObjectVersion
1070
     0
  0
VISUALSTYLE
  5
38
102
{ACAD_XDICTIONARY
360
2CD
102
}
102
{ACAD_REACTORS
330
29
102
}
330
29
100
AcDbVisualStyle
  2
Facepattern
 70
    15
177
     2
291
     1
 71
     2
176
     1
 72
     2
176
     1
 73
     0
176
     1
 90
        0
176
     1
 40
0.6
176
     1
 41
30.0
176
     1
 63
     7
421
 16777215
176
     1
 74
     1
176
     1
 91
        4
176
     1
 64
     7
176
     1
 65
   257
176
     1
 75
     1
176
     1
175
     1
176
     1
 42
1.0
176
     1
 92
        8
176
     1
 66
     7
176
     1
 43
1.0
176
     1
 76
     1
176
     1
 77
     6
176
     1
 78
     2
176
     1
 67
     7
176
     1
 79
     5
176
     1
170
     0
176
     1
171
     0
176
     1
290
     0
176
     1
 93
        1
176
     1
 44
0.0
176
     1
173
     0
176
     1
1001
ACAD
1000
AcDbSavedByObjectVersion
1070
     0
  0
VISUALSTYLE
  5
2A
102
{ACAD_XDICTIONARY
360
2B1
102
}
102
{ACAD_REACTORS
330
29
102
}
330
29
100
AcDbVisualStyle
  2
Flat
 70
     0
177
     2
291
     1
 71
     2
176
     1
 72
     1
176
     1
 73
     1
176
     1
 90
        2
176
     1
 40
0.6
176
     1
 41
30.0
176
     1
 63
     7
421
 16777215
176
     1
 74
     0
176
     1
 91
        0
176
     1
 64
     7
176
     1
 65
   257
176
     1
 75
     1
176
     1
175
     1
176
     1
 42
1.0
176
     1
 92
        8
176
     1
 66
     7
176
     1
 43
1.0
176
     1
 76
     1
176
     1
 77
     6
176
     1
 78
     2
176
     1
 67
     7
176
     1
 79
     5
176
     1
170
     0
176
     1
171
     0
176
     1
290
     0
176
     1
 93
       13
176
     1
 44
0.0
176
     1
173
     0
176
     1
1001
ACAD
1000
AcDbSavedByObjectVersion
1070
     0
  0
VISUALSTYLE
  5
2B
102
{ACAD_XDICTIONARY
360
2B3
102
}
102
{ACAD_REACTORS
330
29
102
}
330
29
100
AcDbVisualStyle
  2
FlatWithEdges
 70
     1
177
     2
291
     1
 71
     2
176
     1
 72
     1
176
     1
 73
     1
176
     1
 90
        2
176
     1
 40
0.6
176
     1
 41
30.0
176
     1
 63
     7
421
 16777215
176
     1
 74
     1
176
     1
 91
        0
176
     1
 64
     7
176
     1
 65
   257
176
     1
 75
     1
176
     1
175
     1
176
     1
 42
1.0
176
     1
 92
        0
176
     1
 66
   257
176
     1
 43
1.0
176
     1
 76
     1
176
     1
 77
     6
176
     1
 78
     2
176
     1
 67
     7
176
     1
 79
     5
176
     1
170
     0
176
     1
171
     0
176
     1
290
     0
176
     1
 93
       13
176
     1
 44
0.0
176
     1
173
     0
176
     1
1001
ACAD
1000
AcDbSavedByObjectVersion
1070
     0
  0
VISUALSTYLE
  5
2C
102
{ACAD_XDICTIONARY
360
2B5
102
}
102
{ACAD_REACTORS
330
29
102
}
330
29
100
AcDbVisualStyle
  2
Gouraud
 70
     2
177
     2
291
     1
 71
     2
176
     1
 72
     2
176
     1
 73
     1
176
     1
 90
        2
176
     1
 40
0.6
176
     1
 41
30.0
176
     1
 63
     7
421
 16777215
176
     1
 74
     0
176
     1
 91
        0
176
     1
 64
     7
176
     1
 65
   257
176
     1
 75
     1
176
     1
175
     1
176
     1
 42
1.0
176
     1
 92
        0
176
     1
 66
     7
176
     1
 43
1.0
176
     1
 76
     1
176
     1
 77
     6
176
     1
 78
     2
176
     1
 67
     7
176
     1
 79
     5
176
     1
170
     0
176
     1
171
     0
176
     1
290
     0
176
     1
 93
       13
176
     1
 44
0.0
176
     1
173
     0
176
     1
1001
ACAD
1000
AcDbSavedByObjectVersion
1070
     0
  0
VISUALSTYLE
  5
2D
102
{ACAD_XDICTIONARY
360
2B7
102
}
102
{ACAD_REACTORS
330
29
102
}
330
29
100
AcDbVisualStyle
  2
GouraudWithEdges
 70
     3
177
     2
291
     1
 71
     2
176
     1
 72
     2
176
     1
 73
     1
176
     1
 90
        2
176
     1
 40
0.6
176
     1
 41
30.0
176
     1
 63
     7
421
 16777215
176
     1
 74
     1
176
     1
 91
        0
176
     1
 64
     7
176
     1
 65
   257
176
     1
 75
     1
176
     1
175
     1
176
     1
 42
1.0
176
     1
 92
        0
176
     1
 66
   257
176
     1
 43
1.0
176
     1
 76
     1
176
     1
 77
     6
176
     1
 78
     2
176
     1
 67
     7
176
     1
 79
     5
176
     1
170
     0
176
     1
171
     0
176
     1
290
     0
176
     1
 93
       13
176
     1
 44
0.0
176
     1
173
     0
176
     1
1001
ACAD
1000
AcDbSavedByObjectVersion
1070
     0
  0
VISUALSTYLE
  5
31
102
{ACAD_XDICTIONARY
360
2BF
102
}
102
{ACAD_REACTORS
330
29
102
}
330
29
100
AcDbVisualStyle
  2
Hidden
 70
     6
177
     2
291
     0
 71
     1
176
     1
 72
     2
176
     1
 73
     2
176
     1
 90
        0
176
     1
 40
0.6
176
     1
 41
30.0
176
     1
 63
     7
421
 16777215
176
     1
 74
     2
176
     1
 91
        2
176
     1
 64
     7
176
     1
 65
   257
176
     1
 75
     2
176
     1
175
     1
176
     1
 42
40.0
176
     1
 92
        0
176
     1
 66
   257
176
     1
 43
1.0
176
     1
 76
     1
176
     1
 77
     6
176
     1
 78
     2
176
     1
 67
     7
176
     1
 79
     3
176
     1
170
     0
176
     1
171
     0
176
     1
290
     0
176
     1
 93
        1
176
     1
 44
0.0
176
     1
173
     0
176
     1
1001
ACAD
1000
AcDbSavedByObjectVersion
1070
     0
  0
VISUALSTYLE
  5
3F
102
{ACAD_XDICTIONARY
360
2DB
102
}
102
{ACAD_REACTORS
330
29
102
}
330
29
100
AcDbVisualStyle
  2
JitterOff
 70
    20
177
     2
291
     1
 71
     2
176
     0
 72
     2
176
     0
 73
     0
176
     0
 90
        0
176
     0
 40
0.6
176
     0
 41
30.0
176
     0
 63
     7
421
 16777215
176
     0
 74
     1
176
     0
 91
        4
176
     0
 64
     7
176
     0
 65
   257
176
     0
 75
     1
176
     0
175
     1
176
     0
 42
1.0
176
     0
 92
       10
176
     2
 66
     7
176
     0
 43
1.0
176
     0
 76
     1
176
     0
 77
     6
176
     0
 78
     2
176
     0
 67
     7
176
     0
 79
     5
176
     0
170
     0
176
     0
171
     0
176
     0
290
     0
176
     0
 93
        1
176
     0
 44
0.0
176
     0
173
     0
176
     0
1001
ACAD
1000
AcDbSavedByObjectVersion
1070
     0
  0
VISUALSTYLE
  5
37
102
{ACAD_XDICTIONARY
360
2CB
102
}
102
{ACAD_REACTORS
330
29
102
}
330
29
100
AcDbVisualStyle
  2
Linepattern
 70
    14
177
     2
291
     1
 71
     2
176
     1
 72
     2
176
     1
 73
     0
176
     1
 90
        0
176
     1
 40
0.6
176
     1
 41
30.0
176
     1
 63
     7
421
 16777215
176
     1
 74
     1
176
     1
 91
        4
176
     1
 64
     7
176
     1
 65
   257
176
     1
 75
     7
176
     1
175
     7
176
     1
 42
1.0
176
     1
 92
        8
176
     1
 66
     7
176
     1
 43
1.0
176
     1
 76
     1
176
     1
 77
     6
176
     1
 78
     2
176
     1
 67
     7
176
     1
 79
     5
176
     1
170
     0
176
     1
171
     0
176
     1
290
     0
176
     1
 93
        1
176
     1
 44
0.0
176
     1
173
     0
176
     1
1001
ACAD
1000
AcDbSavedByObjectVersion
1070
     0
  0
VISUALSTYLE
  5
40
102
{ACAD_XDICTIONARY
360
2DD
102
}
102
{ACAD_REACTORS
330
29
102
}
330
29
100
AcDbVisualStyle
  2
OverhangOff
 70
    21
177
     2
291
     1
 71
     2
176
     0
 72
     2
176
     0
 73
     0
176
     0
 90
        0
176
     0
 40
0.6
176
     0
 41
30.0
176
     0
 63
     7
421
 16777215
176
     0
 74
     1
176
     0
 91
        4
176
     0
 64
     7
176
     0
 65
   257
176
     0
 75
     1
176
     0
175
     1
176
     0
 42
1.0
176
     0
 92
        9
176
     2
 66
     7
176
     0
 43
1.0
176
     0
 76
     1
176
     0
 77
     6
176
     0
 78
     2
176
     0
 67
     7
176
     0
 79
     5
176
     0
170
     0
176
     0
171
     0
176
     0
290
     0
176
     0
 93
        1
176
     0
 44
0.0
176
     0
173
     0
176
     0
1001
ACAD
1000
AcDbSavedByObjectVersion
1070
     0
  0
VISUALSTYLE
  5
33
102
{ACAD_XDICTIONARY
360
2C3
102
}
102
{ACAD_REACTORS
330
29
102
}
330
29
100
AcDbVisualStyle
  2
Realistic
 70
     8
177
     2
291
     0
 71
     2
176
     1
 72
     3
176
     1
 73
     0
176
     1
 90
        2
176
     1
 40
0.6
176
     1
 41
30.0
176
     1
 63
     7
421
 16777215
176
     1
 74
     0
176
     1
 91
        0
176
     1
 64
     7
176
     1
 65
   257
176
     1
 75
     1
176
     1
175
     1
176
     1
 42
1.0
176
     1
 92
        8
176
     1
 66
   257
176
     1
 43
1.0
176
     1
 76
     1
176
     1
 77
     6
176
     1
 78
     2
176
     1
 67
     7
176
     1
 79
     3
176
     1
170
     0
176
     1
171
     0
176
     1
290
     0
176
     1
 93
       13
176
     1
 44
0.0
176
     1
173
     0
176
     1
1001
ACAD
1000
AcDbSavedByObjectVersion
1070
     0
  0
VISUALSTYLE
  5
3E
102
{ACAD_XDICTIONARY
360
2D9
102
}
102
{ACAD_REACTORS
330
29
102
}
330
29
100
AcDbVisualStyle
  2
Shaded
 70
    27
177
     2
291
     0
 71
     2
176
     1
 72
     2
176
     1
 73
     1
176
     1
 90
        2
176
     1
 40
0.6
176
     1
 41
30.0
176
     1
 63
     7
421
 16777215
176
     1
 74
     0
176
     1
 91
        4
176
     1
 64
     7
176
     1
 65
   257
176
     1
 75
     1
176
     1
175
     1
176
     1
 42
1.0
176
     1
 92
        8
176
     1
 66
   257
176
     1
 43
1.0
176
     1
 76
     1
176
     1
 77
     6
176
     1
 78
     2
176
     1
 67
     8
425
  7895160
176
     1
 79
     3
176
     1
170
     0
176
     1
171
     0
176
     1
290
     0
176
     1
 93
        5
176
     1
 44
0.0
176
     1
173
     0
176
     1
1001
ACAD
1000
AcDbSavedByObjectVersion
1070
     0
  0
VISUALSTYLE
  5
3D
102
{ACAD_XDICTIONARY
360
2D7
102
}
102
{ACAD_REACTORS
330
29
102
}
330
29
100
AcDbVisualStyle
  2
Shaded with edges
 70
    26
177
     2
291
     0
 71
     2
176
     1
 72
     2
176
     1
 73
     1
176
     1
 90
        2
176
     1
 40
0.6
176
     1
 41
30.0
176
     1
 63
     7
421
 16777215
176
     1
 74
     1
176
     1
 91
        2
176
     1
 64
     7
176
     1
 65
   257
176
     1
 75
     2
176
     1
175
     1
176
     1
 42
1.0
176
     1
 92
        8
176
     1
 66
   257
176
     1
 43
1.0
176
     1
 76
     1
176
     1
 77
     6
176
     1
 78
     2
176
     1
 67
     7
176
     1
 79
     3
176
     1
170
     0
176
     1
171
     0
176
     1
290
     0
176
     1
 93
        5
176
     1
 44
0.0
176
     1
173
     0
176
     1
1001
ACAD
1000
AcDbSavedByObjectVersion
1070
     0
  0
VISUALSTYLE
  5
3A
102
{ACAD_XDICTIONARY
360
2D1
102
}
102
{ACAD_REACTORS
330
29
102
}
330
29
100
AcDbVisualStyle
  2
Shades of Gray
 70
    23
177
     2
291
     0
 71
     2
176
     1
 72
     2
176
     1
 73
     3
176
     1
 90
        0
176
     1
 40
0.6
176
     1
 41
30.0
176
     1
 63
     7
421
 16777215
176
     1
 74
     2
176
     1
 91
        2
176
     1
 64
     7
176
     1
 65
     7
176
     1
 75
     1
176
     1
175
     1
176
     1
 42
40.0
176
     1
 92
        8
176
     1
 66
     7
176
     1
 43
1.0
176
     1
 76
     1
176
     1
 77
     6
176
     1
 78
     2
176
     1
 67
     7
176
     1
 79
     3
176
     1
170
     0
176
     1
171
     0
176
     1
290
     0
176
     1
 93
        1
176
     1
 44
0.0
176
     1
173
     0
176
     1
1001
ACAD
1000
AcDbSavedByObjectVersion
1070
     0
  0
VISUALSTYLE
  5
3B
102
{ACAD_XDICTIONARY
360
2D3
102
}
102
{ACAD_REACTORS
330
29
102
}
330
29
100
AcDbVisualStyle
  2
Sketchy
 70
    24
177
     2
291
     0
 71
     1
176
     1
 72
     2
176
     1
 73
     2
176
     1
 90
        0
176
     1
 40
0.6
176
     1
 41
30.0
176
     1
 63
     7
421
 16777215
176
     1
 74
     2
176
     1
 91
        2
176
     1
 64
     7
176
     1
 65
     7
176
     1
 75
     1
176
     1
175
     1
176
     1
 42
40.0
176
     1
 92
       11
176
     1
 66
     7
176
     1
 43
1.0
176
     1
 76
     1
176
     1
 77
     6
176
     1
 78
     2
176
     1
 67
     7
176
     1
 79
     6
176
     1
170
     0
176
     1
171
     0
176
     1
290
     0
176
     1
 93
        1
176
     1
 44
0.0
176
     1
173
     0
176
     1
1001
ACAD
1000
AcDbSavedByObjectVersion
1070
     0
  0
VISUALSTYLE
  5
36
102
{ACAD_XDICTIONARY
360
2C9
102
}
102
{ACAD_REACTORS
330
29
102
}
330
29
100
AcDbVisualStyle
  2
Thicken
 70
    13
177
     2
291
     1
 71
     2
176
     1
 72
     2
176
     1
 73
     0
176
     1
 90
        0
176
     1
 40
0.6
176
     1
 41
30.0
176
     1
 63
     7
421
 16777215
176
     1
 74
     1
176
     1
 91
        4
176
     1
 64
     7
176
     1
 65
   257
176
     1
 75
     1
176
     1
175
     1
176
     1
 42
1.0
176
     1
 92
       12
176
     1
 66
     7
176
     1
 43
1.0
176
     1
 76
     1
176
     1
 77
     6
176
     1
 78
     2
176
     1
 67
     7
176
     1
 79
     5
176
     1
170
     0
176
     1
171
     0
176
     1
290
     0
176
     1
 93
        1
176
     1
 44
0.0
176
     1
173
     0
176
     1
1001
ACAD
1000
AcDbSavedByObjectVersion
1070
     0
  0
VISUALSTYLE
  5
30
102
{ACAD_XDICTIONARY
360
2BD
102
}
102
{ACAD_REACTORS
330
29
102
}
330
29
100
AcDbVisualStyle
  2
Wireframe
 70
     5
177
     2
291
     0
 71
     0
176
     1
 72
     2
176
     1
 73
     0
176
     1
 90
        0
176
     1
 40
0.6
176
     1
 41
30.0
176
     1
 63
     7
421
 16777215
176
     1
 74
     1
176
     1
 91
        4
176
     1
 64
     7
176
     1
 65
   257
176
     1
 75
     1
176
     1
175
     1
176
     1
 42
1.0
176
     1
 92
        0
176
     1
 66
   257
176
     1
 43
1.0
176
     1
 76
     1
176
     1
 77
     6
176
     1
 78
     2
176
     1
 67
     7
176
     1
 79
     3
176
     1
170
     0
176
     1
171
     0
176
     1
290
     0
176
     1
 93
        1
176
     1
 44
0.0
176
     1
173
     0
176
     1
1001
ACAD
1000
AcDbSavedByObjectVersion
1070
     0
  0
VISUALSTYLE
  5
3C
102
{ACAD_XDICTIONARY
360
2D5
102
}
102
{ACAD_REACTORS
330
29
102
}
330
29
100
AcDbVisualStyle
  2
X-Ray
 70
    25
177
     2
291
     0
 71
     2
176
     1
 72
     2
176
     1
 73
     1
176
     1
 90
        1
176
     1
 40
0.5
176
     1
 41
30.0
176
     1
 63
     7
421
 16777215
176
     1
 74
     1
176
     1
 91
        0
176
     1
 64
     7
176
     1
 65
   257
176
     1
 75
     1
176
     1
175
     1
176
     1
 42
1.0
176
     1
 92
        8
176
     1
 66
     7
176
     1
 43
1.0
176
     1
 76
     1
176
     1
 77
     6
176
     1
 78
     2
176
     1
 67
     7
176
     1
 79
     3
176
     1
170
     0
176
     1
171
     0
176
     1
290
     0
176
     1
 93
       13
176
     1
 44
0.0
176
     1
173
     0
176
     1
1001
ACAD
1000
AcDbSavedByObjectVersion
1070
     0
  0
DICTIONARYVAR
  5
80
102
{ACAD_REACTORS
330
7B
102
}
330
7B
100
DictionaryVariables
280
     0
  1
1:1
  0
DICTIONARYVAR
  5
7D
102
{ACAD_REACTORS
330
7B
102
}
330
7B
100
DictionaryVariables
280
     0
  1
STANDARD
  0
DICTIONARYVAR
  5
7C
102
{ACAD_REACTORS
330
7B
102
}
330
7B
100
DictionaryVariables
280
     0
  1
STANDARD
  0
DICTIONARYVAR
  5
7E
102
{ACAD_REACTORS
330
7B
102
}
330
7B
100
DictionaryVariables
280
     0
  1
Imperial24
  0
DICTIONARYVAR
  5
7F
102
{ACAD_REACTORS
330
7B
102
}
330
7B
100
DictionaryVariables
280
     0
  1
Imperial24
  0
XRECORD
  5
2AB
102
{ACAD_REACTORS
330
2A7
102
}
330
2A7
100
AcDbXrecord
280
     1
  1
BUILDING_ID
  1
TRS Interlocking Cladding Details
  1
FLOOR_ID
  1
222418
  0
XRECORD
  5
2A9
102
{ACAD_REACTORS
330
2A7
102
}
330
2A7
100
AcDbXrecord
280
     1
  1
-2000051
  1
Lines
  1
-2000260
  1
Dimensions
  1
-2000280
  1
Title Blocks
  1
-2000300
  1
Text Notes
  1
-2002000
  1
Detail Items
  0
XRECORD
  5
2AA
102
{ACAD_REACTORS
330
2A7
102
}
330
2A7
100
AcDbXrecord
280
     1
  1
-2000042
  1
Thin Lines
  1
-2000043
  1
Medium Lines
  1
-2000077
  1
Insulation Batting Lines
  1
-2000281
  1
Thin Lines
  1
-2000282
  1
Medium Lines
  1
137263
  1
01 - Gray LT
  1
15798
  1
Light Lines
  1
16110
  1
Building Wrap
  1
16116
  1
Medium Line
  1
16210
  1
01 - Black 1
  1
16257
  1
Wide Lines
  1
16362
  1
Thin Lines
  1
19820
  1
FPA_Sect_Aluminium
  1
19822
  1
FPA_Sect_Sealant
  1
19830
  1
FPA_Elev_Aluminium
  1
19834
  1
FPA_Sect_Packer
  1
19836
  1
FPA_Sect_Timber
  1
19860
  1
FPA_Flashing_Tape
  1
221009
  1
01 - Gray LT Dash 2 - 2
  0
XRECORD
  5
2A8
102
{ACAD_REACTORS
330
2A7
102
}
330
2A7
100
AcDbXrecord
280
     1
  1
14996
  1
Filled region : Crosshatch 3mm
  1
16489
  1
Text : Century Gothic 2.5mm
  1
17724
  1
Linear Dimension Style : 01 - Diagonal
  1
17867
  1
Filled region : Grey LT - Solid
  1
17873
  1
Filled region : White- Solid
  1
17941
  1
Filled region : Plasterboard
  1
2694
  1
Titleblock A4 The roofing store : Titleblock A4 The roofing store
  1
35721
  1
4161_Flashing Tape : 4161_Flashing Tape
  1
36099
  1
4821_Cavity Closure : 4821_Cavity Closure
  1
44489
  1
FP Timber Nog Packer1 : Variable
  1
59780
  1
4594_Packer : Timber Packer H3.2
  1
59784
  1
4811_Air Seal w Foam : Airseal on PEF Backing Rod
  1
59790
  1
FP - Break Line : FP - Break Line
  1
59792
  1
HP_WProof - Building Wrap : HP_WProof - Building Wrap
  1
83687
  1
4594_Jamb Liner : 19mm H3.1
  1
98797
  1
CAVIBAT Batten Profile : Non Cavibat
  0
DICTIONARY
  5
2E5
330
6B
100
AcDbDictionary
280
     1
281
     1
  3
ACAD_XREC_ROUNDTRIP
360
2E6
  0
DICTIONARY
  5
1A
330
19
100
AcDbDictionary
280
     1
281
     1
  3
BUMPTILE
360
1C
  3
DIFFUSETILE
360
1B
  3
OPACITYTILE
360
1F
  3
REFLECTIONTILE
360
1E
  3
REFRACTIONTILE
360
20
  3
SPECULARTILE
360
1D
  0
DICTIONARY
  5
12
330
11
100
AcDbDictionary
280
     1
281
     1
  3
BUMPTILE
360
14
  3
DIFFUSETILE
360
13
  3
OPACITYTILE
360
17
  3
REFLECTIONTILE
360
16
  3
REFRACTIONTILE
360
18
  3
SPECULARTILE
360
15
  0
DICTIONARY
  5
22
330
21
100
AcDbDictionary
280
     1
281
     1
  3
BUMPTILE
360
24
  3
DIFFUSETILE
360
23
  3
OPACITYTILE
360
27
  3
REFLECTIONTILE
360
26
  3
REFRACTIONTILE
360
28
  3
SPECULARTILE
360
25
  0
DICTIONARY
  5
2E1
330
67
100
AcDbDictionary
280
     1
281
     1
  3
ACAD_XREC_ROUNDTRIP
360
2E2
  0
DICTIONARY
  5
2E3
330
69
100
AcDbDictionary
280
     1
281
     1
  3
ACAD_XREC_ROUNDTRIP
360
2E4
  0
DICTIONARY
  5
2AE
330
65
100
AcDbDictionary
280
     1
281
     1
  3
ACAD_ROUNDTRIP_2008_TABLESTYLE_CELLSTYLEMAP
360
2AF
  0
DICTIONARY
  5
2BB
330
2F
100
AcDbDictionary
280
     1
281
     1
  3
ACAD_XREC_ROUNDTRIP
360
2BC
  0
DICTIONARY
  5
2B9
330
2E
100
AcDbDictionary
280
     1
281
     1
  3
ACAD_XREC_ROUNDTRIP
360
2BA
  0
DICTIONARY
  5
2C7
330
35
100
AcDbDictionary
280
     1
281
     1
  3
ACAD_XREC_ROUNDTRIP
360
2C8
  0
DICTIONARY
  5
2CF
330
39
100
AcDbDictionary
280
     1
281
     1
  3
ACAD_XREC_ROUNDTRIP
360
2D0
  0
DICTIONARY
  5
2C1
330
32
100
AcDbDictionary
280
     1
281
     1
  3
ACAD_XREC_ROUNDTRIP
360
2C2
  0
DICTIONARY
  5
2C5
330
34
100
AcDbDictionary
280
     1
281
     1
  3
ACAD_XREC_ROUNDTRIP
360
2C6
  0
DICTIONARY
  5
2DF
330
41
100
AcDbDictionary
280
     1
281
     1
  3
ACAD_XREC_ROUNDTRIP
360
2E0
  0
DICTIONARY
  5
2CD
330
38
100
AcDbDictionary
280
     1
281
     1
  3
ACAD_XREC_ROUNDTRIP
360
2CE
  0
DICTIONARY
  5
2B1
330
2A
100
AcDbDictionary
280
     1
281
     1
  3
ACAD_XREC_ROUNDTRIP
360
2B2
  0
DICTIONARY
  5
2B3
330
2B
100
AcDbDictionary
280
     1
281
     1
  3
ACAD_XREC_ROUNDTRIP
360
2B4
  0
DICTIONARY
  5
2B5
330
2C
100
AcDbDictionary
280
     1
281
     1
  3
ACAD_XREC_ROUNDTRIP
360
2B6
  0
DICTIONARY
  5
2B7
330
2D
100
AcDbDictionary
280
     1
281
     1
  3
ACAD_XREC_ROUNDTRIP
360
2B8
  0
DICTIONARY
  5
2BF
330
31
100
AcDbDictionary
280
     1
281
     1
  3
ACAD_XREC_ROUNDTRIP
360
2C0
  0
DICTIONARY
  5
2DB
330
3F
100
AcDbDictionary
280
     1
281
     1
  3
ACAD_XREC_ROUNDTRIP
360
2DC
  0
DICTIONARY
  5
2CB
330
37
100
AcDbDictionary
280
     1
281
     1
  3
ACAD_XREC_ROUNDTRIP
360
2CC
  0
DICTIONARY
  5
2DD
330
40
100
AcDbDictionary
280
     1
281
     1
  3
ACAD_XREC_ROUNDTRIP
360
2DE
  0
DICTIONARY
  5
2C3
330
33
100
AcDbDictionary
280
     1
281
     1
  3
ACAD_XREC_ROUNDTRIP
360
2C4
  0
DICTIONARY
  5
2D9
330
3E
100
AcDbDictionary
280
     1
281
     1
  3
ACAD_XREC_ROUNDTRIP
360
2DA
  0
DICTIONARY
  5
2D7
330
3D
100
AcDbDictionary
280
     1
281
     1
  3
ACAD_XREC_ROUNDTRIP
360
2D8
  0
DICTIONARY
  5
2D1
330
3A
100
AcDbDictionary
280
     1
281
     1
  3
ACAD_XREC_ROUNDTRIP
360
2D2
  0
DICTIONARY
  5
2D3
330
3B
100
AcDbDictionary
280
     1
281
     1
  3
ACAD_XREC_ROUNDTRIP
360
2D4
  0
DICTIONARY
  5
2C9
330
36
100
AcDbDictionary
280
     1
281
     1
  3
ACAD_XREC_ROUNDTRIP
360
2CA
  0
DICTIONARY
  5
2BD
330
30
100
AcDbDictionary
280
     1
281
     1
  3
ACAD_XREC_ROUNDTRIP
360
2BE
  0
DICTIONARY
  5
2D5
330
3C
100
AcDbDictionary
280
     1
281
     1
  3
ACAD_XREC_ROUNDTRIP
360
2D6
  0
XRECORD
  5
2E6
102
{ACAD_REACTORS
330
2E5
102
}
330
2E5
100
AcDbXrecord
280
     1
102
DISPLAYNAME
  1
Imperial24
102
FLAGS
 90
        0
  0
XRECORD
  5
1C
102
{ACAD_REACTORS
330
1A
102
}
330
1A
100
AcDbXrecord
280
     1
270
     1
271
     1
  0
XRECORD
  5
1B
102
{ACAD_REACTORS
330
1A
102
}
330
1A
100
AcDbXrecord
280
     1
270
     1
271
     1
  0
XRECORD
  5
1F
102
{ACAD_REACTORS
330
1A
102
}
330
1A
100
AcDbXrecord
280
     1
270
     1
271
     1
  0
XRECORD
  5
1E
102
{ACAD_REACTORS
330
1A
102
}
330
1A
100
AcDbXrecord
280
     1
270
     1
271
     1
  0
XRECORD
  5
20
102
{ACAD_REACTORS
330
1A
102
}
330
1A
100
AcDbXrecord
280
     1
270
     1
271
     1
  0
XRECORD
  5
1D
102
{ACAD_REACTORS
330
1A
102
}
330
1A
100
AcDbXrecord
280
     1
270
     1
271
     1
  0
XRECORD
  5
14
102
{ACAD_REACTORS
330
12
102
}
330
12
100
AcDbXrecord
280
     1
270
     1
271
     1
  0
XRECORD
  5
13
102
{ACAD_REACTORS
330
12
102
}
330
12
100
AcDbXrecord
280
     1
270
     1
271
     1
  0
XRECORD
  5
17
102
{ACAD_REACTORS
330
12
102
}
330
12
100
AcDbXrecord
280
     1
270
     1
271
     1
  0
XRECORD
  5
16
102
{ACAD_REACTORS
330
12
102
}
330
12
100
AcDbXrecord
280
     1
270
     1
271
     1
  0
XRECORD
  5
18
102
{ACAD_REACTORS
330
12
102
}
330
12
100
AcDbXrecord
280
     1
270
     1
271
     1
  0
XRECORD
  5
15
102
{ACAD_REACTORS
330
12
102
}
330
12
100
AcDbXrecord
280
     1
270
     1
271
     1
  0
XRECORD
  5
24
102
{ACAD_REACTORS
330
22
102
}
330
22
100
AcDbXrecord
280
     1
270
     1
271
     1
  0
XRECORD
  5
23
102
{ACAD_REACTORS
330
22
102
}
330
22
100
AcDbXrecord
280
     1
270
     1
271
     1
  0
XRECORD
  5
27
102
{ACAD_REACTORS
330
22
102
}
330
22
100
AcDbXrecord
280
     1
270
     1
271
     1
  0
XRECORD
  5
26
102
{ACAD_REACTORS
330
22
102
}
330
22
100
AcDbXrecord
280
     1
270
     1
271
     1
  0
XRECORD
  5
28
102
{ACAD_REACTORS
330
22
102
}
330
22
100
AcDbXrecord
280
     1
270
     1
271
     1
  0
XRECORD
  5
25
102
{ACAD_REACTORS
330
22
102
}
330
22
100
AcDbXrecord
280
     1
270
     1
271
     1
  0
XRECORD
  5
2E2
102
{ACAD_REACTORS
330
2E1
102
}
330
2E1
100
AcDbXrecord
280
     1
102
ACAD_ROUNDTRIP_2012_MLEADER_STYLE
298
     1
  0
XRECORD
  5
2E4
102
{ACAD_REACTORS
330
2E3
102
}
330
2E3
100
AcDbXrecord
280
     1
102
DISPLAYNAME
  1
Imperial24
102
FLAGS
 90
        0
  0
CELLSTYLEMAP
  5
2AF
102
{ACAD_REACTORS
330
2AE
102
}
330
2AE
100
AcDbCellStyleMap
 90
        3
300
CELLSTYLE
  1
TABLEFORMAT_BEGIN
 90
        5
170
     1
 91
        0
 92
    32768
 62
   257
 93
        1
300
CONTENTFORMAT
  1
CONTENTFORMAT_BEGIN
 90
        0
 91
        0
 92
      512
 93
        0
300

 40
0.0
140
1.0
 94
        5
 62
     0
340
55
144
0.25
309
CONTENTFORMAT_END
171
     0
 94
        0
309
TABLEFORMAT_END
  1
CELLSTYLE_BEGIN
 90
        1
 91
        1
300
_TITLE
309
CELLSTYLE_END
300
CELLSTYLE
  1
TABLEFORMAT_BEGIN
 90
        5
170
     1
 91
        0
 92
        0
 62
   257
 93
        1
300
CONTENTFORMAT
  1
CONTENTFORMAT_BEGIN
 90
        0
 91
        0
 92
      512
 93
        0
300

 40
0.0
140
1.0
 94
        5
 62
     0
340
55
144
0.18
309
CONTENTFORMAT_END
171
     0
 94
        0
309
TABLEFORMAT_END
  1
CELLSTYLE_BEGIN
 90
        2
 91
        1
300
_HEADER
309
CELLSTYLE_END
300
CELLSTYLE
  1
TABLEFORMAT_BEGIN
 90
        5
170
     1
 91
        0
 92
        0
 62
   257
 93
        1
300
CONTENTFORMAT
  1
CONTENTFORMAT_BEGIN
 90
        0
 91
        0
 92
      512
 93
        0
300

 40
0.0
140
1.0
 94
        2
 62
     0
340
55
144
0.18
309
CONTENTFORMAT_END
171
     0
 94
        0
309
TABLEFORMAT_END
  1
CELLSTYLE_BEGIN
 90
        3
 91
        2
300
_DATA
309
CELLSTYLE_END
  0
XRECORD
  5
2BC
102
{ACAD_REACTORS
330
2BB
102
}
330
2BB
100
AcDbXrecord
280
     1
102
RTVSPost2010Prop28
280
     1
102
RTVSPost2010PropOp28
 70
     1
102
RTVSPost2010Prop29
280
     1
102
RTVSPost2010PropOp29
 70
     1
102
RTVSPost2010Prop30
280
     0
102
RTVSPost2010PropOp30
 70
     1
102
RTVSPost2010Prop31
280
     0
102
RTVSPost2010PropOp31
 70
     1
102
RTVSPost2010Prop32
280
     0
102
RTVSPost2010PropOp32
 70
     1
102
RTVSPost2010Prop33
280
     0
102
RTVSPost2010PropOp33
 70
     1
102
RTVSPost2010Prop34
280
     0
102
RTVSPost2010PropOp34
 70
     1
102
RTVSPost2010Prop35
280
     0
102
RTVSPost2010PropOp35
 70
     1
102
RTVSPost2010Prop36
280
     0
102
RTVSPost2010PropOp36
 70
     1
102
RTVSPost2010Prop37
 90
       50
102
RTVSPost2010PropOp37
 70
     1
102
RTVSPost2010Prop38
140
0.0
102
RTVSPost2010PropOp38
 70
     1
102
RTVSPost2010Prop39
140
1.0
102
RTVSPost2010PropOp39
 70
     1
102
RTVSPost2010Prop40
 90
        0
102
RTVSPost2010PropOp40
 70
     1
102
RTVSPost2010Prop41ColorIndex
 90
       18
102
RTVSPost2010Prop41ColorRGB
 90
        0
102
RTVSPost2010PropOp41
 70
     1
102
RTVSPost2010Prop42
 90
       50
102
RTVSPost2010PropOp42
 70
     1
102
RTVSPost2010Prop43
 90
        3
102
RTVSPost2010PropOp43
 70
     1
102
RTVSPost2010Prop44ColorIndex
 90
        5
102
RTVSPost2010Prop44ColorRGB
 90
      255
102
RTVSPost2010PropOp44
 70
     1
102
RTVSPost2010Prop45
280
     0
102
RTVSPost2010PropOp45
 70
     1
102
RTVSPost2010Prop46
 90
       50
102
RTVSPost2010PropOp46
 70
     1
102
RTVSPost2010Prop47
 90
       50
102
RTVSPost2010PropOp47
 70
     1
102
RTVSPost2010Prop48
 90
       50
102
RTVSPost2010PropOp48
 70
     1
102
RTVSPost2010Prop49
280
     0
102
RTVSPost2010PropOp49
 70
     1
102
RTVSPost2010Prop50
 90
       50
102
RTVSPost2010PropOp50
 70
     1
102
RTVSPost2010Prop51ColorIndex
 90
      256
102
RTVSPost2010Prop51ColorRGB
 90
-16777216
102
RTVSPost2010PropOp51
 70
     0
102
RTVSPost2010Prop52
140
1.0
102
RTVSPost2010PropOp52
 70
     0
102
RTVSPost2010Prop53
 90
        2
102
RTVSPost2010PropOp53
 70
     1
102
RTVSPost2010Prop54
  1
strokes_ogs.tif
102
RTVSPost2010PropOp54
 70
     1
102
RTVSPost2010Prop55
280
     0
102
RTVSPost2010PropOp55
 70
     1
102
RTVSPost2010Prop56
140
1.0
102
RTVSPost2010PropOp56
 70
     1
102
RTVSPost2010Prop57
140
1.0
102
RTVSPost2010PropOp57
 70
     1
  0
XRECORD
  5
2BA
102
{ACAD_REACTORS
330
2B9
102
}
330
2B9
100
AcDbXrecord
280
     1
102
RTVSPost2010Prop28
280
     0
102
RTVSPost2010PropOp28
 70
     1
102
RTVSPost2010Prop29
280
     1
102
RTVSPost2010PropOp29
 70
     1
102
RTVSPost2010Prop30
280
     1
102
RTVSPost2010PropOp30
 70
     1
102
RTVSPost2010Prop31
280
     0
102
RTVSPost2010PropOp31
 70
     1
102
RTVSPost2010Prop32
280
     0
102
RTVSPost2010PropOp32
 70
     1
102
RTVSPost2010Prop33
280
     0
102
RTVSPost2010PropOp33
 70
     1
102
RTVSPost2010Prop34
280
     0
102
RTVSPost2010PropOp34
 70
     1
102
RTVSPost2010Prop35
280
     0
102
RTVSPost2010PropOp35
 70
     1
102
RTVSPost2010Prop36
280
     0
102
RTVSPost2010PropOp36
 70
     1
102
RTVSPost2010Prop37
 90
       50
102
RTVSPost2010PropOp37
 70
     1
102
RTVSPost2010Prop38
140
0.0
102
RTVSPost2010PropOp38
 70
     1
102
RTVSPost2010Prop39
140
1.0
102
RTVSPost2010PropOp39
 70
     1
102
RTVSPost2010Prop40
 90
        0
102
RTVSPost2010PropOp40
 70
     1
102
RTVSPost2010Prop41ColorIndex
 90
       18
102
RTVSPost2010Prop41ColorRGB
 90
        0
102
RTVSPost2010PropOp41
 70
     1
102
RTVSPost2010Prop42
 90
       50
102
RTVSPost2010PropOp42
 70
     1
102
RTVSPost2010Prop43
 90
        3
102
RTVSPost2010PropOp43
 70
     1
102
RTVSPost2010Prop44ColorIndex
 90
        5
102
RTVSPost2010Prop44ColorRGB
 90
      255
102
RTVSPost2010PropOp44
 70
     1
102
RTVSPost2010Prop45
280
     0
102
RTVSPost2010PropOp45
 70
     1
102
RTVSPost2010Prop46
 90
       50
102
RTVSPost2010PropOp46
 70
     1
102
RTVSPost2010Prop47
 90
       50
102
RTVSPost2010PropOp47
 70
     1
102
RTVSPost2010Prop48
 90
       50
102
RTVSPost2010PropOp48
 70
     1
102
RTVSPost2010Prop49
280
     0
102
RTVSPost2010PropOp49
 70
     1
102
RTVSPost2010Prop50
 90
       50
102
RTVSPost2010PropOp50
 70
     1
102
RTVSPost2010Prop51ColorIndex
 90
      256
102
RTVSPost2010Prop51ColorRGB
 90
-16777216
102
RTVSPost2010PropOp51
 70
     0
102
RTVSPost2010Prop52
140
1.0
102
RTVSPost2010PropOp52
 70
     0
102
RTVSPost2010Prop53
 90
        2
102
RTVSPost2010PropOp53
 70
     1
102
RTVSPost2010Prop54
  1
strokes_ogs.tif
102
RTVSPost2010PropOp54
 70
     1
102
RTVSPost2010Prop55
280
     0
102
RTVSPost2010PropOp55
 70
     1
102
RTVSPost2010Prop56
140
1.0
102
RTVSPost2010PropOp56
 70
     1
102
RTVSPost2010Prop57
140
1.0
102
RTVSPost2010PropOp57
 70
     1
  0
XRECORD
  5
2C8
102
{ACAD_REACTORS
330
2C7
102
}
330
2C7
100
AcDbXrecord
280
     1
102
RTVSPost2010Prop28
280
     0
102
RTVSPost2010PropOp28
 70
     1
102
RTVSPost2010Prop29
280
     1
102
RTVSPost2010PropOp29
 70
     1
102
RTVSPost2010Prop30
280
     1
102
RTVSPost2010PropOp30
 70
     1
102
RTVSPost2010Prop31
280
     0
102
RTVSPost2010PropOp31
 70
     1
102
RTVSPost2010Prop32
280
     0
102
RTVSPost2010PropOp32
 70
     1
102
RTVSPost2010Prop33
280
     0
102
RTVSPost2010PropOp33
 70
     1
102
RTVSPost2010Prop34
280
     0
102
RTVSPost2010PropOp34
 70
     1
102
RTVSPost2010Prop35
280
     0
102
RTVSPost2010PropOp35
 70
     1
102
RTVSPost2010Prop36
280
     0
102
RTVSPost2010PropOp36
 70
     1
102
RTVSPost2010Prop37
 90
       50
102
RTVSPost2010PropOp37
 70
     1
102
RTVSPost2010Prop38
140
0.0
102
RTVSPost2010PropOp38
 70
     1
102
RTVSPost2010Prop39
140
1.0
102
RTVSPost2010PropOp39
 70
     1
102
RTVSPost2010Prop40
 90
        0
102
RTVSPost2010PropOp40
 70
     1
102
RTVSPost2010Prop41ColorIndex
 90
       18
102
RTVSPost2010Prop41ColorRGB
 90
        0
102
RTVSPost2010PropOp41
 70
     1
102
RTVSPost2010Prop42
 90
       50
102
RTVSPost2010PropOp42
 70
     1
102
RTVSPost2010Prop43
 90
        3
102
RTVSPost2010PropOp43
 70
     1
102
RTVSPost2010Prop44ColorIndex
 90
        5
102
RTVSPost2010Prop44ColorRGB
 90
      255
102
RTVSPost2010PropOp44
 70
     1
102
RTVSPost2010Prop45
280
     0
102
RTVSPost2010PropOp45
 70
     1
102
RTVSPost2010Prop46
 90
       50
102
RTVSPost2010PropOp46
 70
     1
102
RTVSPost2010Prop47
 90
       50
102
RTVSPost2010PropOp47
 70
     1
102
RTVSPost2010Prop48
 90
       50
102
RTVSPost2010PropOp48
 70
     1
102
RTVSPost2010Prop49
280
     0
102
RTVSPost2010PropOp49
 70
     1
102
RTVSPost2010Prop50
 90
       50
102
RTVSPost2010PropOp50
 70
     1
102
RTVSPost2010Prop51ColorIndex
 90
      256
102
RTVSPost2010Prop51ColorRGB
 90
-16777216
102
RTVSPost2010PropOp51
 70
     0
102
RTVSPost2010Prop52
140
1.0
102
RTVSPost2010PropOp52
 70
     0
102
RTVSPost2010Prop53
 90
        2
102
RTVSPost2010PropOp53
 70
     1
102
RTVSPost2010Prop54
  1
strokes_ogs.tif
102
RTVSPost2010PropOp54
 70
     1
102
RTVSPost2010Prop55
280
     0
102
RTVSPost2010PropOp55
 70
     1
102
RTVSPost2010Prop56
140
1.0
102
RTVSPost2010PropOp56
 70
     1
102
RTVSPost2010Prop57
140
1.0
102
RTVSPost2010PropOp57
 70
     1
  0
XRECORD
  5
2D0
102
{ACAD_REACTORS
330
2CF
102
}
330
2CF
100
AcDbXrecord
280
     1
102
RTVSPost2010Prop28
280
     0
102
RTVSPost2010PropOp28
 70
     1
102
RTVSPost2010Prop29
280
     1
102
RTVSPost2010PropOp29
 70
     1
102
RTVSPost2010Prop30
280
     1
102
RTVSPost2010PropOp30
 70
     1
102
RTVSPost2010Prop31
280
     0
102
RTVSPost2010PropOp31
 70
     1
102
RTVSPost2010Prop32
280
     0
102
RTVSPost2010PropOp32
 70
     1
102
RTVSPost2010Prop33
280
     0
102
RTVSPost2010PropOp33
 70
     1
102
RTVSPost2010Prop34
280
     0
102
RTVSPost2010PropOp34
 70
     1
102
RTVSPost2010Prop35
280
     0
102
RTVSPost2010PropOp35
 70
     1
102
RTVSPost2010Prop36
280
     0
102
RTVSPost2010PropOp36
 70
     1
102
RTVSPost2010Prop37
 90
       50
102
RTVSPost2010PropOp37
 70
     1
102
RTVSPost2010Prop38
140
0.0
102
RTVSPost2010PropOp38
 70
     1
102
RTVSPost2010Prop39
140
1.0
102
RTVSPost2010PropOp39
 70
     1
102
RTVSPost2010Prop40
 90
        0
102
RTVSPost2010PropOp40
 70
     1
102
RTVSPost2010Prop41ColorIndex
 90
       18
102
RTVSPost2010Prop41ColorRGB
 90
        0
102
RTVSPost2010PropOp41
 70
     1
102
RTVSPost2010Prop42
 90
       50
102
RTVSPost2010PropOp42
 70
     1
102
RTVSPost2010Prop43
 90
        3
102
RTVSPost2010PropOp43
 70
     1
102
RTVSPost2010Prop44ColorIndex
 90
        5
102
RTVSPost2010Prop44ColorRGB
 90
      255
102
RTVSPost2010PropOp44
 70
     1
102
RTVSPost2010Prop45
280
     0
102
RTVSPost2010PropOp45
 70
     1
102
RTVSPost2010Prop46
 90
       50
102
RTVSPost2010PropOp46
 70
     1
102
RTVSPost2010Prop47
 90
       50
102
RTVSPost2010PropOp47
 70
     1
102
RTVSPost2010Prop48
 90
       50
102
RTVSPost2010PropOp48
 70
     1
102
RTVSPost2010Prop49
280
     0
102
RTVSPost2010PropOp49
 70
     1
102
RTVSPost2010Prop50
 90
       50
102
RTVSPost2010PropOp50
 70
     1
102
RTVSPost2010Prop51ColorIndex
 90
      256
102
RTVSPost2010Prop51ColorRGB
 90
-16777216
102
RTVSPost2010PropOp51
 70
     0
102
RTVSPost2010Prop52
140
1.0
102
RTVSPost2010PropOp52
 70
     0
102
RTVSPost2010Prop53
 90
        2
102
RTVSPost2010PropOp53
 70
     1
102
RTVSPost2010Prop54
  1
strokes_ogs.tif
102
RTVSPost2010PropOp54
 70
     1
102
RTVSPost2010Prop55
280
     0
102
RTVSPost2010PropOp55
 70
     1
102
RTVSPost2010Prop56
140
1.0
102
RTVSPost2010PropOp56
 70
     1
102
RTVSPost2010Prop57
140
1.0
102
RTVSPost2010PropOp57
 70
     1
  0
XRECORD
  5
2C2
102
{ACAD_REACTORS
330
2C1
102
}
330
2C1
100
AcDbXrecord
280
     1
102
RTVSPost2010Prop28
280
     0
102
RTVSPost2010PropOp28
 70
     1
102
RTVSPost2010Prop29
280
     1
102
RTVSPost2010PropOp29
 70
     1
102
RTVSPost2010Prop30
280
     1
102
RTVSPost2010PropOp30
 70
     1
102
RTVSPost2010Prop31
280
     0
102
RTVSPost2010PropOp31
 70
     1
102
RTVSPost2010Prop32
280
     0
102
RTVSPost2010PropOp32
 70
     1
102
RTVSPost2010Prop33
280
     0
102
RTVSPost2010PropOp33
 70
     1
102
RTVSPost2010Prop34
280
     0
102
RTVSPost2010PropOp34
 70
     1
102
RTVSPost2010Prop35
280
     0
102
RTVSPost2010PropOp35
 70
     1
102
RTVSPost2010Prop36
280
     0
102
RTVSPost2010PropOp36
 70
     1
102
RTVSPost2010Prop37
 90
       50
102
RTVSPost2010PropOp37
 70
     1
102
RTVSPost2010Prop38
140
0.0
102
RTVSPost2010PropOp38
 70
     1
102
RTVSPost2010Prop39
140
1.0
102
RTVSPost2010PropOp39
 70
     1
102
RTVSPost2010Prop40
 90
        0
102
RTVSPost2010PropOp40
 70
     1
102
RTVSPost2010Prop41ColorIndex
 90
       18
102
RTVSPost2010Prop41ColorRGB
 90
        0
102
RTVSPost2010PropOp41
 70
     1
102
RTVSPost2010Prop42
 90
       50
102
RTVSPost2010PropOp42
 70
     1
102
RTVSPost2010Prop43
 90
        3
102
RTVSPost2010PropOp43
 70
     1
102
RTVSPost2010Prop44ColorIndex
 90
        5
102
RTVSPost2010Prop44ColorRGB
 90
      255
102
RTVSPost2010PropOp44
 70
     1
102
RTVSPost2010Prop45
280
     0
102
RTVSPost2010PropOp45
 70
     1
102
RTVSPost2010Prop46
 90
       50
102
RTVSPost2010PropOp46
 70
     1
102
RTVSPost2010Prop47
 90
       50
102
RTVSPost2010PropOp47
 70
     1
102
RTVSPost2010Prop48
 90
       50
102
RTVSPost2010PropOp48
 70
     1
102
RTVSPost2010Prop49
280
     0
102
RTVSPost2010PropOp49
 70
     1
102
RTVSPost2010Prop50
 90
       50
102
RTVSPost2010PropOp50
 70
     1
102
RTVSPost2010Prop51ColorIndex
 90
      256
102
RTVSPost2010Prop51ColorRGB
 90
-16777216
102
RTVSPost2010PropOp51
 70
     0
102
RTVSPost2010Prop52
140
1.0
102
RTVSPost2010PropOp52
 70
     0
102
RTVSPost2010Prop53
 90
        2
102
RTVSPost2010PropOp53
 70
     1
102
RTVSPost2010Prop54
  1
strokes_ogs.tif
102
RTVSPost2010PropOp54
 70
     1
102
RTVSPost2010Prop55
280
     0
102
RTVSPost2010PropOp55
 70
     1
102
RTVSPost2010Prop56
140
1.0
102
RTVSPost2010PropOp56
 70
     1
102
RTVSPost2010Prop57
140
1.0
102
RTVSPost2010PropOp57
 70
     1
  0
XRECORD
  5
2C6
102
{ACAD_REACTORS
330
2C5
102
}
330
2C5
100
AcDbXrecord
280
     1
102
RTVSPost2010Prop28
280
     0
102
RTVSPost2010PropOp28
 70
     1
102
RTVSPost2010Prop29
280
     1
102
RTVSPost2010PropOp29
 70
     1
102
RTVSPost2010Prop30
280
     1
102
RTVSPost2010PropOp30
 70
     1
102
RTVSPost2010Prop31
280
     0
102
RTVSPost2010PropOp31
 70
     1
102
RTVSPost2010Prop32
280
     0
102
RTVSPost2010PropOp32
 70
     1
102
RTVSPost2010Prop33
280
     0
102
RTVSPost2010PropOp33
 70
     1
102
RTVSPost2010Prop34
280
     0
102
RTVSPost2010PropOp34
 70
     1
102
RTVSPost2010Prop35
280
     0
102
RTVSPost2010PropOp35
 70
     1
102
RTVSPost2010Prop36
280
     0
102
RTVSPost2010PropOp36
 70
     1
102
RTVSPost2010Prop37
 90
       50
102
RTVSPost2010PropOp37
 70
     1
102
RTVSPost2010Prop38
140
0.0
102
RTVSPost2010PropOp38
 70
     1
102
RTVSPost2010Prop39
140
1.0
102
RTVSPost2010PropOp39
 70
     1
102
RTVSPost2010Prop40
 90
        0
102
RTVSPost2010PropOp40
 70
     1
102
RTVSPost2010Prop41ColorIndex
 90
       18
102
RTVSPost2010Prop41ColorRGB
 90
        0
102
RTVSPost2010PropOp41
 70
     1
102
RTVSPost2010Prop42
 90
       50
102
RTVSPost2010PropOp42
 70
     1
102
RTVSPost2010Prop43
 90
        3
102
RTVSPost2010PropOp43
 70
     1
102
RTVSPost2010Prop44ColorIndex
 90
        5
102
RTVSPost2010Prop44ColorRGB
 90
      255
102
RTVSPost2010PropOp44
 70
     1
102
RTVSPost2010Prop45
280
     0
102
RTVSPost2010PropOp45
 70
     1
102
RTVSPost2010Prop46
 90
       50
102
RTVSPost2010PropOp46
 70
     1
102
RTVSPost2010Prop47
 90
       50
102
RTVSPost2010PropOp47
 70
     1
102
RTVSPost2010Prop48
 90
       50
102
RTVSPost2010PropOp48
 70
     1
102
RTVSPost2010Prop49
280
     0
102
RTVSPost2010PropOp49
 70
     1
102
RTVSPost2010Prop50
 90
       50
102
RTVSPost2010PropOp50
 70
     1
102
RTVSPost2010Prop51ColorIndex
 90
      256
102
RTVSPost2010Prop51ColorRGB
 90
-16777216
102
RTVSPost2010PropOp51
 70
     0
102
RTVSPost2010Prop52
140
1.0
102
RTVSPost2010PropOp52
 70
     0
102
RTVSPost2010Prop53
 90
        2
102
RTVSPost2010PropOp53
 70
     1
102
RTVSPost2010Prop54
  1
strokes_ogs.tif
102
RTVSPost2010PropOp54
 70
     1
102
RTVSPost2010Prop55
280
     0
102
RTVSPost2010PropOp55
 70
     1
102
RTVSPost2010Prop56
140
1.0
102
RTVSPost2010PropOp56
 70
     1
102
RTVSPost2010Prop57
140
1.0
102
RTVSPost2010PropOp57
 70
     1
  0
XRECORD
  5
2E0
102
{ACAD_REACTORS
330
2DF
102
}
330
2DF
100
AcDbXrecord
280
     1
102
RTVSPost2010Prop28
280
     0
102
RTVSPost2010PropOp28
 70
     0
102
RTVSPost2010Prop29
280
     1
102
RTVSPost2010PropOp29
 70
     0
102
RTVSPost2010Prop30
280
     1
102
RTVSPost2010PropOp30
 70
     0
102
RTVSPost2010Prop31
280
     0
102
RTVSPost2010PropOp31
 70
     0
102
RTVSPost2010Prop32
280
     0
102
RTVSPost2010PropOp32
 70
     0
102
RTVSPost2010Prop33
280
     0
102
RTVSPost2010PropOp33
 70
     0
102
RTVSPost2010Prop34
280
     0
102
RTVSPost2010PropOp34
 70
     0
102
RTVSPost2010Prop35
280
     0
102
RTVSPost2010PropOp35
 70
     0
102
RTVSPost2010Prop36
280
     0
102
RTVSPost2010PropOp36
 70
     0
102
RTVSPost2010Prop37
 90
       50
102
RTVSPost2010PropOp37
 70
     0
102
RTVSPost2010Prop38
140
0.0
102
RTVSPost2010PropOp38
 70
     0
102
RTVSPost2010Prop39
140
1.0
102
RTVSPost2010PropOp39
 70
     0
102
RTVSPost2010Prop40
 90
        0
102
RTVSPost2010PropOp40
 70
     0
102
RTVSPost2010Prop41ColorIndex
 90
       18
102
RTVSPost2010Prop41ColorRGB
 90
        0
102
RTVSPost2010PropOp41
 70
     0
102
RTVSPost2010Prop42
 90
       50
102
RTVSPost2010PropOp42
 70
     0
102
RTVSPost2010Prop43
 90
        3
102
RTVSPost2010PropOp43
 70
     0
102
RTVSPost2010Prop44ColorIndex
 90
        5
102
RTVSPost2010Prop44ColorRGB
 90
      255
102
RTVSPost2010PropOp44
 70
     0
102
RTVSPost2010Prop45
280
     0
102
RTVSPost2010PropOp45
 70
     0
102
RTVSPost2010Prop46
 90
       50
102
RTVSPost2010PropOp46
 70
     0
102
RTVSPost2010Prop47
 90
       50
102
RTVSPost2010PropOp47
 70
     0
102
RTVSPost2010Prop48
 90
       50
102
RTVSPost2010PropOp48
 70
     0
102
RTVSPost2010Prop49
280
     0
102
RTVSPost2010PropOp49
 70
     0
102
RTVSPost2010Prop50
 90
       50
102
RTVSPost2010PropOp50
 70
     0
102
RTVSPost2010Prop51ColorIndex
 90
      256
102
RTVSPost2010Prop51ColorRGB
 90
-16777216
102
RTVSPost2010PropOp51
 70
     0
102
RTVSPost2010Prop52
140
1.0
102
RTVSPost2010PropOp52
 70
     0
102
RTVSPost2010Prop53
 90
        2
102
RTVSPost2010PropOp53
 70
     0
102
RTVSPost2010Prop54
  1
strokes_ogs.tif
102
RTVSPost2010PropOp54
 70
     0
102
RTVSPost2010Prop55
280
     0
102
RTVSPost2010PropOp55
 70
     0
102
RTVSPost2010Prop56
140
1.0
102
RTVSPost2010PropOp56
 70
     0
102
RTVSPost2010Prop57
140
1.0
102
RTVSPost2010PropOp57
 70
     0
  0
XRECORD
  5
2CE
102
{ACAD_REACTORS
330
2CD
102
}
330
2CD
100
AcDbXrecord
280
     1
102
RTVSPost2010Prop28
280
     0
102
RTVSPost2010PropOp28
 70
     1
102
RTVSPost2010Prop29
280
     1
102
RTVSPost2010PropOp29
 70
     1
102
RTVSPost2010Prop30
280
     1
102
RTVSPost2010PropOp30
 70
     1
102
RTVSPost2010Prop31
280
     0
102
RTVSPost2010PropOp31
 70
     1
102
RTVSPost2010Prop32
280
     0
102
RTVSPost2010PropOp32
 70
     1
102
RTVSPost2010Prop33
280
     0
102
RTVSPost2010PropOp33
 70
     1
102
RTVSPost2010Prop34
280
     0
102
RTVSPost2010PropOp34
 70
     1
102
RTVSPost2010Prop35
280
     0
102
RTVSPost2010PropOp35
 70
     1
102
RTVSPost2010Prop36
280
     0
102
RTVSPost2010PropOp36
 70
     1
102
RTVSPost2010Prop37
 90
       50
102
RTVSPost2010PropOp37
 70
     1
102
RTVSPost2010Prop38
140
0.0
102
RTVSPost2010PropOp38
 70
     1
102
RTVSPost2010Prop39
140
1.0
102
RTVSPost2010PropOp39
 70
     1
102
RTVSPost2010Prop40
 90
        0
102
RTVSPost2010PropOp40
 70
     1
102
RTVSPost2010Prop41ColorIndex
 90
       18
102
RTVSPost2010Prop41ColorRGB
 90
        0
102
RTVSPost2010PropOp41
 70
     1
102
RTVSPost2010Prop42
 90
       50
102
RTVSPost2010PropOp42
 70
     1
102
RTVSPost2010Prop43
 90
        3
102
RTVSPost2010PropOp43
 70
     1
102
RTVSPost2010Prop44ColorIndex
 90
        5
102
RTVSPost2010Prop44ColorRGB
 90
      255
102
RTVSPost2010PropOp44
 70
     1
102
RTVSPost2010Prop45
280
     0
102
RTVSPost2010PropOp45
 70
     1
102
RTVSPost2010Prop46
 90
       50
102
RTVSPost2010PropOp46
 70
     1
102
RTVSPost2010Prop47
 90
       50
102
RTVSPost2010PropOp47
 70
     1
102
RTVSPost2010Prop48
 90
       50
102
RTVSPost2010PropOp48
 70
     1
102
RTVSPost2010Prop49
280
     0
102
RTVSPost2010PropOp49
 70
     1
102
RTVSPost2010Prop50
 90
       50
102
RTVSPost2010PropOp50
 70
     1
102
RTVSPost2010Prop51ColorIndex
 90
      256
102
RTVSPost2010Prop51ColorRGB
 90
-16777216
102
RTVSPost2010PropOp51
 70
     0
102
RTVSPost2010Prop52
140
1.0
102
RTVSPost2010PropOp52
 70
     0
102
RTVSPost2010Prop53
 90
        2
102
RTVSPost2010PropOp53
 70
     1
102
RTVSPost2010Prop54
  1
strokes_ogs.tif
102
RTVSPost2010PropOp54
 70
     1
102
RTVSPost2010Prop55
280
     0
102
RTVSPost2010PropOp55
 70
     1
102
RTVSPost2010Prop56
140
1.0
102
RTVSPost2010PropOp56
 70
     1
102
RTVSPost2010Prop57
140
1.0
102
RTVSPost2010PropOp57
 70
     1
  0
XRECORD
  5
2B2
102
{ACAD_REACTORS
330
2B1
102
}
330
2B1
100
AcDbXrecord
280
     1
102
RTVSPost2010Prop28
280
     0
102
RTVSPost2010PropOp28
 70
     1
102
RTVSPost2010Prop29
280
     1
102
RTVSPost2010PropOp29
 70
     1
102
RTVSPost2010Prop30
280
     1
102
RTVSPost2010PropOp30
 70
     1
102
RTVSPost2010Prop31
280
     0
102
RTVSPost2010PropOp31
 70
     1
102
RTVSPost2010Prop32
280
     0
102
RTVSPost2010PropOp32
 70
     1
102
RTVSPost2010Prop33
280
     0
102
RTVSPost2010PropOp33
 70
     1
102
RTVSPost2010Prop34
280
     0
102
RTVSPost2010PropOp34
 70
     1
102
RTVSPost2010Prop35
280
     0
102
RTVSPost2010PropOp35
 70
     1
102
RTVSPost2010Prop36
280
     0
102
RTVSPost2010PropOp36
 70
     1
102
RTVSPost2010Prop37
 90
       50
102
RTVSPost2010PropOp37
 70
     1
102
RTVSPost2010Prop38
140
0.0
102
RTVSPost2010PropOp38
 70
     1
102
RTVSPost2010Prop39
140
1.0
102
RTVSPost2010PropOp39
 70
     1
102
RTVSPost2010Prop40
 90
        0
102
RTVSPost2010PropOp40
 70
     1
102
RTVSPost2010Prop41ColorIndex
 90
       18
102
RTVSPost2010Prop41ColorRGB
 90
        0
102
RTVSPost2010PropOp41
 70
     1
102
RTVSPost2010Prop42
 90
       50
102
RTVSPost2010PropOp42
 70
     1
102
RTVSPost2010Prop43
 90
        3
102
RTVSPost2010PropOp43
 70
     1
102
RTVSPost2010Prop44ColorIndex
 90
        5
102
RTVSPost2010Prop44ColorRGB
 90
      255
102
RTVSPost2010PropOp44
 70
     1
102
RTVSPost2010Prop45
280
     0
102
RTVSPost2010PropOp45
 70
     1
102
RTVSPost2010Prop46
 90
       50
102
RTVSPost2010PropOp46
 70
     1
102
RTVSPost2010Prop47
 90
       50
102
RTVSPost2010PropOp47
 70
     1
102
RTVSPost2010Prop48
 90
       50
102
RTVSPost2010PropOp48
 70
     1
102
RTVSPost2010Prop49
280
     0
102
RTVSPost2010PropOp49
 70
     1
102
RTVSPost2010Prop50
 90
       50
102
RTVSPost2010PropOp50
 70
     1
102
RTVSPost2010Prop51ColorIndex
 90
      256
102
RTVSPost2010Prop51ColorRGB
 90
-16777216
102
RTVSPost2010PropOp51
 70
     0
102
RTVSPost2010Prop52
140
1.0
102
RTVSPost2010PropOp52
 70
     0
102
RTVSPost2010Prop53
 90
        2
102
RTVSPost2010PropOp53
 70
     1
102
RTVSPost2010Prop54
  1
strokes_ogs.tif
102
RTVSPost2010PropOp54
 70
     1
102
RTVSPost2010Prop55
280
     0
102
RTVSPost2010PropOp55
 70
     1
102
RTVSPost2010Prop56
140
1.0
102
RTVSPost2010PropOp56
 70
     1
102
RTVSPost2010Prop57
140
1.0
102
RTVSPost2010PropOp57
 70
     1
  0
XRECORD
  5
2B4
102
{ACAD_REACTORS
330
2B3
102
}
330
2B3
100
AcDbXrecord
280
     1
102
RTVSPost2010Prop28
280
     0
102
RTVSPost2010PropOp28
 70
     1
102
RTVSPost2010Prop29
280
     1
102
RTVSPost2010PropOp29
 70
     1
102
RTVSPost2010Prop30
280
     1
102
RTVSPost2010PropOp30
 70
     1
102
RTVSPost2010Prop31
280
     0
102
RTVSPost2010PropOp31
 70
     1
102
RTVSPost2010Prop32
280
     0
102
RTVSPost2010PropOp32
 70
     1
102
RTVSPost2010Prop33
280
     0
102
RTVSPost2010PropOp33
 70
     1
102
RTVSPost2010Prop34
280
     0
102
RTVSPost2010PropOp34
 70
     1
102
RTVSPost2010Prop35
280
     0
102
RTVSPost2010PropOp35
 70
     1
102
RTVSPost2010Prop36
280
     0
102
RTVSPost2010PropOp36
 70
     1
102
RTVSPost2010Prop37
 90
       50
102
RTVSPost2010PropOp37
 70
     1
102
RTVSPost2010Prop38
140
0.0
102
RTVSPost2010PropOp38
 70
     1
102
RTVSPost2010Prop39
140
1.0
102
RTVSPost2010PropOp39
 70
     1
102
RTVSPost2010Prop40
 90
        0
102
RTVSPost2010PropOp40
 70
     1
102
RTVSPost2010Prop41ColorIndex
 90
       18
102
RTVSPost2010Prop41ColorRGB
 90
        0
102
RTVSPost2010PropOp41
 70
     1
102
RTVSPost2010Prop42
 90
       50
102
RTVSPost2010PropOp42
 70
     1
102
RTVSPost2010Prop43
 90
        3
102
RTVSPost2010PropOp43
 70
     1
102
RTVSPost2010Prop44ColorIndex
 90
        5
102
RTVSPost2010Prop44ColorRGB
 90
      255
102
RTVSPost2010PropOp44
 70
     1
102
RTVSPost2010Prop45
280
     0
102
RTVSPost2010PropOp45
 70
     1
102
RTVSPost2010Prop46
 90
       50
102
RTVSPost2010PropOp46
 70
     1
102
RTVSPost2010Prop47
 90
       50
102
RTVSPost2010PropOp47
 70
     1
102
RTVSPost2010Prop48
 90
       50
102
RTVSPost2010PropOp48
 70
     1
102
RTVSPost2010Prop49
280
     0
102
RTVSPost2010PropOp49
 70
     1
102
RTVSPost2010Prop50
 90
       50
102
RTVSPost2010PropOp50
 70
     1
102
RTVSPost2010Prop51ColorIndex
 90
      256
102
RTVSPost2010Prop51ColorRGB
 90
-16777216
102
RTVSPost2010PropOp51
 70
     0
102
RTVSPost2010Prop52
140
1.0
102
RTVSPost2010PropOp52
 70
     0
102
RTVSPost2010Prop53
 90
        2
102
RTVSPost2010PropOp53
 70
     1
102
RTVSPost2010Prop54
  1
strokes_ogs.tif
102
RTVSPost2010PropOp54
 70
     1
102
RTVSPost2010Prop55
280
     0
102
RTVSPost2010PropOp55
 70
     1
102
RTVSPost2010Prop56
140
1.0
102
RTVSPost2010PropOp56
 70
     1
102
RTVSPost2010Prop57
140
1.0
102
RTVSPost2010PropOp57
 70
     1
  0
XRECORD
  5
2B6
102
{ACAD_REACTORS
330
2B5
102
}
330
2B5
100
AcDbXrecord
280
     1
102
RTVSPost2010Prop28
280
     0
102
RTVSPost2010PropOp28
 70
     1
102
RTVSPost2010Prop29
280
     1
102
RTVSPost2010PropOp29
 70
     1
102
RTVSPost2010Prop30
280
     1
102
RTVSPost2010PropOp30
 70
     1
102
RTVSPost2010Prop31
280
     0
102
RTVSPost2010PropOp31
 70
     1
102
RTVSPost2010Prop32
280
     0
102
RTVSPost2010PropOp32
 70
     1
102
RTVSPost2010Prop33
280
     0
102
RTVSPost2010PropOp33
 70
     1
102
RTVSPost2010Prop34
280
     0
102
RTVSPost2010PropOp34
 70
     1
102
RTVSPost2010Prop35
280
     0
102
RTVSPost2010PropOp35
 70
     1
102
RTVSPost2010Prop36
280
     0
102
RTVSPost2010PropOp36
 70
     1
102
RTVSPost2010Prop37
 90
       50
102
RTVSPost2010PropOp37
 70
     1
102
RTVSPost2010Prop38
140
0.0
102
RTVSPost2010PropOp38
 70
     1
102
RTVSPost2010Prop39
140
1.0
102
RTVSPost2010PropOp39
 70
     1
102
RTVSPost2010Prop40
 90
        0
102
RTVSPost2010PropOp40
 70
     1
102
RTVSPost2010Prop41ColorIndex
 90
       18
102
RTVSPost2010Prop41ColorRGB
 90
        0
102
RTVSPost2010PropOp41
 70
     1
102
RTVSPost2010Prop42
 90
       50
102
RTVSPost2010PropOp42
 70
     1
102
RTVSPost2010Prop43
 90
        3
102
RTVSPost2010PropOp43
 70
     1
102
RTVSPost2010Prop44ColorIndex
 90
        5
102
RTVSPost2010Prop44ColorRGB
 90
      255
102
RTVSPost2010PropOp44
 70
     1
102
RTVSPost2010Prop45
280
     0
102
RTVSPost2010PropOp45
 70
     1
102
RTVSPost2010Prop46
 90
       50
102
RTVSPost2010PropOp46
 70
     1
102
RTVSPost2010Prop47
 90
       50
102
RTVSPost2010PropOp47
 70
     1
102
RTVSPost2010Prop48
 90
       50
102
RTVSPost2010PropOp48
 70
     1
102
RTVSPost2010Prop49
280
     0
102
RTVSPost2010PropOp49
 70
     1
102
RTVSPost2010Prop50
 90
       50
102
RTVSPost2010PropOp50
 70
     1
102
RTVSPost2010Prop51ColorIndex
 90
      256
102
RTVSPost2010Prop51ColorRGB
 90
-16777216
102
RTVSPost2010PropOp51
 70
     0
102
RTVSPost2010Prop52
140
1.0
102
RTVSPost2010PropOp52
 70
     0
102
RTVSPost2010Prop53
 90
        2
102
RTVSPost2010PropOp53
 70
     1
102
RTVSPost2010Prop54
  1
strokes_ogs.tif
102
RTVSPost2010PropOp54
 70
     1
102
RTVSPost2010Prop55
280
     0
102
RTVSPost2010PropOp55
 70
     1
102
RTVSPost2010Prop56
140
1.0
102
RTVSPost2010PropOp56
 70
     1
102
RTVSPost2010Prop57
140
1.0
102
RTVSPost2010PropOp57
 70
     1
  0
XRECORD
  5
2B8
102
{ACAD_REACTORS
330
2B7
102
}
330
2B7
100
AcDbXrecord
280
     1
102
RTVSPost2010Prop28
280
     0
102
RTVSPost2010PropOp28
 70
     1
102
RTVSPost2010Prop29
280
     1
102
RTVSPost2010PropOp29
 70
     1
102
RTVSPost2010Prop30
280
     1
102
RTVSPost2010PropOp30
 70
     1
102
RTVSPost2010Prop31
280
     0
102
RTVSPost2010PropOp31
 70
     1
102
RTVSPost2010Prop32
280
     0
102
RTVSPost2010PropOp32
 70
     1
102
RTVSPost2010Prop33
280
     0
102
RTVSPost2010PropOp33
 70
     1
102
RTVSPost2010Prop34
280
     0
102
RTVSPost2010PropOp34
 70
     1
102
RTVSPost2010Prop35
280
     0
102
RTVSPost2010PropOp35
 70
     1
102
RTVSPost2010Prop36
280
     0
102
RTVSPost2010PropOp36
 70
     1
102
RTVSPost2010Prop37
 90
       50
102
RTVSPost2010PropOp37
 70
     1
102
RTVSPost2010Prop38
140
0.0
102
RTVSPost2010PropOp38
 70
     1
102
RTVSPost2010Prop39
140
1.0
102
RTVSPost2010PropOp39
 70
     1
102
RTVSPost2010Prop40
 90
        0
102
RTVSPost2010PropOp40
 70
     1
102
RTVSPost2010Prop41ColorIndex
 90
       18
102
RTVSPost2010Prop41ColorRGB
 90
        0
102
RTVSPost2010PropOp41
 70
     1
102
RTVSPost2010Prop42
 90
       50
102
RTVSPost2010PropOp42
 70
     1
102
RTVSPost2010Prop43
 90
        3
102
RTVSPost2010PropOp43
 70
     1
102
RTVSPost2010Prop44ColorIndex
 90
        5
102
RTVSPost2010Prop44ColorRGB
 90
      255
102
RTVSPost2010PropOp44
 70
     1
102
RTVSPost2010Prop45
280
     0
102
RTVSPost2010PropOp45
 70
     1
102
RTVSPost2010Prop46
 90
       50
102
RTVSPost2010PropOp46
 70
     1
102
RTVSPost2010Prop47
 90
       50
102
RTVSPost2010PropOp47
 70
     1
102
RTVSPost2010Prop48
 90
       50
102
RTVSPost2010PropOp48
 70
     1
102
RTVSPost2010Prop49
280
     0
102
RTVSPost2010PropOp49
 70
     1
102
RTVSPost2010Prop50
 90
       50
102
RTVSPost2010PropOp50
 70
     1
102
RTVSPost2010Prop51ColorIndex
 90
      256
102
RTVSPost2010Prop51ColorRGB
 90
-16777216
102
RTVSPost2010PropOp51
 70
     0
102
RTVSPost2010Prop52
140
1.0
102
RTVSPost2010PropOp52
 70
     0
102
RTVSPost2010Prop53
 90
        2
102
RTVSPost2010PropOp53
 70
     1
102
RTVSPost2010Prop54
  1
strokes_ogs.tif
102
RTVSPost2010PropOp54
 70
     1
102
RTVSPost2010Prop55
280
     0
102
RTVSPost2010PropOp55
 70
     1
102
RTVSPost2010Prop56
140
1.0
102
RTVSPost2010PropOp56
 70
     1
102
RTVSPost2010Prop57
140
1.0
102
RTVSPost2010PropOp57
 70
     1
  0
XRECORD
  5
2C0
102
{ACAD_REACTORS
330
2BF
102
}
330
2BF
100
AcDbXrecord
280
     1
102
RTVSPost2010Prop28
280
     0
102
RTVSPost2010PropOp28
 70
     1
102
RTVSPost2010Prop29
280
     1
102
RTVSPost2010PropOp29
 70
     1
102
RTVSPost2010Prop30
280
     1
102
RTVSPost2010PropOp30
 70
     1
102
RTVSPost2010Prop31
280
     0
102
RTVSPost2010PropOp31
 70
     1
102
RTVSPost2010Prop32
280
     0
102
RTVSPost2010PropOp32
 70
     1
102
RTVSPost2010Prop33
280
     0
102
RTVSPost2010PropOp33
 70
     1
102
RTVSPost2010Prop34
280
     0
102
RTVSPost2010PropOp34
 70
     1
102
RTVSPost2010Prop35
280
     0
102
RTVSPost2010PropOp35
 70
     1
102
RTVSPost2010Prop36
280
     0
102
RTVSPost2010PropOp36
 70
     1
102
RTVSPost2010Prop37
 90
       50
102
RTVSPost2010PropOp37
 70
     1
102
RTVSPost2010Prop38
140
0.0
102
RTVSPost2010PropOp38
 70
     1
102
RTVSPost2010Prop39
140
1.0
102
RTVSPost2010PropOp39
 70
     1
102
RTVSPost2010Prop40
 90
        0
102
RTVSPost2010PropOp40
 70
     1
102
RTVSPost2010Prop41ColorIndex
 90
       18
102
RTVSPost2010Prop41ColorRGB
 90
        0
102
RTVSPost2010PropOp41
 70
     1
102
RTVSPost2010Prop42
 90
       50
102
RTVSPost2010PropOp42
 70
     1
102
RTVSPost2010Prop43
 90
        3
102
RTVSPost2010PropOp43
 70
     1
102
RTVSPost2010Prop44ColorIndex
 90
        5
102
RTVSPost2010Prop44ColorRGB
 90
      255
102
RTVSPost2010PropOp44
 70
     1
102
RTVSPost2010Prop45
280
     0
102
RTVSPost2010PropOp45
 70
     1
102
RTVSPost2010Prop46
 90
       50
102
RTVSPost2010PropOp46
 70
     1
102
RTVSPost2010Prop47
 90
       50
102
RTVSPost2010PropOp47
 70
     1
102
RTVSPost2010Prop48
 90
       50
102
RTVSPost2010PropOp48
 70
     1
102
RTVSPost2010Prop49
280
     0
102
RTVSPost2010PropOp49
 70
     1
102
RTVSPost2010Prop50
 90
       50
102
RTVSPost2010PropOp50
 70
     1
102
RTVSPost2010Prop51ColorIndex
 90
      256
102
RTVSPost2010Prop51ColorRGB
 90
-16777216
102
RTVSPost2010PropOp51
 70
     0
102
RTVSPost2010Prop52
140
1.0
102
RTVSPost2010PropOp52
 70
     0
102
RTVSPost2010Prop53
 90
        2
102
RTVSPost2010PropOp53
 70
     1
102
RTVSPost2010Prop54
  1
strokes_ogs.tif
102
RTVSPost2010PropOp54
 70
     1
102
RTVSPost2010Prop55
280
     0
102
RTVSPost2010PropOp55
 70
     1
102
RTVSPost2010Prop56
140
1.0
102
RTVSPost2010PropOp56
 70
     1
102
RTVSPost2010Prop57
140
1.0
102
RTVSPost2010PropOp57
 70
     1
  0
XRECORD
  5
2DC
102
{ACAD_REACTORS
330
2DB
102
}
330
2DB
100
AcDbXrecord
280
     1
102
RTVSPost2010Prop28
280
     0
102
RTVSPost2010PropOp28
 70
     0
102
RTVSPost2010Prop29
280
     1
102
RTVSPost2010PropOp29
 70
     0
102
RTVSPost2010Prop30
280
     1
102
RTVSPost2010PropOp30
 70
     0
102
RTVSPost2010Prop31
280
     0
102
RTVSPost2010PropOp31
 70
     0
102
RTVSPost2010Prop32
280
     0
102
RTVSPost2010PropOp32
 70
     0
102
RTVSPost2010Prop33
280
     0
102
RTVSPost2010PropOp33
 70
     0
102
RTVSPost2010Prop34
280
     0
102
RTVSPost2010PropOp34
 70
     0
102
RTVSPost2010Prop35
280
     0
102
RTVSPost2010PropOp35
 70
     0
102
RTVSPost2010Prop36
280
     0
102
RTVSPost2010PropOp36
 70
     0
102
RTVSPost2010Prop37
 90
       50
102
RTVSPost2010PropOp37
 70
     0
102
RTVSPost2010Prop38
140
0.0
102
RTVSPost2010PropOp38
 70
     0
102
RTVSPost2010Prop39
140
1.0
102
RTVSPost2010PropOp39
 70
     0
102
RTVSPost2010Prop40
 90
        0
102
RTVSPost2010PropOp40
 70
     0
102
RTVSPost2010Prop41ColorIndex
 90
       18
102
RTVSPost2010Prop41ColorRGB
 90
        0
102
RTVSPost2010PropOp41
 70
     0
102
RTVSPost2010Prop42
 90
       50
102
RTVSPost2010PropOp42
 70
     0
102
RTVSPost2010Prop43
 90
        3
102
RTVSPost2010PropOp43
 70
     0
102
RTVSPost2010Prop44ColorIndex
 90
        5
102
RTVSPost2010Prop44ColorRGB
 90
      255
102
RTVSPost2010PropOp44
 70
     0
102
RTVSPost2010Prop45
280
     0
102
RTVSPost2010PropOp45
 70
     0
102
RTVSPost2010Prop46
 90
       50
102
RTVSPost2010PropOp46
 70
     0
102
RTVSPost2010Prop47
 90
       50
102
RTVSPost2010PropOp47
 70
     0
102
RTVSPost2010Prop48
 90
       50
102
RTVSPost2010PropOp48
 70
     0
102
RTVSPost2010Prop49
280
     0
102
RTVSPost2010PropOp49
 70
     0
102
RTVSPost2010Prop50
 90
       50
102
RTVSPost2010PropOp50
 70
     0
102
RTVSPost2010Prop51ColorIndex
 90
      256
102
RTVSPost2010Prop51ColorRGB
 90
-16777216
102
RTVSPost2010PropOp51
 70
     0
102
RTVSPost2010Prop52
140
1.0
102
RTVSPost2010PropOp52
 70
     0
102
RTVSPost2010Prop53
 90
        2
102
RTVSPost2010PropOp53
 70
     0
102
RTVSPost2010Prop54
  1
strokes_ogs.tif
102
RTVSPost2010PropOp54
 70
     0
102
RTVSPost2010Prop55
280
     0
102
RTVSPost2010PropOp55
 70
     0
102
RTVSPost2010Prop56
140
1.0
102
RTVSPost2010PropOp56
 70
     0
102
RTVSPost2010Prop57
140
1.0
102
RTVSPost2010PropOp57
 70
     0
  0
XRECORD
  5
2CC
102
{ACAD_REACTORS
330
2CB
102
}
330
2CB
100
AcDbXrecord
280
     1
102
RTVSPost2010Prop28
280
     0
102
RTVSPost2010PropOp28
 70
     1
102
RTVSPost2010Prop29
280
     1
102
RTVSPost2010PropOp29
 70
     1
102
RTVSPost2010Prop30
280
     1
102
RTVSPost2010PropOp30
 70
     1
102
RTVSPost2010Prop31
280
     0
102
RTVSPost2010PropOp31
 70
     1
102
RTVSPost2010Prop32
280
     0
102
RTVSPost2010PropOp32
 70
     1
102
RTVSPost2010Prop33
280
     0
102
RTVSPost2010PropOp33
 70
     1
102
RTVSPost2010Prop34
280
     0
102
RTVSPost2010PropOp34
 70
     1
102
RTVSPost2010Prop35
280
     0
102
RTVSPost2010PropOp35
 70
     1
102
RTVSPost2010Prop36
280
     0
102
RTVSPost2010PropOp36
 70
     1
102
RTVSPost2010Prop37
 90
       50
102
RTVSPost2010PropOp37
 70
     1
102
RTVSPost2010Prop38
140
0.0
102
RTVSPost2010PropOp38
 70
     1
102
RTVSPost2010Prop39
140
1.0
102
RTVSPost2010PropOp39
 70
     1
102
RTVSPost2010Prop40
 90
        0
102
RTVSPost2010PropOp40
 70
     1
102
RTVSPost2010Prop41ColorIndex
 90
       18
102
RTVSPost2010Prop41ColorRGB
 90
        0
102
RTVSPost2010PropOp41
 70
     1
102
RTVSPost2010Prop42
 90
       50
102
RTVSPost2010PropOp42
 70
     1
102
RTVSPost2010Prop43
 90
        3
102
RTVSPost2010PropOp43
 70
     1
102
RTVSPost2010Prop44ColorIndex
 90
        5
102
RTVSPost2010Prop44ColorRGB
 90
      255
102
RTVSPost2010PropOp44
 70
     1
102
RTVSPost2010Prop45
280
     0
102
RTVSPost2010PropOp45
 70
     1
102
RTVSPost2010Prop46
 90
       50
102
RTVSPost2010PropOp46
 70
     1
102
RTVSPost2010Prop47
 90
       50
102
RTVSPost2010PropOp47
 70
     1
102
RTVSPost2010Prop48
 90
       50
102
RTVSPost2010PropOp48
 70
     1
102
RTVSPost2010Prop49
280
     0
102
RTVSPost2010PropOp49
 70
     1
102
RTVSPost2010Prop50
 90
       50
102
RTVSPost2010PropOp50
 70
     1
102
RTVSPost2010Prop51ColorIndex
 90
      256
102
RTVSPost2010Prop51ColorRGB
 90
-16777216
102
RTVSPost2010PropOp51
 70
     0
102
RTVSPost2010Prop52
140
1.0
102
RTVSPost2010PropOp52
 70
     0
102
RTVSPost2010Prop53
 90
        2
102
RTVSPost2010PropOp53
 70
     1
102
RTVSPost2010Prop54
  1
strokes_ogs.tif
102
RTVSPost2010PropOp54
 70
     1
102
RTVSPost2010Prop55
280
     0
102
RTVSPost2010PropOp55
 70
     1
102
RTVSPost2010Prop56
140
1.0
102
RTVSPost2010PropOp56
 70
     1
102
RTVSPost2010Prop57
140
1.0
102
RTVSPost2010PropOp57
 70
     1
  0
XRECORD
  5
2DE
102
{ACAD_REACTORS
330
2DD
102
}
330
2DD
100
AcDbXrecord
280
     1
102
RTVSPost2010Prop28
280
     0
102
RTVSPost2010PropOp28
 70
     0
102
RTVSPost2010Prop29
280
     1
102
RTVSPost2010PropOp29
 70
     0
102
RTVSPost2010Prop30
280
     1
102
RTVSPost2010PropOp30
 70
     0
102
RTVSPost2010Prop31
280
     0
102
RTVSPost2010PropOp31
 70
     0
102
RTVSPost2010Prop32
280
     0
102
RTVSPost2010PropOp32
 70
     0
102
RTVSPost2010Prop33
280
     0
102
RTVSPost2010PropOp33
 70
     0
102
RTVSPost2010Prop34
280
     0
102
RTVSPost2010PropOp34
 70
     0
102
RTVSPost2010Prop35
280
     0
102
RTVSPost2010PropOp35
 70
     0
102
RTVSPost2010Prop36
280
     0
102
RTVSPost2010PropOp36
 70
     0
102
RTVSPost2010Prop37
 90
       50
102
RTVSPost2010PropOp37
 70
     0
102
RTVSPost2010Prop38
140
0.0
102
RTVSPost2010PropOp38
 70
     0
102
RTVSPost2010Prop39
140
1.0
102
RTVSPost2010PropOp39
 70
     0
102
RTVSPost2010Prop40
 90
        0
102
RTVSPost2010PropOp40
 70
     0
102
RTVSPost2010Prop41ColorIndex
 90
       18
102
RTVSPost2010Prop41ColorRGB
 90
        0
102
RTVSPost2010PropOp41
 70
     0
102
RTVSPost2010Prop42
 90
       50
102
RTVSPost2010PropOp42
 70
     0
102
RTVSPost2010Prop43
 90
        3
102
RTVSPost2010PropOp43
 70
     0
102
RTVSPost2010Prop44ColorIndex
 90
        5
102
RTVSPost2010Prop44ColorRGB
 90
      255
102
RTVSPost2010PropOp44
 70
     0
102
RTVSPost2010Prop45
280
     0
102
RTVSPost2010PropOp45
 70
     0
102
RTVSPost2010Prop46
 90
       50
102
RTVSPost2010PropOp46
 70
     0
102
RTVSPost2010Prop47
 90
       50
102
RTVSPost2010PropOp47
 70
     0
102
RTVSPost2010Prop48
 90
       50
102
RTVSPost2010PropOp48
 70
     0
102
RTVSPost2010Prop49
280
     0
102
RTVSPost2010PropOp49
 70
     0
102
RTVSPost2010Prop50
 90
       50
102
RTVSPost2010PropOp50
 70
     0
102
RTVSPost2010Prop51ColorIndex
 90
      256
102
RTVSPost2010Prop51ColorRGB
 90
-16777216
102
RTVSPost2010PropOp51
 70
     0
102
RTVSPost2010Prop52
140
1.0
102
RTVSPost2010PropOp52
 70
     0
102
RTVSPost2010Prop53
 90
        2
102
RTVSPost2010PropOp53
 70
     0
102
RTVSPost2010Prop54
  1
strokes_ogs.tif
102
RTVSPost2010PropOp54
 70
     0
102
RTVSPost2010Prop55
280
     0
102
RTVSPost2010PropOp55
 70
     0
102
RTVSPost2010Prop56
140
1.0
102
RTVSPost2010PropOp56
 70
     0
102
RTVSPost2010Prop57
140
1.0
102
RTVSPost2010PropOp57
 70
     0
  0
XRECORD
  5
2C4
102
{ACAD_REACTORS
330
2C3
102
}
330
2C3
100
AcDbXrecord
280
     1
102
RTVSPost2010Prop28
280
     0
102
RTVSPost2010PropOp28
 70
     1
102
RTVSPost2010Prop29
280
     1
102
RTVSPost2010PropOp29
 70
     1
102
RTVSPost2010Prop30
280
     1
102
RTVSPost2010PropOp30
 70
     1
102
RTVSPost2010Prop31
280
     0
102
RTVSPost2010PropOp31
 70
     1
102
RTVSPost2010Prop32
280
     0
102
RTVSPost2010PropOp32
 70
     1
102
RTVSPost2010Prop33
280
     0
102
RTVSPost2010PropOp33
 70
     1
102
RTVSPost2010Prop34
280
     0
102
RTVSPost2010PropOp34
 70
     1
102
RTVSPost2010Prop35
280
     0
102
RTVSPost2010PropOp35
 70
     1
102
RTVSPost2010Prop36
280
     0
102
RTVSPost2010PropOp36
 70
     1
102
RTVSPost2010Prop37
 90
       50
102
RTVSPost2010PropOp37
 70
     1
102
RTVSPost2010Prop38
140
0.0
102
RTVSPost2010PropOp38
 70
     1
102
RTVSPost2010Prop39
140
1.0
102
RTVSPost2010PropOp39
 70
     1
102
RTVSPost2010Prop40
 90
        0
102
RTVSPost2010PropOp40
 70
     1
102
RTVSPost2010Prop41ColorIndex
 90
       18
102
RTVSPost2010Prop41ColorRGB
 90
        0
102
RTVSPost2010PropOp41
 70
     1
102
RTVSPost2010Prop42
 90
       50
102
RTVSPost2010PropOp42
 70
     1
102
RTVSPost2010Prop43
 90
        3
102
RTVSPost2010PropOp43
 70
     1
102
RTVSPost2010Prop44ColorIndex
 90
        5
102
RTVSPost2010Prop44ColorRGB
 90
      255
102
RTVSPost2010PropOp44
 70
     1
102
RTVSPost2010Prop45
280
     0
102
RTVSPost2010PropOp45
 70
     1
102
RTVSPost2010Prop46
 90
       50
102
RTVSPost2010PropOp46
 70
     1
102
RTVSPost2010Prop47
 90
       50
102
RTVSPost2010PropOp47
 70
     1
102
RTVSPost2010Prop48
 90
       50
102
RTVSPost2010PropOp48
 70
     1
102
RTVSPost2010Prop49
280
     0
102
RTVSPost2010PropOp49
 70
     1
102
RTVSPost2010Prop50
 90
       50
102
RTVSPost2010PropOp50
 70
     1
102
RTVSPost2010Prop51ColorIndex
 90
      256
102
RTVSPost2010Prop51ColorRGB
 90
-16777216
102
RTVSPost2010PropOp51
 70
     0
102
RTVSPost2010Prop52
140
1.0
102
RTVSPost2010PropOp52
 70
     0
102
RTVSPost2010Prop53
 90
        2
102
RTVSPost2010PropOp53
 70
     1
102
RTVSPost2010Prop54
  1
strokes_ogs.tif
102
RTVSPost2010PropOp54
 70
     1
102
RTVSPost2010Prop55
280
     0
102
RTVSPost2010PropOp55
 70
     1
102
RTVSPost2010Prop56
140
1.0
102
RTVSPost2010PropOp56
 70
     1
102
RTVSPost2010Prop57
140
1.0
102
RTVSPost2010PropOp57
 70
     1
  0
XRECORD
  5
2DA
102
{ACAD_REACTORS
330
2D9
102
}
330
2D9
100
AcDbXrecord
280
     1
102
RTVSPost2010Prop28
280
     0
102
RTVSPost2010PropOp28
 70
     1
102
RTVSPost2010Prop29
280
     1
102
RTVSPost2010PropOp29
 70
     1
102
RTVSPost2010Prop30
280
     1
102
RTVSPost2010PropOp30
 70
     1
102
RTVSPost2010Prop31
280
     0
102
RTVSPost2010PropOp31
 70
     1
102
RTVSPost2010Prop32
280
     0
102
RTVSPost2010PropOp32
 70
     1
102
RTVSPost2010Prop33
280
     0
102
RTVSPost2010PropOp33
 70
     1
102
RTVSPost2010Prop34
280
     0
102
RTVSPost2010PropOp34
 70
     1
102
RTVSPost2010Prop35
280
     0
102
RTVSPost2010PropOp35
 70
     1
102
RTVSPost2010Prop36
280
     0
102
RTVSPost2010PropOp36
 70
     1
102
RTVSPost2010Prop37
 90
       50
102
RTVSPost2010PropOp37
 70
     1
102
RTVSPost2010Prop38
140
0.0
102
RTVSPost2010PropOp38
 70
     1
102
RTVSPost2010Prop39
140
1.0
102
RTVSPost2010PropOp39
 70
     1
102
RTVSPost2010Prop40
 90
        0
102
RTVSPost2010PropOp40
 70
     1
102
RTVSPost2010Prop41ColorIndex
 90
       18
102
RTVSPost2010Prop41ColorRGB
 90
        0
102
RTVSPost2010PropOp41
 70
     1
102
RTVSPost2010Prop42
 90
       50
102
RTVSPost2010PropOp42
 70
     1
102
RTVSPost2010Prop43
 90
        3
102
RTVSPost2010PropOp43
 70
     1
102
RTVSPost2010Prop44ColorIndex
 90
        5
102
RTVSPost2010Prop44ColorRGB
 90
      255
102
RTVSPost2010PropOp44
 70
     1
102
RTVSPost2010Prop45
280
     0
102
RTVSPost2010PropOp45
 70
     1
102
RTVSPost2010Prop46
 90
       50
102
RTVSPost2010PropOp46
 70
     1
102
RTVSPost2010Prop47
 90
       50
102
RTVSPost2010PropOp47
 70
     1
102
RTVSPost2010Prop48
 90
       50
102
RTVSPost2010PropOp48
 70
     1
102
RTVSPost2010Prop49
280
     0
102
RTVSPost2010PropOp49
 70
     1
102
RTVSPost2010Prop50
 90
       50
102
RTVSPost2010PropOp50
 70
     1
102
RTVSPost2010Prop51ColorIndex
 90
      256
102
RTVSPost2010Prop51ColorRGB
 90
-16777216
102
RTVSPost2010PropOp51
 70
     0
102
RTVSPost2010Prop52
140
1.0
102
RTVSPost2010PropOp52
 70
     0
102
RTVSPost2010Prop53
 90
        2
102
RTVSPost2010PropOp53
 70
     1
102
RTVSPost2010Prop54
  1
strokes_ogs.tif
102
RTVSPost2010PropOp54
 70
     1
102
RTVSPost2010Prop55
280
     0
102
RTVSPost2010PropOp55
 70
     1
102
RTVSPost2010Prop56
140
1.0
102
RTVSPost2010PropOp56
 70
     1
102
RTVSPost2010Prop57
140
1.0
102
RTVSPost2010PropOp57
 70
     1
  0
XRECORD
  5
2D8
102
{ACAD_REACTORS
330
2D7
102
}
330
2D7
100
AcDbXrecord
280
     1
102
RTVSPost2010Prop28
280
     0
102
RTVSPost2010PropOp28
 70
     1
102
RTVSPost2010Prop29
280
     1
102
RTVSPost2010PropOp29
 70
     1
102
RTVSPost2010Prop30
280
     1
102
RTVSPost2010PropOp30
 70
     1
102
RTVSPost2010Prop31
280
     0
102
RTVSPost2010PropOp31
 70
     1
102
RTVSPost2010Prop32
280
     0
102
RTVSPost2010PropOp32
 70
     1
102
RTVSPost2010Prop33
280
     0
102
RTVSPost2010PropOp33
 70
     1
102
RTVSPost2010Prop34
280
     0
102
RTVSPost2010PropOp34
 70
     1
102
RTVSPost2010Prop35
280
     0
102
RTVSPost2010PropOp35
 70
     1
102
RTVSPost2010Prop36
280
     0
102
RTVSPost2010PropOp36
 70
     1
102
RTVSPost2010Prop37
 90
       50
102
RTVSPost2010PropOp37
 70
     1
102
RTVSPost2010Prop38
140
0.0
102
RTVSPost2010PropOp38
 70
     1
102
RTVSPost2010Prop39
140
1.0
102
RTVSPost2010PropOp39
 70
     1
102
RTVSPost2010Prop40
 90
        0
102
RTVSPost2010PropOp40
 70
     1
102
RTVSPost2010Prop41ColorIndex
 90
       18
102
RTVSPost2010Prop41ColorRGB
 90
        0
102
RTVSPost2010PropOp41
 70
     1
102
RTVSPost2010Prop42
 90
       50
102
RTVSPost2010PropOp42
 70
     1
102
RTVSPost2010Prop43
 90
        3
102
RTVSPost2010PropOp43
 70
     1
102
RTVSPost2010Prop44ColorIndex
 90
        5
102
RTVSPost2010Prop44ColorRGB
 90
      255
102
RTVSPost2010PropOp44
 70
     1
102
RTVSPost2010Prop45
280
     0
102
RTVSPost2010PropOp45
 70
     1
102
RTVSPost2010Prop46
 90
       50
102
RTVSPost2010PropOp46
 70
     1
102
RTVSPost2010Prop47
 90
       50
102
RTVSPost2010PropOp47
 70
     1
102
RTVSPost2010Prop48
 90
       50
102
RTVSPost2010PropOp48
 70
     1
102
RTVSPost2010Prop49
280
     0
102
RTVSPost2010PropOp49
 70
     1
102
RTVSPost2010Prop50
 90
       50
102
RTVSPost2010PropOp50
 70
     1
102
RTVSPost2010Prop51ColorIndex
 90
      256
102
RTVSPost2010Prop51ColorRGB
 90
-16777216
102
RTVSPost2010PropOp51
 70
     0
102
RTVSPost2010Prop52
140
1.0
102
RTVSPost2010PropOp52
 70
     0
102
RTVSPost2010Prop53
 90
        2
102
RTVSPost2010PropOp53
 70
     1
102
RTVSPost2010Prop54
  1
strokes_ogs.tif
102
RTVSPost2010PropOp54
 70
     1
102
RTVSPost2010Prop55
280
     0
102
RTVSPost2010PropOp55
 70
     1
102
RTVSPost2010Prop56
140
1.0
102
RTVSPost2010PropOp56
 70
     1
102
RTVSPost2010Prop57
140
1.0
102
RTVSPost2010PropOp57
 70
     1
  0
XRECORD
  5
2D2
102
{ACAD_REACTORS
330
2D1
102
}
330
2D1
100
AcDbXrecord
280
     1
102
RTVSPost2010Prop28
280
     0
102
RTVSPost2010PropOp28
 70
     1
102
RTVSPost2010Prop29
280
     1
102
RTVSPost2010PropOp29
 70
     1
102
RTVSPost2010Prop30
280
     1
102
RTVSPost2010PropOp30
 70
     1
102
RTVSPost2010Prop31
280
     0
102
RTVSPost2010PropOp31
 70
     1
102
RTVSPost2010Prop32
280
     0
102
RTVSPost2010PropOp32
 70
     1
102
RTVSPost2010Prop33
280
     0
102
RTVSPost2010PropOp33
 70
     1
102
RTVSPost2010Prop34
280
     0
102
RTVSPost2010PropOp34
 70
     1
102
RTVSPost2010Prop35
280
     0
102
RTVSPost2010PropOp35
 70
     1
102
RTVSPost2010Prop36
280
     0
102
RTVSPost2010PropOp36
 70
     1
102
RTVSPost2010Prop37
 90
       50
102
RTVSPost2010PropOp37
 70
     1
102
RTVSPost2010Prop38
140
0.0
102
RTVSPost2010PropOp38
 70
     1
102
RTVSPost2010Prop39
140
1.0
102
RTVSPost2010PropOp39
 70
     1
102
RTVSPost2010Prop40
 90
        0
102
RTVSPost2010PropOp40
 70
     1
102
RTVSPost2010Prop41ColorIndex
 90
       18
102
RTVSPost2010Prop41ColorRGB
 90
        0
102
RTVSPost2010PropOp41
 70
     1
102
RTVSPost2010Prop42
 90
       50
102
RTVSPost2010PropOp42
 70
     1
102
RTVSPost2010Prop43
 90
        3
102
RTVSPost2010PropOp43
 70
     1
102
RTVSPost2010Prop44ColorIndex
 90
        5
102
RTVSPost2010Prop44ColorRGB
 90
      255
102
RTVSPost2010PropOp44
 70
     1
102
RTVSPost2010Prop45
280
     0
102
RTVSPost2010PropOp45
 70
     1
102
RTVSPost2010Prop46
 90
       50
102
RTVSPost2010PropOp46
 70
     1
102
RTVSPost2010Prop47
 90
       50
102
RTVSPost2010PropOp47
 70
     1
102
RTVSPost2010Prop48
 90
       50
102
RTVSPost2010PropOp48
 70
     1
102
RTVSPost2010Prop49
280
     0
102
RTVSPost2010PropOp49
 70
     1
102
RTVSPost2010Prop50
 90
       50
102
RTVSPost2010PropOp50
 70
     1
102
RTVSPost2010Prop51ColorIndex
 90
      256
102
RTVSPost2010Prop51ColorRGB
 90
-16777216
102
RTVSPost2010PropOp51
 70
     0
102
RTVSPost2010Prop52
140
1.0
102
RTVSPost2010PropOp52
 70
     0
102
RTVSPost2010Prop53
 90
        2
102
RTVSPost2010PropOp53
 70
     1
102
RTVSPost2010Prop54
  1
strokes_ogs.tif
102
RTVSPost2010PropOp54
 70
     1
102
RTVSPost2010Prop55
280
     0
102
RTVSPost2010PropOp55
 70
     1
102
RTVSPost2010Prop56
140
1.0
102
RTVSPost2010PropOp56
 70
     1
102
RTVSPost2010Prop57
140
1.0
102
RTVSPost2010PropOp57
 70
     1
  0
XRECORD
  5
2D4
102
{ACAD_REACTORS
330
2D3
102
}
330
2D3
100
AcDbXrecord
280
     1
102
RTVSPost2010Prop28
280
     0
102
RTVSPost2010PropOp28
 70
     1
102
RTVSPost2010Prop29
280
     1
102
RTVSPost2010PropOp29
 70
     1
102
RTVSPost2010Prop30
280
     1
102
RTVSPost2010PropOp30
 70
     1
102
RTVSPost2010Prop31
280
     0
102
RTVSPost2010PropOp31
 70
     1
102
RTVSPost2010Prop32
280
     0
102
RTVSPost2010PropOp32
 70
     1
102
RTVSPost2010Prop33
280
     0
102
RTVSPost2010PropOp33
 70
     1
102
RTVSPost2010Prop34
280
     0
102
RTVSPost2010PropOp34
 70
     1
102
RTVSPost2010Prop35
280
     0
102
RTVSPost2010PropOp35
 70
     1
102
RTVSPost2010Prop36
280
     0
102
RTVSPost2010PropOp36
 70
     1
102
RTVSPost2010Prop37
 90
       50
102
RTVSPost2010PropOp37
 70
     1
102
RTVSPost2010Prop38
140
0.0
102
RTVSPost2010PropOp38
 70
     1
102
RTVSPost2010Prop39
140
1.0
102
RTVSPost2010PropOp39
 70
     1
102
RTVSPost2010Prop40
 90
        0
102
RTVSPost2010PropOp40
 70
     1
102
RTVSPost2010Prop41ColorIndex
 90
       18
102
RTVSPost2010Prop41ColorRGB
 90
        0
102
RTVSPost2010PropOp41
 70
     1
102
RTVSPost2010Prop42
 90
       50
102
RTVSPost2010PropOp42
 70
     1
102
RTVSPost2010Prop43
 90
        3
102
RTVSPost2010PropOp43
 70
     1
102
RTVSPost2010Prop44ColorIndex
 90
        5
102
RTVSPost2010Prop44ColorRGB
 90
      255
102
RTVSPost2010PropOp44
 70
     1
102
RTVSPost2010Prop45
280
     0
102
RTVSPost2010PropOp45
 70
     1
102
RTVSPost2010Prop46
 90
       50
102
RTVSPost2010PropOp46
 70
     1
102
RTVSPost2010Prop47
 90
       50
102
RTVSPost2010PropOp47
 70
     1
102
RTVSPost2010Prop48
 90
       50
102
RTVSPost2010PropOp48
 70
     1
102
RTVSPost2010Prop49
280
     0
102
RTVSPost2010PropOp49
 70
     1
102
RTVSPost2010Prop50
 90
       50
102
RTVSPost2010PropOp50
 70
     1
102
RTVSPost2010Prop51ColorIndex
 90
      256
102
RTVSPost2010Prop51ColorRGB
 90
-16777216
102
RTVSPost2010PropOp51
 70
     0
102
RTVSPost2010Prop52
140
1.0
102
RTVSPost2010PropOp52
 70
     0
102
RTVSPost2010Prop53
 90
        2
102
RTVSPost2010PropOp53
 70
     1
102
RTVSPost2010Prop54
  1
strokes_ogs.tif
102
RTVSPost2010PropOp54
 70
     1
102
RTVSPost2010Prop55
280
     0
102
RTVSPost2010PropOp55
 70
     1
102
RTVSPost2010Prop56
140
1.0
102
RTVSPost2010PropOp56
 70
     1
102
RTVSPost2010Prop57
140
1.0
102
RTVSPost2010PropOp57
 70
     1
  0
XRECORD
  5
2CA
102
{ACAD_REACTORS
330
2C9
102
}
330
2C9
100
AcDbXrecord
280
     1
102
RTVSPost2010Prop28
280
     0
102
RTVSPost2010PropOp28
 70
     1
102
RTVSPost2010Prop29
280
     1
102
RTVSPost2010PropOp29
 70
     1
102
RTVSPost2010Prop30
280
     1
102
RTVSPost2010PropOp30
 70
     1
102
RTVSPost2010Prop31
280
     0
102
RTVSPost2010PropOp31
 70
     1
102
RTVSPost2010Prop32
280
     0
102
RTVSPost2010PropOp32
 70
     1
102
RTVSPost2010Prop33
280
     0
102
RTVSPost2010PropOp33
 70
     1
102
RTVSPost2010Prop34
280
     0
102
RTVSPost2010PropOp34
 70
     1
102
RTVSPost2010Prop35
280
     0
102
RTVSPost2010PropOp35
 70
     1
102
RTVSPost2010Prop36
280
     0
102
RTVSPost2010PropOp36
 70
     1
102
RTVSPost2010Prop37
 90
       50
102
RTVSPost2010PropOp37
 70
     1
102
RTVSPost2010Prop38
140
0.0
102
RTVSPost2010PropOp38
 70
     1
102
RTVSPost2010Prop39
140
1.0
102
RTVSPost2010PropOp39
 70
     1
102
RTVSPost2010Prop40
 90
        0
102
RTVSPost2010PropOp40
 70
     1
102
RTVSPost2010Prop41ColorIndex
 90
       18
102
RTVSPost2010Prop41ColorRGB
 90
        0
102
RTVSPost2010PropOp41
 70
     1
102
RTVSPost2010Prop42
 90
       50
102
RTVSPost2010PropOp42
 70
     1
102
RTVSPost2010Prop43
 90
        3
102
RTVSPost2010PropOp43
 70
     1
102
RTVSPost2010Prop44ColorIndex
 90
        5
102
RTVSPost2010Prop44ColorRGB
 90
      255
102
RTVSPost2010PropOp44
 70
     1
102
RTVSPost2010Prop45
280
     0
102
RTVSPost2010PropOp45
 70
     1
102
RTVSPost2010Prop46
 90
       50
102
RTVSPost2010PropOp46
 70
     1
102
RTVSPost2010Prop47
 90
       50
102
RTVSPost2010PropOp47
 70
     1
102
RTVSPost2010Prop48
 90
       50
102
RTVSPost2010PropOp48
 70
     1
102
RTVSPost2010Prop49
280
     0
102
RTVSPost2010PropOp49
 70
     1
102
RTVSPost2010Prop50
 90
       50
102
RTVSPost2010PropOp50
 70
     1
102
RTVSPost2010Prop51ColorIndex
 90
      256
102
RTVSPost2010Prop51ColorRGB
 90
-16777216
102
RTVSPost2010PropOp51
 70
     0
102
RTVSPost2010Prop52
140
1.0
102
RTVSPost2010PropOp52
 70
     0
102
RTVSPost2010Prop53
 90
        2
102
RTVSPost2010PropOp53
 70
     1
102
RTVSPost2010Prop54
  1
strokes_ogs.tif
102
RTVSPost2010PropOp54
 70
     1
102
RTVSPost2010Prop55
280
     0
102
RTVSPost2010PropOp55
 70
     1
102
RTVSPost2010Prop56
140
1.0
102
RTVSPost2010PropOp56
 70
     1
102
RTVSPost2010Prop57
140
1.0
102
RTVSPost2010PropOp57
 70
     1
  0
XRECORD
  5
2BE
102
{ACAD_REACTORS
330
2BD
102
}
330
2BD
100
AcDbXrecord
280
     1
102
RTVSPost2010Prop28
280
     0
102
RTVSPost2010PropOp28
 70
     1
102
RTVSPost2010Prop29
280
     1
102
RTVSPost2010PropOp29
 70
     1
102
RTVSPost2010Prop30
280
     1
102
RTVSPost2010PropOp30
 70
     1
102
RTVSPost2010Prop31
280
     0
102
RTVSPost2010PropOp31
 70
     1
102
RTVSPost2010Prop32
280
     0
102
RTVSPost2010PropOp32
 70
     1
102
RTVSPost2010Prop33
280
     0
102
RTVSPost2010PropOp33
 70
     1
102
RTVSPost2010Prop34
280
     0
102
RTVSPost2010PropOp34
 70
     1
102
RTVSPost2010Prop35
280
     0
102
RTVSPost2010PropOp35
 70
     1
102
RTVSPost2010Prop36
280
     0
102
RTVSPost2010PropOp36
 70
     1
102
RTVSPost2010Prop37
 90
       50
102
RTVSPost2010PropOp37
 70
     1
102
RTVSPost2010Prop38
140
0.0
102
RTVSPost2010PropOp38
 70
     1
102
RTVSPost2010Prop39
140
1.0
102
RTVSPost2010PropOp39
 70
     1
102
RTVSPost2010Prop40
 90
        0
102
RTVSPost2010PropOp40
 70
     1
102
RTVSPost2010Prop41ColorIndex
 90
       18
102
RTVSPost2010Prop41ColorRGB
 90
        0
102
RTVSPost2010PropOp41
 70
     1
102
RTVSPost2010Prop42
 90
       50
102
RTVSPost2010PropOp42
 70
     1
102
RTVSPost2010Prop43
 90
        3
102
RTVSPost2010PropOp43
 70
     1
102
RTVSPost2010Prop44ColorIndex
 90
        5
102
RTVSPost2010Prop44ColorRGB
 90
      255
102
RTVSPost2010PropOp44
 70
     1
102
RTVSPost2010Prop45
280
     0
102
RTVSPost2010PropOp45
 70
     1
102
RTVSPost2010Prop46
 90
       50
102
RTVSPost2010PropOp46
 70
     1
102
RTVSPost2010Prop47
 90
       50
102
RTVSPost2010PropOp47
 70
     1
102
RTVSPost2010Prop48
 90
       50
102
RTVSPost2010PropOp48
 70
     1
102
RTVSPost2010Prop49
280
     0
102
RTVSPost2010PropOp49
 70
     1
102
RTVSPost2010Prop50
 90
       50
102
RTVSPost2010PropOp50
 70
     1
102
RTVSPost2010Prop51ColorIndex
 90
      256
102
RTVSPost2010Prop51ColorRGB
 90
-16777216
102
RTVSPost2010PropOp51
 70
     0
102
RTVSPost2010Prop52
140
1.0
102
RTVSPost2010PropOp52
 70
     0
102
RTVSPost2010Prop53
 90
        2
102
RTVSPost2010PropOp53
 70
     1
102
RTVSPost2010Prop54
  1
strokes_ogs.tif
102
RTVSPost2010PropOp54
 70
     1
102
RTVSPost2010Prop55
280
     0
102
RTVSPost2010PropOp55
 70
     1
102
RTVSPost2010Prop56
140
1.0
102
RTVSPost2010PropOp56
 70
     1
102
RTVSPost2010Prop57
140
1.0
102
RTVSPost2010PropOp57
 70
     1
  0
XRECORD
  5
2D6
102
{ACAD_REACTORS
330
2D5
102
}
330
2D5
100
AcDbXrecord
280
     1
102
RTVSPost2010Prop28
280
     0
102
RTVSPost2010PropOp28
 70
     1
102
RTVSPost2010Prop29
280
     1
102
RTVSPost2010PropOp29
 70
     1
102
RTVSPost2010Prop30
280
     1
102
RTVSPost2010PropOp30
 70
     1
102
RTVSPost2010Prop31
280
     0
102
RTVSPost2010PropOp31
 70
     1
102
RTVSPost2010Prop32
280
     0
102
RTVSPost2010PropOp32
 70
     1
102
RTVSPost2010Prop33
280
     0
102
RTVSPost2010PropOp33
 70
     1
102
RTVSPost2010Prop34
280
     0
102
RTVSPost2010PropOp34
 70
     1
102
RTVSPost2010Prop35
280
     0
102
RTVSPost2010PropOp35
 70
     1
102
RTVSPost2010Prop36
280
     0
102
RTVSPost2010PropOp36
 70
     1
102
RTVSPost2010Prop37
 90
       50
102
RTVSPost2010PropOp37
 70
     1
102
RTVSPost2010Prop38
140
0.0
102
RTVSPost2010PropOp38
 70
     1
102
RTVSPost2010Prop39
140
1.0
102
RTVSPost2010PropOp39
 70
     1
102
RTVSPost2010Prop40
 90
        0
102
RTVSPost2010PropOp40
 70
     1
102
RTVSPost2010Prop41ColorIndex
 90
       18
102
RTVSPost2010Prop41ColorRGB
 90
        0
102
RTVSPost2010PropOp41
 70
     1
102
RTVSPost2010Prop42
 90
       50
102
RTVSPost2010PropOp42
 70
     1
102
RTVSPost2010Prop43
 90
        3
102
RTVSPost2010PropOp43
 70
     1
102
RTVSPost2010Prop44ColorIndex
 90
        5
102
RTVSPost2010Prop44ColorRGB
 90
      255
102
RTVSPost2010PropOp44
 70
     1
102
RTVSPost2010Prop45
280
     0
102
RTVSPost2010PropOp45
 70
     1
102
RTVSPost2010Prop46
 90
       50
102
RTVSPost2010PropOp46
 70
     1
102
RTVSPost2010Prop47
 90
       50
102
RTVSPost2010PropOp47
 70
     1
102
RTVSPost2010Prop48
 90
       50
102
RTVSPost2010PropOp48
 70
     1
102
RTVSPost2010Prop49
280
     0
102
RTVSPost2010PropOp49
 70
     1
102
RTVSPost2010Prop50
 90
       50
102
RTVSPost2010PropOp50
 70
     1
102
RTVSPost2010Prop51ColorIndex
 90
      256
102
RTVSPost2010Prop51ColorRGB
 90
-16777216
102
RTVSPost2010PropOp51
 70
     0
102
RTVSPost2010Prop52
140
1.0
102
RTVSPost2010PropOp52
 70
     0
102
RTVSPost2010Prop53
 90
        2
102
RTVSPost2010PropOp53
 70
     1
102
RTVSPost2010Prop54
  1
strokes_ogs.tif
102
RTVSPost2010PropOp54
 70
     1
102
RTVSPost2010Prop55
280
     0
102
RTVSPost2010PropOp55
 70
     1
102
RTVSPost2010Prop56
140
1.0
102
RTVSPost2010PropOp56
 70
     1
102
RTVSPost2010Prop57
140
1.0
102
RTVSPost2010PropOp57
 70
     1
  0
ENDSEC
  0
EOF
