  0
SECTION
  2
HEADER
  9
$ACADVER
  1
AC1024
  9
$ACADMAINTVER
 70
   226
  9
$DWGCODEPAGE
  3
ANSI_1252
  9
$INSBASE
 10
0.0
 20
0.0
 30
0.0
  9
$EXTMIN
 10
741.4122057232466
 20
3224.185741836908
 30
0.0
  9
$EXTMAX
 10
1633.25825376341
 20
3792.032275659366
 30
0.0
  9
$LIMMIN
 10
0.0
 20
0.0
  9
$LIMMAX
 10
12.0
 20
9.0
  9
$ORTHOMODE
 70
     0
  9
$REGENMODE
 70
     1
  9
$FILLMODE
 70
     1
  9
$QTEXTMODE
 70
     0
  9
$MIRRTEXT
 70
     0
  9
$LTSCALE
 40
1.0
  9
$ATTMODE
 70
     1
  9
$TEXTSIZE
 40
0.2
  9
$TRACEWID
 40
0.05
  9
$TEXTSTYLE
  7
Standard
  9
$CLAYER
  8
0
  9
$CELTYPE
  6
ByLayer
  9
$CECOLOR
 62
   256
  9
$CELTSCALE
 40
1.0
  9
$DISPSILH
 70
     0
  9
$DIMSCALE
 40
1.0
  9
$DIMASZ
 40
0.18
  9
$DIMEXO
 40
0.0625
  9
$DIMDLI
 40
0.38
  9
$DIMRND
 40
0.0
  9
$DIMDLE
 40
0.0
  9
$DIMEXE
 40
0.18
  9
$DIMTP
 40
0.0
  9
$DIMTM
 40
0.0
  9
$DIMTXT
 40
0.18
  9
$DIMCEN
 40
0.09
  9
$DIMTSZ
 40
0.0
  9
$DIMTOL
 70
     0
  9
$DIMLIM
 70
     0
  9
$DIMTIH
 70
     1
  9
$DIMTOH
 70
     1
  9
$DIMSE1
 70
     0
  9
$DIMSE2
 70
     0
  9
$DIMTAD
 70
     0
  9
$DIMZIN
 70
     0
  9
$DIMBLK
  1

  9
$DIMASO
 70
     1
  9
$DIMSHO
 70
     1
  9
$DIMPOST
  1

  9
$DIMAPOST
  1

  9
$DIMALT
 70
     0
  9
$DIMALTD
 70
     2
  9
$DIMALTF
 40
25.4
  9
$DIMLFAC
 40
1.0
  9
$DIMTOFL
 70
     0
  9
$DIMTVP
 40
0.0
  9
$DIMTIX
 70
     0
  9
$DIMSOXD
 70
     0
  9
$DIMSAH
 70
     0
  9
$DIMBLK1
  1

  9
$DIMBLK2
  1

  9
$DIMSTYLE
  2
Standard
  9
$DIMCLRD
 70
     0
  9
$DIMCLRE
 70
     0
  9
$DIMCLRT
 70
     0
  9
$DIMTFAC
 40
1.0
  9
$DIMGAP
 40
0.09
  9
$DIMJUST
 70
     0
  9
$DIMSD1
 70
     0
  9
$DIMSD2
 70
     0
  9
$DIMTOLJ
 70
     1
  9
$DIMTZIN
 70
     0
  9
$DIMALTZ
 70
     0
  9
$DIMALTTZ
 70
     0
  9
$DIMUPT
 70
     0
  9
$DIMDEC
 70
     4
  9
$DIMTDEC
 70
     4
  9
$DIMALTU
 70
     2
  9
$DIMALTTD
 70
     2
  9
$DIMTXSTY
  7
Standard
  9
$DIMAUNIT
 70
     0
  9
$DIMADEC
 70
     0
  9
$DIMALTRND
 40
0.0
  9
$DIMAZIN
 70
     0
  9
$DIMDSEP
 70
    46
  9
$DIMATFIT
 70
     3
  9
$DIMFRAC
 70
     0
  9
$DIMLDRBLK
  1

  9
$DIMLUNIT
 70
     2
  9
$DIMLWD
 70
    -2
  9
$DIMLWE
 70
    -2
  9
$DIMTMOVE
 70
     0
  9
$DIMFXL
 40
1.0
  9
$DIMFXLON
 70
     0
  9
$DIMJOGANG
 40
0.7853981633974483
  9
$DIMTFILL
 70
     0
  9
$DIMTFILLCLR
 70
     0
  9
$DIMARCSYM
 70
     0
  9
$DIMLTYPE
  6

  9
$DIMLTEX1
  6

  9
$DIMLTEX2
  6

  9
$DIMTXTDIRECTION
 70
     0
  9
$LUNITS
 70
     2
  9
$LUPREC
 70
     4
  9
$SKETCHINC
 40
0.1
  9
$FILLETRAD
 40
0.0
  9
$AUNITS
 70
     0
  9
$AUPREC
 70
     0
  9
$MENU
  1
.
  9
$ELEVATION
 40
0.0
  9
$PELEVATION
 40
0.0
  9
$THICKNESS
 40
0.0
  9
$LIMCHECK
 70
     0
  9
$CHAMFERA
 40
0.0
  9
$CHAMFERB
 40
0.0
  9
$CHAMFERC
 40
0.0
  9
$CHAMFERD
 40
0.0
  9
$SKPOLY
 70
     0
  9
$TDCREATE
 40
2459165.009375000
  9
$TDUCREATE
 40
2459164.467708333
  9
$TDUPDATE
 40
2459165.009375000
  9
$TDUUPDATE
 40
2459164.467708333
  9
$TDINDWG
 40
0.0000000000
  9
$TDUSRTIMER
 40
0.0000000000
  9
$USRTIMER
 70
     1
  9
$ANGBASE
 50
0.0
  9
$ANGDIR
 70
     0
  9
$PDMODE
 70
     0
  9
$PDSIZE
 40
0.0
  9
$PLINEWID
 40
0.0
  9
$SPLFRAME
 70
     0
  9
$SPLINETYPE
 70
     6
  9
$SPLINESEGS
 70
     8
  9
$HANDSEED
  5
2FA
  9
$SURFTAB1
 70
     6
  9
$SURFTAB2
 70
     6
  9
$SURFTYPE
 70
     6
  9
$SURFU
 70
     6
  9
$SURFV
 70
     6
  9
$UCSBASE
  2

  9
$UCSNAME
  2

  9
$UCSORG
 10
0.0
 20
0.0
 30
0.0
  9
$UCSXDIR
 10
1.0
 20
0.0
 30
0.0
  9
$UCSYDIR
 10
0.0
 20
1.0
 30
0.0
  9
$UCSORTHOREF
  2

  9
$UCSORTHOVIEW
 70
     0
  9
$UCSORGTOP
 10
0.0
 20
0.0
 30
0.0
  9
$UCSORGBOTTOM
 10
0.0
 20
0.0
 30
0.0
  9
$UCSORGLEFT
 10
0.0
 20
0.0
 30
0.0
  9
$UCSORGRIGHT
 10
0.0
 20
0.0
 30
0.0
  9
$UCSORGFRONT
 10
0.0
 20
0.0
 30
0.0
  9
$UCSORGBACK
 10
0.0
 20
0.0
 30
0.0
  9
$PUCSBASE
  2

  9
$PUCSNAME
  2

  9
$PUCSORG
 10
0.0
 20
0.0
 30
0.0
  9
$PUCSXDIR
 10
1.0
 20
0.0
 30
0.0
  9
$PUCSYDIR
 10
0.0
 20
1.0
 30
0.0
  9
$PUCSORTHOREF
  2

  9
$PUCSORTHOVIEW
 70
     0
  9
$PUCSORGTOP
 10
0.0
 20
0.0
 30
0.0
  9
$PUCSORGBOTTOM
 10
0.0
 20
0.0
 30
0.0
  9
$PUCSORGLEFT
 10
0.0
 20
0.0
 30
0.0
  9
$PUCSORGRIGHT
 10
0.0
 20
0.0
 30
0.0
  9
$PUCSORGFRONT
 10
0.0
 20
0.0
 30
0.0
  9
$PUCSORGBACK
 10
0.0
 20
0.0
 30
0.0
  9
$USERI1
 70
     0
  9
$USERI2
 70
     0
  9
$USERI3
 70
     0
  9
$USERI4
 70
     0
  9
$USERI5
 70
     0
  9
$USERR1
 40
0.0
  9
$USERR2
 40
0.0
  9
$USERR3
 40
0.0
  9
$USERR4
 40
0.0
  9
$USERR5
 40
0.0
  9
$WORLDVIEW
 70
     1
  9
$SHADEDGE
 70
     3
  9
$SHADEDIF
 70
    70
  9
$TILEMODE
 70
     0
  9
$MAXACTVP
 70
    64
  9
$PINSBASE
 10
0.0
 20
0.0
 30
0.0
  9
$PLIMCHECK
 70
     0
  9
$PEXTMIN
 10
-0.0243254853795738
 20
0.0239675613783464
 30
0.0
  9
$PEXTMAX
 10
296.9756745145732
 20
210.0239675613797
 30
0.0
  9
$PLIMMIN
 10
0.0
 20
0.0
  9
$PLIMMAX
 10
12.0
 20
9.0
  9
$UNITMODE
 70
     0
  9
$VISRETAIN
 70
     1
  9
$PLINEGEN
 70
     0
  9
$PSLTSCALE
 70
     1
  9
$TREEDEPTH
 70
  3020
  9
$CMLSTYLE
  2
Standard
  9
$CMLJUST
 70
     0
  9
$CMLSCALE
 40
1.0
  9
$PROXYGRAPHICS
 70
     1
  9
$MEASUREMENT
 70
     1
  9
$CELWEIGHT
370
    -1
  9
$ENDCAPS
280
     0
  9
$JOINSTYLE
280
     0
  9
$LWDISPLAY
290
     0
  9
$INSUNITS
 70
     4
  9
$HYPERLINKBASE
  1

  9
$STYLESHEET
  1

  9
$XEDIT
290
     1
  9
$CEPSNTYPE
380
     0
  9
$PSTYLEMODE
290
     1
  9
$FINGERPRINTGUID
  2
{E41EA6CB-9BAB-624B-8DEB-47D5F4818B18}
  9
$VERSIONGUID
  2
{97B855B3-466D-8C46-B879-DD165087BD52}
  9
$EXTNAMES
290
     1
  9
$PSVPSCALE
 40
0.0
  9
$OLESTARTUP
290
     0
  9
$SORTENTS
280
   127
  9
$INDEXCTL
280
     0
  9
$HIDETEXT
280
     1
  9
$XCLIPFRAME
280
     2
  9
$HALOGAP
280
     0
  9
$OBSCOLOR
 70
   257
  9
$OBSLTYPE
280
     0
  9
$INTERSECTIONDISPLAY
280
     0
  9
$INTERSECTIONCOLOR
 70
   257
  9
$DIMASSOC
280
     2
  9
$PROJECTNAME
  1

  9
$CAMERADISPLAY
290
     0
  9
$LENSLENGTH
 40
50.0
  9
$CAMERAHEIGHT
 40
0.0
  9
$STEPSPERSEC
 40
2.0
  9
$STEPSIZE
 40
6.0
  9
$3DDWFPREC
 40
2.0
  9
$PSOLWIDTH
 40
0.25
  9
$PSOLHEIGHT
 40
4.0
  9
$LOFTANG1
 40
1.570796326794896
  9
$LOFTANG2
 40
1.570796326794896
  9
$LOFTMAG1
 40
0.0
  9
$LOFTMAG2
 40
0.0
  9
$LOFTPARAM
 70
     7
  9
$LOFTNORMALS
280
     1
  9
$LATITUDE
 40
0.0
  9
$LONGITUDE
 40
0.0
  9
$NORTHDIRECTION
 40
0.0
  9
$TIMEZONE
 70
     0
  9
$LIGHTGLYPHDISPLAY
280
     1
  9
$TILEMODELIGHTSYNCH
280
     1
  9
$CMATERIAL
347
11
  9
$SOLIDHIST
280
     0
  9
$SHOWHIST
280
     1
  9
$DWFFRAME
280
     2
  9
$DGNFRAME
280
     0
  9
$REALWORLDSCALE
290
     1
  9
$INTERFERECOLOR
 62
     1
  9
$INTERFEREOBJVS
345
33
  9
$INTERFEREVPVS
346
30
  9
$CSHADOW
280
     0
  9
$SHADOWPLANELOCATION
 40
0.0
  0
ENDSEC
  0
SECTION
  2
CLASSES
  0
CLASS
  1
ACDBDICTIONARYWDFLT
  2
AcDbDictionaryWithDefault
  3
ObjectDBX Classes
 90
        0
 91
        1
280
     0
281
     0
  0
CLASS
  1
MATERIAL
  2
AcDbMaterial
  3
ObjectDBX Classes
 90
     1153
 91
        3
280
     0
281
     0
  0
CLASS
  1
VISUALSTYLE
  2
AcDbVisualStyle
  3
ObjectDBX Classes
 90
     4095
 91
       24
280
     0
281
     0
  0
CLASS
  1
SCALE
  2
AcDbScale
  3
ObjectDBX Classes
 90
     1153
 91
       17
280
     0
281
     0
  0
CLASS
  1
TABLESTYLE
  2
AcDbTableStyle
  3
ObjectDBX Classes
 90
     4095
 91
        1
280
     0
281
     0
  0
CLASS
  1
MLEADERSTYLE
  2
AcDbMLeaderStyle
  3
ACDB_MLEADERSTYLE_CLASS
 90
     4095
 91
        1
280
     0
281
     0
  0
CLASS
  1
ACDBSECTIONVIEWSTYLE
  2
AcDbSectionViewStyle
  3
ObjectDBX Classes
 90
     1025
 91
        1
280
     0
281
     0
  0
CLASS
  1
ACDBDETAILVIEWSTYLE
  2
AcDbDetailViewStyle
  3
ObjectDBX Classes
 90
     1025
 91
        1
280
     0
281
     0
  0
CLASS
  1
RASTERVARIABLES
  2
AcDbRasterVariables
  3
ISM
 90
        0
 91
        1
280
     0
281
     0
  0
CLASS
  1
DICTIONARYVAR
  2
AcDbDictionaryVar
  3
ObjectDBX Classes
 90
        0
 91
        5
280
     0
281
     0
  0
CLASS
  1
CELLSTYLEMAP
  2
AcDbCellStyleMap
  3
ObjectDBX Classes
 90
     1152
 91
        2
280
     0
281
     0
  0
CLASS
  1
IMAGEDEF
  2
AcDbRasterImageDef
  3
ISM
 90
        0
 91
        1
280
     0
281
     0
  0
CLASS
  1
IMAGE
  2
AcDbRasterImage
  3
ISM
 90
     2175
 91
        1
280
     0
281
     1
  0
CLASS
  1
IMAGEDEF_REACTOR
  2
AcDbRasterImageDefReactor
  3
ISM
 90
        1
 91
        1
280
     0
281
     0
  0
CLASS
  1
SORTENTSTABLE
  2
AcDbSortentsTable
  3
ObjectDBX Classes
 90
        0
 91
        1
280
     0
281
     0
  0
ENDSEC
  0
SECTION
  2
TABLES
  0
TABLE
  2
VPORT
  5
8
330
0
100
AcDbSymbolTable
 70
     1
  0
VPORT
  5
57
330
8
100
AcDbSymbolTableRecord
100
AcDbViewportTableRecord
  2
*Active
 70
     0
 10
0.0
 20
0.0
 11
1.0
 21
1.0
 12
1187.335229743328
 22
3508.109008748137
 13
0.0
 23
0.0
 14
1.0
 24
1.0
 15
0.0
 25
0.0
 16
0.0
 26
0.0
 36
1.0
 17
0.0
 27
0.0
 37
0.0
 40
567.8465338224573
 41
1.570575842097166
 42
50.0
 43
0.0
 44
0.0
 50
0.0
 51
0.0
 71
     0
 72
  1000
 73
     1
 74
     0
 75
     1
 76
     0
 77
     0
 78
     0
281
     0
 65
     1
110
0.0
120
0.0
130
0.0
111
1.0
121
0.0
131
0.0
112
0.0
122
1.0
132
0.0
 79
     0
146
0.0
 60
     3
 61
     5
292
     1
282
     1
141
0.0
142
0.0
 63
   250
421
  3355443
  0
ENDTAB
  0
TABLE
  2
LTYPE
  5
5
330
0
100
AcDbSymbolTable
 70
     3
  0
LTYPE
  5
5B
330
5
100
AcDbSymbolTableRecord
100
AcDbLinetypeTableRecord
  2
ByBlock
 70
     0
  3

 72
    65
 73
     0
 40
0.0
  0
LTYPE
  5
5C
330
5
100
AcDbSymbolTableRecord
100
AcDbLinetypeTableRecord
  2
ByLayer
 70
     0
  3

 72
    65
 73
     0
 40
0.0
  0
LTYPE
  5
5D
330
5
100
AcDbSymbolTableRecord
100
AcDbLinetypeTableRecord
  2
Continuous
 70
     0
  3
Solid line
 72
    65
 73
     0
 40
0.0
  0
LTYPE
  5
BC
330
5
100
AcDbSymbolTableRecord
100
AcDbLinetypeTableRecord
  2
Dash Short
 70
     0
  3

 72
    65
 73
     2
 40
4.0
 49
2.0
 74
     0
 49
-2.0
 74
     0
  0
LTYPE
  5
FD
330
5
100
AcDbSymbolTableRecord
100
AcDbLinetypeTableRecord
  2
Dash
 70
     0
  3

 72
    65
 73
     2
 40
6.350000000000001
 49
3.175
 74
     0
 49
-3.175
 74
     0
  0
ENDTAB
  0
TABLE
  2
LAYER
  5
2
330
0
100
AcDbSymbolTable
 70
    12
  0
LAYER
  5
54
330
2
100
AcDbSymbolTableRecord
100
AcDbLayerTableRecord
  2
0
 70
     0
 62
     7
  6
Continuous
370
    -3
390
F
347
21
  0
LAYER
  5
BA
330
2
100
AcDbSymbolTableRecord
100
AcDbLayerTableRecord
  2
A-DETL
 70
     0
 62
    90
  6
Continuous
370
     9
390
F
347
21
  0
LAYER
  5
BB
330
2
100
AcDbSymbolTableRecord
100
AcDbLayerTableRecord
  2
A-DETL-GENF
 70
     0
 62
    92
  6
Continuous
370
    30
390
F
347
21
  0
LAYER
  5
117
330
2
100
AcDbSymbolTableRecord
100
AcDbLayerTableRecord
  2
A-DETL-THIN
 70
     0
 62
   151
  6
Continuous
370
     9
390
F
347
21
  0
LAYER
  5
1C5
330
2
100
AcDbSymbolTableRecord
100
AcDbLayerTableRecord
  2
G-ANNO-TEXT
 70
     0
 62
   231
  6
Continuous
370
     9
390
F
347
21
  0
LAYER
  5
20F
330
2
100
AcDbSymbolTableRecord
100
AcDbLayerTableRecord
  2
A-ANNO-DIMS
 70
     0
 62
   211
  6
Continuous
370
     9
390
F
347
21
  0
LAYER
  5
211
330
2
100
AcDbSymbolTableRecord
100
AcDbLayerTableRecord
  2
A-ANNO-DIMS-5
 70
     0
 62
   211
  6
Continuous
370
     9
390
F
347
21
  0
LAYER
  5
225
330
2
100
AcDbSymbolTableRecord
100
AcDbLayerTableRecord
  2
Defpoints
 70
     0
 62
     7
  6
Continuous
290
     0
370
    -3
390
F
347
21
  0
LAYER
  5
27E
330
2
100
AcDbSymbolTableRecord
100
AcDbLayerTableRecord
  2
G-ANNO-NPLT
 70
     0
 62
   191
  6
Continuous
290
     0
370
    -3
390
F
347
21
  0
LAYER
  5
284
330
2
100
AcDbSymbolTableRecord
100
AcDbLayerTableRecord
  2
G-ANNO-TTLB
 70
     0
 62
     6
  6
Continuous
370
     9
390
F
347
21
  0
LAYER
  5
28A
330
2
100
AcDbSymbolTableRecord
100
AcDbLayerTableRecord
  2
G-ANNO-TTLB-THIN
 70
     0
 62
   151
  6
Continuous
370
    25
390
F
347
21
  0
LAYER
  5
28D
330
2
100
AcDbSymbolTableRecord
100
AcDbLayerTableRecord
  2
G-ANNO-TTLB-MEDM
 70
     0
 62
    33
  6
Continuous
370
    50
390
F
347
21
  0
ENDTAB
  0
TABLE
  2
STYLE
  5
3
330
0
100
AcDbSymbolTable
 70
     7
  0
STYLE
  5
55
330
3
100
AcDbSymbolTableRecord
100
AcDbTextStyleTableRecord
  2
Standard
 70
     0
 40
0.0
 41
1.0
 50
0.0
 71
     0
 42
0.2
  3
txt
  4

  0
STYLE
  5
5A
330
3
100
AcDbSymbolTableRecord
100
AcDbTextStyleTableRecord
  2
Annotative
 70
     0
 40
0.0
 41
1.0
 50
0.0
 71
     0
 42
0.2
  3
txt
  4

1001
AcadAnnotative
1000
AnnotativeData
1002
{
1070
     1
1070
     1
1002
}
  0
STYLE
  5
1CC
330
3
100
AcDbSymbolTableRecord
100
AcDbTextStyleTableRecord
  2
Century Gothic
 70
     0
 40
12.5
 41
0.9
 50
0.0
 71
     0
 42
0.2
  3
GOTHIC.TTF
  4

1001
ACAD
1000
Century Gothic
1071
       34
  0
STYLE
  5
294
330
3
100
AcDbSymbolTableRecord
100
AcDbTextStyleTableRecord
  2
Century Gothic_1
 70
     0
 40
1.8
 41
0.9
 50
0.0
 71
     0
 42
0.2
  3
GOTHIC.TTF
  4

1001
ACAD
1000
Century Gothic
1071
       34
  0
STYLE
  5
2B3
330
3
100
AcDbSymbolTableRecord
100
AcDbTextStyleTableRecord
  2
Century Gothic_2
 70
     0
 40
4.0
 41
0.9
 50
0.0
 71
     0
 42
0.2
  3
GOTHIC.TTF
  4

1001
ACAD
1000
Century Gothic
1071
       34
  0
STYLE
  5
2B5
330
3
100
AcDbSymbolTableRecord
100
AcDbTextStyleTableRecord
  2
Century Gothic_3
 70
     0
 40
3.5
 41
0.9
 50
0.0
 71
     0
 42
0.2
  3
GOTHIC.TTF
  4

1001
ACAD
1000
Century Gothic
1071
       34
  0
STYLE
  5
2B8
330
3
100
AcDbSymbolTableRecord
100
AcDbTextStyleTableRecord
  2
Century Gothic_4
 70
     0
 40
4.999999999999999
 41
1.0
 50
0.0
 71
     0
 42
0.2
  3
GOTHIC.TTF
  4

1001
ACAD
1000
Century Gothic
1071
       34
  0
ENDTAB
  0
TABLE
  2
VIEW
  5
6
330
0
100
AcDbSymbolTable
 70
     0
  0
ENDTAB
  0
TABLE
  2
UCS
  5
7
330
0
100
AcDbSymbolTable
 70
     0
  0
ENDTAB
  0
TABLE
  2
APPID
  5
9
330
0
100
AcDbSymbolTable
 70
     3
  0
APPID
  5
56
330
9
100
AcDbSymbolTableRecord
100
AcDbRegAppTableRecord
  2
ACAD
 70
     0
  0
APPID
  5
5E
330
9
100
AcDbSymbolTableRecord
100
AcDbRegAppTableRecord
  2
AcadAnnotative
 70
     0
  0
APPID
  5
78
330
9
100
AcDbSymbolTableRecord
100
AcDbRegAppTableRecord
  2
REVIT
 70
     0
  0
ENDTAB
  0
TABLE
  2
DIMSTYLE
  5
A
330
0
100
AcDbSymbolTable
 70
     4
100
AcDbDimStyleTable
 71
     2
340
261
340
21F
  0
DIMSTYLE
105
58
330
A
100
AcDbSymbolTableRecord
100
AcDbDimStyleTableRecord
  2
Standard
 70
     0
340
55
  0
DIMSTYLE
105
59
330
A
100
AcDbSymbolTableRecord
100
AcDbDimStyleTableRecord
  2
Annotative
 70
     0
340
55
1001
AcadAnnotative
1000
AnnotativeData
1002
{
1070
     1
1070
     1
1002
}
  0
DIMSTYLE
105
21F
102
{ACAD_REACTORS
330
224
102
}
330
A
100
AcDbSymbolTableRecord
100
AcDbDimStyleTableRecord
  2
01_-_Diagonal_Horizontal
 70
     0
  3
<>
 40
304.8
 41
0.041010498687664
 44
0.0328083989501312
 45
5.0
 49
0.0492125984251969
 69
     1
 77
     3
 78
     8
 90
     2
140
13.05210337146907
145
1.0
147
0.0164041994750656
172
     1
173
     1
174
     1
179
     2
271
     0
279
     2
288
     1
290
     1
340
1CC
343
220
344
220
  0
DIMSTYLE
105
261
102
{ACAD_REACTORS
330
262
102
}
330
A
100
AcDbSymbolTableRecord
100
AcDbDimStyleTableRecord
  2
01_-_Diagonal
 70
     0
  3
<>
 40
304.8
 41
0.041010498687664
 44
0.0328083989501312
 49
0.0492125984251969
 69
     1
 73
     0
 74
     0
 77
     1
 78
     8
 90
     2
140
13.05210337146907
145
1.0
147
0.0164041994750656
172
     1
173
     1
174
     1
179
     2
271
     0
290
     1
340
1CC
343
220
344
220
  0
ENDTAB
  0
TABLE
  2
BLOCK_RECORD
  5
1
330
0
100
AcDbSymbolTable
 70
    24
  0
BLOCK_RECORD
  5
70
102
{ACAD_XDICTIONARY
360
2BF
102
}
330
1
100
AcDbSymbolTableRecord
100
AcDbBlockTableRecord
  2
*Model_Space
340
73
 70
     0
280
     1
281
     0
  0
BLOCK_RECORD
  5
6C
330
1
100
AcDbSymbolTableRecord
100
AcDbBlockTableRecord
  2
*Paper_Space
340
6F
 70
     0
280
     1
281
     0
  0
BLOCK_RECORD
  5
74
330
1
100
AcDbSymbolTableRecord
100
AcDbBlockTableRecord
  2
*Paper_Space0
340
77
 70
     0
280
     1
281
     0
  0
BLOCK_RECORD
  5
FC
330
1
100
AcDbSymbolTableRecord
100
AcDbBlockTableRecord
  2
rs_building wrap - Building wrap-109723-W-TRSIL-14A - Membrane Deck to Wall Junction Detail
340
0
102
{BLKREFS
331
101
102
}
 70
     0
280
     1
281
     0
  0
BLOCK_RECORD
  5
102
330
1
100
AcDbSymbolTableRecord
100
AcDbBlockTableRecord
  2
FP Timber Nog Packer - Variable-109744-W-TRSIL-14A - Membrane Deck to Wall Junction Detail
340
0
102
{BLKREFS
331
109
102
}
 70
     0
280
     1
281
     0
  0
BLOCK_RECORD
  5
10A
330
1
100
AcDbSymbolTableRecord
100
AcDbBlockTableRecord
  2
rs_base flashing 95 - Base flashing-10681-W-TRSIL-14A - Membrane Deck to Wall Junction Detail
340
0
102
{BLKREFS
331
111
102
}
 70
     0
280
     1
281
     0
  0
BLOCK_RECORD
  5
124
330
1
100
AcDbSymbolTableRecord
100
AcDbBlockTableRecord
  2
FP Timber Nog Packer - Variable-40636-W-TRSIL-14A - Membrane Deck to Wall Junction Detail
340
0
102
{BLKREFS
331
12D
102
}
 70
     0
280
     1
281
     0
  0
BLOCK_RECORD
  5
12E
330
1
100
AcDbSymbolTableRecord
100
AcDbBlockTableRecord
  2
4821_Cavity Closure - 4821_Cavity Closure-36600-W-TRSIL-14A - Membrane Deck to Wall Junction Detail
340
0
102
{BLKREFS
331
166
102
}
 70
     0
280
     1
281
     0
  0
BLOCK_RECORD
  5
17E
330
1
100
AcDbSymbolTableRecord
100
AcDbBlockTableRecord
  2
breakline with fill detail1to5 - breakline with fill detail1to5-200687-W-TRSIL-14A - Membrane Deck to Wall Junction Detail
340
0
102
{BLKREFS
331
186
102
}
 70
     0
280
     1
281
     0
  0
BLOCK_RECORD
  5
187
330
1
100
AcDbSymbolTableRecord
100
AcDbBlockTableRecord
  2
rs_building wrap - Building wrap-109703-W-TRSIL-14A - Membrane Deck to Wall Junction Detail
340
0
102
{BLKREFS
331
18B
102
}
 70
     0
280
     1
281
     0
  0
BLOCK_RECORD
  5
18C
330
1
100
AcDbSymbolTableRecord
100
AcDbBlockTableRecord
  2
rs_building wrap - Building wrap-109646-W-TRSIL-14A - Membrane Deck to Wall Junction Detail
340
0
102
{BLKREFS
331
190
102
}
 70
     0
280
     1
281
     0
  0
BLOCK_RECORD
  5
191
330
1
100
AcDbSymbolTableRecord
100
AcDbBlockTableRecord
  2
FP Timber Nog Packer - Variable-200217-W-TRSIL-14A - Membrane Deck to Wall Junction Detail
340
0
102
{BLKREFS
331
198
102
}
 70
     0
280
     1
281
     0
  0
BLOCK_RECORD
  5
199
330
1
100
AcDbSymbolTableRecord
100
AcDbBlockTableRecord
  2
FP Timber Nog Packer - Variable-V1-W-TRSIL-14A - Membrane Deck to Wall Junction Detail
340
0
102
{BLKREFS
331
1A1
102
}
 70
     0
280
     1
281
     0
  0
BLOCK_RECORD
  5
1A4
330
1
100
AcDbSymbolTableRecord
100
AcDbBlockTableRecord
  2
breakline with fill detail1to5 - breakline with fill detail1to5-200769-W-TRSIL-14A - Membrane Deck to Wall Junction Detail
340
0
102
{BLKREFS
331
1AC
102
}
 70
     0
280
     1
281
     0
  0
BLOCK_RECORD
  5
1AD
330
1
100
AcDbSymbolTableRecord
100
AcDbBlockTableRecord
  2
rs_building wrap - Building wrap-200996-W-TRSIL-14A - Membrane Deck to Wall Junction Detail
340
0
102
{BLKREFS
331
1B1
102
}
 70
     0
280
     1
281
     0
  0
BLOCK_RECORD
  5
1B2
330
1
100
AcDbSymbolTableRecord
100
AcDbBlockTableRecord
  2
rs_building wrap - Building wrap-200961-W-TRSIL-14A - Membrane Deck to Wall Junction Detail
340
0
102
{BLKREFS
331
1B6
102
}
 70
     0
280
     1
281
     0
  0
BLOCK_RECORD
  5
1B7
330
1
100
AcDbSymbolTableRecord
100
AcDbBlockTableRecord
  2
rs_building wrap - Building wrap-200906-W-TRSIL-14A - Membrane Deck to Wall Junction Detail
340
0
102
{BLKREFS
331
1BB
102
}
 70
     0
280
     1
281
     0
  0
BLOCK_RECORD
  5
1BC
330
1
100
AcDbSymbolTableRecord
100
AcDbBlockTableRecord
  2
breakline with fill detail1to5 - breakline with fill detail1to5-38694-W-TRSIL-14A - Membrane Deck to Wall Junction Detail
340
0
102
{BLKREFS
331
1C4
102
}
 70
     0
280
     1
281
     0
  0
BLOCK_RECORD
  5
220
330
1
100
AcDbSymbolTableRecord
100
AcDbBlockTableRecord
  2
_Oblique
340
0
102
{BLKREFS
102
}
 70
     0
280
     1
281
     0
  0
BLOCK_RECORD
  5
226
330
1
100
AcDbSymbolTableRecord
100
AcDbBlockTableRecord
  2
DIMBLOCK1-W-TRSIL-14A - Membrane Deck to Wall Junction Detail
340
0
 70
     0
280
     1
281
     0
  0
BLOCK_RECORD
  5
240
330
1
100
AcDbSymbolTableRecord
100
AcDbBlockTableRecord
  2
DIMBLOCK2-W-TRSIL-14A - Membrane Deck to Wall Junction Detail
340
0
 70
     0
280
     1
281
     0
  0
BLOCK_RECORD
  5
263
330
1
100
AcDbSymbolTableRecord
100
AcDbBlockTableRecord
  2
DIMBLOCK3-W-TRSIL-14A - Membrane Deck to Wall Junction Detail
340
0
 70
     0
280
     1
281
     0
  0
BLOCK_RECORD
  5
285
330
1
100
AcDbSymbolTableRecord
100
AcDbBlockTableRecord
  2
Titleblock A4 The roofing store - Titleblock A4 The roofing store-2694-Membrane Deck _ Wall Jnc_ Detail
340
0
102
{BLKREFS
331
2B2
102
}
 70
     0
280
     1
281
     0
  0
ENDTAB
  0
ENDSEC
  0
SECTION
  2
BLOCKS
  0
BLOCK
  5
71
330
70
100
AcDbEntity
  8
0
100
AcDbBlockBegin
  2
*Model_Space
 70
     0
 10
0.0
 20
0.0
 30
0.0
  3
*Model_Space
  1

  0
ENDBLK
  5
72
330
70
100
AcDbEntity
  8
0
100
AcDbBlockEnd
  0
BLOCK
  5
6D
330
6C
100
AcDbEntity
 67
     1
  8
0
100
AcDbBlockBegin
  2
*Paper_Space
 70
     0
 10
0.0
 20
0.0
 30
0.0
  3
*Paper_Space
  1

  0
ENDBLK
  5
6E
330
6C
100
AcDbEntity
 67
     1
  8
0
100
AcDbBlockEnd
  0
BLOCK
  5
75
330
74
100
AcDbEntity
 67
     1
  8
0
100
AcDbBlockBegin
  2
*Paper_Space0
 70
     0
 10
0.0
 20
0.0
 30
0.0
  3
*Paper_Space0
  1

  0
ENDBLK
  5
76
330
74
100
AcDbEntity
 67
     1
  8
0
100
AcDbBlockEnd
  0
BLOCK
  5
FF
330
FC
100
AcDbEntity
  8
0
100
AcDbBlockBegin
  2
rs_building wrap - Building wrap-109723-W-TRSIL-14A - Membrane Deck to Wall Junction Detail
 70
     0
 10
0.0
 20
0.0
 30
0.0
  3
rs_building wrap - Building wrap-109723-W-TRSIL-14A - Membrane Deck to Wall Junction Detail
  1

  0
LINE
  5
FE
330
FC
100
AcDbEntity
  8
A-DETL-GENF
100
AcDbLine
 10
0.0
 20
0.0
 30
0.0
 11
237.5212026597345
 21
0.0
 31
0.0
1001
REVIT
1002
{
1070
     3
1000
10657
1002
}
  0
ENDBLK
  5
100
330
FC
100
AcDbEntity
  8
0
100
AcDbBlockEnd
  0
BLOCK
  5
107
330
102
100
AcDbEntity
  8
0
100
AcDbBlockBegin
  2
FP Timber Nog Packer - Variable-109744-W-TRSIL-14A - Membrane Deck to Wall Junction Detail
 70
     0
 10
0.0
 20
0.0
 30
0.0
  3
FP Timber Nog Packer - Variable-109744-W-TRSIL-14A - Membrane Deck to Wall Junction Detail
  1

  0
LINE
  5
103
330
102
100
AcDbEntity
  8
A-DETL-GENF
100
AcDbLine
 10
140.0000000000004
 20
24.99999999999865
 30
0.0
 11
0.0
 21
24.99999999999865
 31
0.0
  0
LINE
  5
104
330
102
100
AcDbEntity
  8
A-DETL-GENF
100
AcDbLine
 10
0.0
 20
24.99999999999865
 30
0.0
 11
0.0
 21
-19.99999999999973
 31
0.0
  0
LINE
  5
105
330
102
100
AcDbEntity
  8
A-DETL-GENF
100
AcDbLine
 10
0.0
 20
-19.99999999999973
 30
0.0
 11
140.0000000000004
 21
-19.99999999999973
 31
0.0
  0
LINE
  5
106
330
102
100
AcDbEntity
  8
A-DETL-GENF
100
AcDbLine
 10
-0.0000000000005245
 20
-19.99999999999973
 30
0.0
 11
140.0000000000003
 21
24.99999999999865
 31
0.0
1001
REVIT
1002
{
1070
     3
1000
16362
1002
}
  0
ENDBLK
  5
108
330
102
100
AcDbEntity
  8
0
100
AcDbBlockEnd
  0
BLOCK
  5
10F
330
10A
100
AcDbEntity
  8
0
100
AcDbBlockBegin
  2
rs_base flashing 95 - Base flashing-10681-W-TRSIL-14A - Membrane Deck to Wall Junction Detail
 70
     0
 10
0.0
 20
0.0
 30
0.0
  3
rs_base flashing 95 - Base flashing-10681-W-TRSIL-14A - Membrane Deck to Wall Junction Detail
  1

  0
LINE
  5
10B
330
10A
100
AcDbEntity
  8
A-DETL-GENF
100
AcDbLine
 10
-0.0000000000000169
 20
-0.0000000000000423
 30
0.0
 11
-0.000000000000162
 21
99.99999999999998
 31
0.0
1001
REVIT
1002
{
1070
     3
1000
2656
1002
}
  0
LINE
  5
10C
330
10A
100
AcDbEntity
  8
A-DETL-GENF
100
AcDbLine
 10
33.372522386072
 20
-2.919717382046553
 30
0.0
 11
0.0000000000000169
 21
-0.0000000000000465
 31
0.0
1001
REVIT
1002
{
1070
     3
1000
2656
1002
}
  0
LINE
  5
10D
330
10A
100
AcDbEntity
  8
A-DETL-GENF
100
AcDbLine
 10
9.700479752674546
 20
-3.86014152175068
 30
0.0
 11
33.11105515782899
 21
-5.908301476321367
 31
0.0
1001
REVIT
1002
{
1070
     3
1000
2656
1002
}
  0
ARC
  5
10E
330
10A
100
AcDbEntity
  8
A-DETL-GENF
100
AcDbCircle
 10
33.2417887719505
 20
-4.414009429184292
 30
0.0
 40
1.500000000001561
100
AcDbArc
 50
264.9999999999975
 51
84.99999999999916
1001
REVIT
1002
{
1070
     3
1000
2656
1002
}
  0
ENDBLK
  5
110
330
10A
100
AcDbEntity
  8
0
100
AcDbBlockEnd
  0
BLOCK
  5
12B
330
124
100
AcDbEntity
  8
0
100
AcDbBlockBegin
  2
FP Timber Nog Packer - Variable-40636-W-TRSIL-14A - Membrane Deck to Wall Junction Detail
 70
     0
 10
0.0
 20
0.0
 30
0.0
  3
FP Timber Nog Packer - Variable-40636-W-TRSIL-14A - Membrane Deck to Wall Junction Detail
  1

  0
LINE
  5
125
330
124
100
AcDbEntity
  8
A-DETL-GENF
100
AcDbLine
 10
45.00000000000048
 20
-5.000000000000254
 30
0.0
 11
0.0
 21
-5.000000000000254
 31
0.0
  0
LINE
  5
126
330
124
100
AcDbEntity
  8
A-DETL-GENF
100
AcDbLine
 10
0.0
 20
-5.000000000000254
 30
0.0
 11
0.0
 21
-24.99999999999865
 31
0.0
  0
LINE
  5
127
330
124
100
AcDbEntity
  8
A-DETL-GENF
100
AcDbLine
 10
0.0
 20
-24.99999999999865
 30
0.0
 11
45.00000000000048
 21
-24.99999999999865
 31
0.0
  0
LINE
  5
128
330
124
100
AcDbEntity
  8
A-DETL-GENF
100
AcDbLine
 10
45.00000000000048
 20
-24.99999999999865
 30
0.0
 11
45.00000000000048
 21
-5.000000000000254
 31
0.0
  0
LINE
  5
129
330
124
100
AcDbEntity
  8
A-DETL-GENF
100
AcDbLine
 10
0.0
 20
-24.99999999999866
 30
0.0
 11
45.00000000000006
 21
-5.000000000001579
 31
0.0
1001
REVIT
1002
{
1070
     3
1000
16362
1002
}
  0
LINE
  5
12A
330
124
100
AcDbEntity
  8
A-DETL-GENF
100
AcDbLine
 10
-0.0000000000001438
 20
-5.000000000001579
 30
0.0
 11
45.00000000000005
 21
-24.99999999999895
 31
0.0
1001
REVIT
1002
{
1070
     3
1000
16362
1002
}
  0
ENDBLK
  5
12C
330
124
100
AcDbEntity
  8
0
100
AcDbBlockEnd
  0
BLOCK
  5
164
330
12E
100
AcDbEntity
  8
0
100
AcDbBlockBegin
  2
4821_Cavity Closure - 4821_Cavity Closure-36600-W-TRSIL-14A - Membrane Deck to Wall Junction Detail
 70
     0
 10
0.0
 20
0.0
 30
0.0
  3
4821_Cavity Closure - 4821_Cavity Closure-36600-W-TRSIL-14A - Membrane Deck to Wall Junction Detail
  1

  0
HATCH
  5
14B
330
12E
100
AcDbEntity
  8
A-DETL-GENF
100
AcDbHatch
 10
0.0
 20
0.0
 30
0.0
210
0.0
220
0.0
230
1.0
  2
SOLID
 70
     1
 71
     0
 91
        2
 92
        0
 93
       14
 72
     1
 10
-0.5000000000012399
 20
-0.0000000000028425
 11
-8.682972479818621
 21
-0.0000000000028425
 72
     1
 10
-8.682972479818621
 20
-0.0000000000028425
 11
-8.682972479818621
 21
-1.301369863015777
 72
     1
 10
-8.682972479818621
 20
-1.301369863015777
 11
-1.299156278198379
 21
-1.301369863015777
 72
     1
 10
-1.299156278198379
 20
-1.301369863015777
 11
-1.27702243984785
 21
-75.16812319368388
 72
     1
 10
-1.27702243984785
 20
-75.16812319368388
 11
-1.108899246167014
 21
-75.45932110706999
 72
     1
 10
-1.108899246167014
 20
-75.45932110706999
 11
-0.8177013327807024
 21
-75.62744430075096
 72
     1
 10
-0.8177013327807024
 20
-75.62744430075096
 11
-0.6495781390997312
 21
-75.64957813910142
 72
     1
 10
-0.6495781390997312
 20
-75.64957813910142
 11
-0.3247890695504747
 21
-75.56255117020523
 72
     1
 10
-0.3247890695504747
 20
-75.56255117020523
 11
-0.0870269688973594
 21
-75.32478906955211
 72
     1
 10
-0.0870269688973593
 20
-75.32478906955211
 11
-0.0000000000013536
 21
-75.00000000000284
 72
     1
 10
-0.0000000000013536
 20
-75.00000000000284
 11
-0.0170370868566305
 21
-0.3727999339253216
 72
     1
 10
-0.0170370868566305
 20
-0.3727999339253262
 11
-0.0669872981088652
 21
-0.2522094564765599
 72
     1
 10
-0.0669872981088652
 20
-0.2522094564765599
 11
-0.3705904774499277
 21
-0.019246543332029
 72
     1
 10
-0.3705904774499277
 20
-0.019246543332029
 11
-0.5000000000012399
 21
-0.0000000000028425
 97
        0
 92
        0
 93
       14
 72
     1
 10
-13.68297247981857
 20
-0.0000000000028425
 11
-21.86594495963622
 21
-0.0000000000027072
 72
     1
 10
-21.86594495963622
 20
-0.0000000000027072
 11
-22.21949835022952
 21
-0.1464466094094316
 72
     1
 10
-22.21949835022952
 20
-0.1464466094094316
 11
-22.3489078727807
 21
-0.3705904774514167
 72
     1
 10
-22.3489078727807
 20
-0.3705904774514167
 11
-22.36594495963625
 21
-0.5000000000027289
 72
     1
 10
-22.36594495963625
 20
-0.5000000000027289
 11
-22.34377347870391
 21
-10.82019877722259
 72
     1
 10
-22.34377347870391
 20
-10.82019877722259
 11
-22.17536436122755
 21
-11.11189192514955
 72
     1
 10
-22.17536436122755
 20
-11.11189192514955
 11
-21.88367121330058
 21
-11.28030104262591
 72
     1
 10
-21.88367121330058
 20
-11.28030104262591
 11
-21.71526209582409
 21
-11.30247252355824
 72
     1
 10
-21.71526209582409
 20
-11.30247252355824
 11
-21.38992066391821
 21
-11.21529754961477
 72
     1
 10
-21.38992066391821
 20
-11.21529754961477
 11
-21.15175420595568
 21
-10.97713109165223
 72
     1
 10
-21.15175420595568
 20
-10.97713109165223
 11
-21.06457923201206
 21
-10.65178965974622
 72
     1
 10
-21.06457923201206
 20
-10.65178965974622
 11
-21.0645792320122
 21
-1.301369863015914
 72
     1
 10
-21.0645792320122
 20
-1.301369863015913
 11
-13.6829724798187
 21
-1.301369863015777
 72
     1
 10
-13.6829724798187
 20
-1.301369863015777
 11
-13.68297247981857
 21
-0.0000000000028426
 97
        0
 75
     0
 76
     1
 98
        1
 10
0.0
 20
0.0
450
        0
451
        0
460
0.0
461
0.0
452
        0
462
0.0
453
        0
470

  0
LINE
  5
14C
330
12E
100
AcDbEntity
  8
A-DETL-GENF
100
AcDbLine
 10
-0.0000000000002749
 20
-75.0
 30
0.0
 11
-0.0000000000002749
 21
-0.5022094564738043
 31
0.0
1001
REVIT
1002
{
1070
     3
1000
19820
1002
}
  0
ARC
  5
14D
330
12E
100
AcDbEntity
  8
A-DETL-GENF
100
AcDbCircle
 10
-0.500000000000278
 20
-0.5022094564738043
 30
0.0
 40
0.5000000000000031
100
AcDbArc
 50
0.000000000000916
 51
89.99999999999976
1001
REVIT
1002
{
1070
     3
1000
19820
1002
}
  0
LINE
  5
14E
330
12E
100
AcDbEntity
  8
A-DETL-GENF
100
AcDbLine
 10
-0.500000000000301
 20
0.0
 30
0.0
 11
-8.682972479817628
 21
0.0
 31
0.0
1001
REVIT
1002
{
1070
     3
1000
19820
1002
}
  0
LINE
  5
14F
330
12E
100
AcDbEntity
  8
A-DETL-GENF
100
AcDbLine
 10
-8.682972479817628
 20
0.0
 30
0.0
 11
-8.682972479817628
 21
-1.301369863012952
 31
0.0
1001
REVIT
1002
{
1070
     3
1000
19820
1002
}
  0
LINE
  5
150
330
12E
100
AcDbEntity
  8
A-DETL-GENF
100
AcDbLine
 10
-8.682972479817628
 20
-1.301369863012952
 30
0.0
 11
-1.29915627819737
 21
-1.301369863012952
 31
0.0
1001
REVIT
1002
{
1070
     3
1000
19820
1002
}
  0
LINE
  5
151
330
12E
100
AcDbEntity
  8
A-DETL-GENF
100
AcDbLine
 10
-1.29915627819737
 20
-1.301369863012952
 30
0.0
 11
-1.29915627819737
 21
-75.0
 31
0.0
1001
REVIT
1002
{
1070
     3
1000
19820
1002
}
  0
ARC
  5
152
330
12E
100
AcDbEntity
  8
A-DETL-GENF
100
AcDbCircle
 10
-0.6495781390988226
 20
-75.0
 30
0.0
 40
0.6495781390985948
100
AcDbArc
 50
180.0000000000023
 51
0.0000000000010687
1001
REVIT
1002
{
1070
     3
1000
19820
1002
}
  0
LINE
  5
153
330
12E
100
AcDbEntity
  8
A-DETL-GENF
100
AcDbLine
 10
-13.68297247981763
 20
-1.30136986301296
 30
0.0
 11
-13.68297247981763
 21
0.0000000000000085
 31
0.0
1001
REVIT
1002
{
1070
     3
1000
19820
1002
}
  0
LINE
  5
154
330
12E
100
AcDbEntity
  8
A-DETL-GENF
100
AcDbLine
 10
-13.68297247981763
 20
0.0000000000000085
 30
0.0
 11
-21.86594495963526
 21
0.0000000000000085
 31
0.0
1001
REVIT
1002
{
1070
     3
1000
19820
1002
}
  0
ARC
  5
155
330
12E
100
AcDbEntity
  8
A-DETL-GENF
100
AcDbCircle
 10
-21.86594495963527
 20
-0.4999999999999794
 30
0.0
 40
0.4999999999999951
100
AcDbArc
 50
89.9999999999995
 51
180.0000000000001
1001
REVIT
1002
{
1070
     3
1000
19820
1002
}
  0
LINE
  5
156
330
12E
100
AcDbEntity
  8
A-DETL-GENF
100
AcDbLine
 10
-22.36594495963525
 20
-0.4999999999999794
 30
0.0
 11
-22.36594495963525
 21
-10.65178965974339
 31
0.0
1001
REVIT
1002
{
1070
     3
1000
19820
1002
}
  0
ARC
  5
157
330
12E
100
AcDbEntity
  8
A-DETL-GENF
100
AcDbCircle
 10
-21.71526209582319
 20
-10.65178965974338
 30
0.0
 40
0.6506828638120657
100
AcDbArc
 50
180.0000000000007
 51
359.9999999999988
1001
REVIT
1002
{
1070
     3
1000
19820
1002
}
  0
LINE
  5
158
330
12E
100
AcDbEntity
  8
A-DETL-GENF
100
AcDbLine
 10
-21.06457923201114
 20
-10.65178965974339
 30
0.0
 11
-21.06457923201114
 21
-1.30136986301296
 31
0.0
1001
REVIT
1002
{
1070
     3
1000
19820
1002
}
  0
LINE
  5
159
330
12E
100
AcDbEntity
  8
A-DETL-GENF
100
AcDbLine
 10
-21.06457923201114
 20
-1.30136986301296
 30
0.0
 11
-13.68297247981763
 21
-1.30136986301296
 31
0.0
1001
REVIT
1002
{
1070
     3
1000
19820
1002
}
  0
LINE
  5
15A
330
12E
100
AcDbEntity
  8
A-DETL-GENF
100
AcDbLine
 10
-1.299156278197482
 20
-1.301369863012956
 30
0.0
 11
-1.299156278197482
 21
-75.0
 31
0.0
1001
REVIT
1002
{
1070
     3
1000
19830
1002
}
  0
ARC
  5
15B
330
12E
100
AcDbEntity
  8
A-DETL-GENF
100
AcDbCircle
 10
-0.6495781390988422
 20
-75.0
 30
0.0
 40
0.6495781390986081
100
AcDbArc
 50
179.9999999999999
 51
359.9999999999996
1001
REVIT
1002
{
1070
     3
1000
19830
1002
}
  0
LINE
  5
15C
330
12E
100
AcDbEntity
  8
A-DETL-GENF
100
AcDbLine
 10
-0.0000000000002876
 20
-75.00000000000001
 30
0.0
 11
-0.0000000000002876
 21
-0.5022094564738043
 31
0.0
1001
REVIT
1002
{
1070
     3
1000
19830
1002
}
  0
ARC
  5
15D
330
12E
100
AcDbEntity
  8
A-DETL-GENF
100
AcDbCircle
 10
-0.5000000000002755
 20
-0.5022094564738002
 30
0.0
 40
0.5000000000000002
100
AcDbArc
 50
0.0000000000000763
 51
89.99999999999969
1001
REVIT
1002
{
1070
     3
1000
19830
1002
}
  0
LINE
  5
15E
330
12E
100
AcDbEntity
  8
A-DETL-GENF
100
AcDbLine
 10
-22.36594495963526
 20
-10.69684737592366
 30
0.0
 11
-22.36594495963526
 21
-0.5000000000000027
 31
0.0
1001
REVIT
1002
{
1070
     3
1000
19830
1002
}
  0
LINE
  5
15F
330
12E
100
AcDbEntity
  8
A-DETL-GENF
100
AcDbLine
 10
-0.5000000000002755
 20
0.0
 30
0.0
 11
-21.86594495963526
 21
0.0
 31
0.0
1001
REVIT
1002
{
1070
     3
1000
19830
1002
}
  0
ARC
  5
160
330
12E
100
AcDbEntity
  8
A-DETL-GENF
100
AcDbCircle
 10
-21.86594495963526
 20
-0.5000000000000048
 30
0.0
 40
0.4999999999999992
100
AcDbArc
 50
90.00000000000031
 51
180.0000000000003
1001
REVIT
1002
{
1070
     3
1000
19830
1002
}
  0
LINE
  5
161
330
12E
100
AcDbEntity
  8
A-DETL-GENF
100
AcDbLine
 10
-21.06594495963525
 20
-1.301369863012962
 30
0.0
 11
-21.06594495963525
 21
-10.69684737592366
 31
0.0
1001
REVIT
1002
{
1070
     3
1000
19830
1002
}
  0
ARC
  5
162
330
12E
100
AcDbEntity
  8
A-DETL-GENF
100
AcDbCircle
 10
-21.71594495963525
 20
-10.69684737592366
 30
0.0
 40
0.6500000000000093
100
AcDbArc
 50
180.0
 51
0.0
1001
REVIT
1002
{
1070
     3
1000
19830
1002
}
  0
LINE
  5
163
330
12E
100
AcDbEntity
  8
A-DETL-GENF
100
AcDbLine
 10
-21.06594495963525
 20
-1.301369863012962
 30
0.0
 11
-1.299156278197482
 21
-1.301369863012962
 31
0.0
1001
REVIT
1002
{
1070
     3
1000
19830
1002
}
  0
ENDBLK
  5
165
330
12E
100
AcDbEntity
  8
0
100
AcDbBlockEnd
  0
BLOCK
  5
184
330
17E
100
AcDbEntity
  8
0
100
AcDbBlockBegin
  2
breakline with fill detail1to5 - breakline with fill detail1to5-200687-W-TRSIL-14A - Membrane Deck to Wall Junction Detail
 70
     0
 10
0.0
 20
0.0
 30
0.0
  3
breakline with fill detail1to5 - breakline with fill detail1to5-200687-W-TRSIL-14A - Membrane Deck to Wall Junction Detail
  1

  0
LINE
  5
17F
330
17E
100
AcDbEntity
  8
A-DETL-GENF
100
AcDbLine
 10
50.53651206647768
 20
0.0
 30
0.0
 11
3.716620848870194
 21
0.0
 31
0.0
  0
LINE
  5
180
330
17E
100
AcDbEntity
  8
A-DETL-GENF
100
AcDbLine
 10
3.716620848870194
 20
0.0000000000000006
 30
0.0
 11
1.858310424435101
 21
-10.53900212530473
 31
0.0
  0
LINE
  5
181
330
17E
100
AcDbEntity
  8
A-DETL-GENF
100
AcDbLine
 10
1.858310424435093
 20
-10.53900212530473
 30
0.0
 11
-1.867677296005189
 21
10.59212429374691
 31
0.0
  0
LINE
  5
182
330
17E
100
AcDbEntity
  8
A-DETL-GENF
100
AcDbLine
 10
-1.867677296005188
 20
10.59212429374694
 30
0.0
 11
-3.735354592010385
 21
0.0
 31
0.0
  0
LINE
  5
183
330
17E
100
AcDbEntity
  8
A-DETL-GENF
100
AcDbLine
 10
-3.735354592010385
 20
0.0
 30
0.0
 11
-50.53651206647765
 21
0.0
 31
0.0
  0
ENDBLK
  5
185
330
17E
100
AcDbEntity
  8
0
100
AcDbBlockEnd
  0
BLOCK
  5
189
330
187
100
AcDbEntity
  8
0
100
AcDbBlockBegin
  2
rs_building wrap - Building wrap-109703-W-TRSIL-14A - Membrane Deck to Wall Junction Detail
 70
     0
 10
0.0
 20
0.0
 30
0.0
  3
rs_building wrap - Building wrap-109703-W-TRSIL-14A - Membrane Deck to Wall Junction Detail
  1

  0
LINE
  5
188
330
187
100
AcDbEntity
  8
A-DETL-GENF
100
AcDbLine
 10
0.0
 20
0.0
 30
0.0
 11
86.87500000000028
 21
0.0
 31
0.0
1001
REVIT
1002
{
1070
     3
1000
10657
1002
}
  0
ENDBLK
  5
18A
330
187
100
AcDbEntity
  8
0
100
AcDbBlockEnd
  0
BLOCK
  5
18E
330
18C
100
AcDbEntity
  8
0
100
AcDbBlockBegin
  2
rs_building wrap - Building wrap-109646-W-TRSIL-14A - Membrane Deck to Wall Junction Detail
 70
     0
 10
0.0
 20
0.0
 30
0.0
  3
rs_building wrap - Building wrap-109646-W-TRSIL-14A - Membrane Deck to Wall Junction Detail
  1

  0
LINE
  5
18D
330
18C
100
AcDbEntity
  8
A-DETL-GENF
100
AcDbLine
 10
0.0
 20
0.0
 30
0.0
 11
11.28196069351242
 21
0.0
 31
0.0
1001
REVIT
1002
{
1070
     3
1000
10657
1002
}
  0
ENDBLK
  5
18F
330
18C
100
AcDbEntity
  8
0
100
AcDbBlockEnd
  0
BLOCK
  5
196
330
191
100
AcDbEntity
  8
0
100
AcDbBlockBegin
  2
FP Timber Nog Packer - Variable-200217-W-TRSIL-14A - Membrane Deck to Wall Junction Detail
 70
     0
 10
0.0
 20
0.0
 30
0.0
  3
FP Timber Nog Packer - Variable-200217-W-TRSIL-14A - Membrane Deck to Wall Junction Detail
  1

  0
LINE
  5
192
330
191
100
AcDbEntity
  8
A-DETL-GENF
100
AcDbLine
 10
89.86595269641897
 20
24.99999999999865
 30
0.0
 11
0.0
 21
24.99999999999865
 31
0.0
  0
LINE
  5
193
330
191
100
AcDbEntity
  8
A-DETL-GENF
100
AcDbLine
 10
0.0
 20
24.99999999999865
 30
0.0
 11
0.0
 21
-19.99999999999973
 31
0.0
  0
LINE
  5
194
330
191
100
AcDbEntity
  8
A-DETL-GENF
100
AcDbLine
 10
0.0
 20
24.99999999999866
 30
0.0
 11
89.86595269641908
 21
3.715958571900793
 31
0.0
1001
REVIT
1002
{
1070
     3
1000
16362
1002
}
  0
LINE
  5
195
330
191
100
AcDbEntity
  8
A-DETL-GENF
100
AcDbLine
 10
-0.0000000000001438
 20
-19.9999999999984
 30
0.0
 11
89.8659526964191
 21
1.284041428099617
 31
0.0
1001
REVIT
1002
{
1070
     3
1000
16362
1002
}
  0
ENDBLK
  5
197
330
191
100
AcDbEntity
  8
0
100
AcDbBlockEnd
  0
BLOCK
  5
19F
330
199
100
AcDbEntity
  8
0
100
AcDbBlockBegin
  2
FP Timber Nog Packer - Variable-V1-W-TRSIL-14A - Membrane Deck to Wall Junction Detail
 70
     0
 10
0.0
 20
0.0
 30
0.0
  3
FP Timber Nog Packer - Variable-V1-W-TRSIL-14A - Membrane Deck to Wall Junction Detail
  1

  0
LINE
  5
19A
330
199
100
AcDbEntity
  8
A-DETL-GENF
100
AcDbLine
 10
89.86595269641929
 20
24.99999999999865
 30
0.0
 11
0.0
 21
24.99999999999865
 31
0.0
  0
LINE
  5
19B
330
199
100
AcDbEntity
  8
A-DETL-GENF
100
AcDbLine
 10
0.0
 20
24.99999999999865
 30
0.0
 11
0.0
 21
-19.99999999999973
 31
0.0
  0
LINE
  5
19C
330
199
100
AcDbEntity
  8
A-DETL-GENF
100
AcDbLine
 10
0.0
 20
-19.99999999999973
 30
0.0
 11
89.86595269641956
 21
-19.99999999999973
 31
0.0
  0
LINE
  5
19D
330
199
100
AcDbEntity
  8
A-DETL-GENF
100
AcDbLine
 10
0.0
 20
24.99999999999866
 30
0.0
 11
89.86595269641943
 21
3.715958571900717
 31
0.0
1001
REVIT
1002
{
1070
     3
1000
16362
1002
}
  0
LINE
  5
19E
330
199
100
AcDbEntity
  8
A-DETL-GENF
100
AcDbLine
 10
-0.0000000000001438
 20
-19.9999999999984
 30
0.0
 11
89.86595269641941
 21
1.284041428099693
 31
0.0
1001
REVIT
1002
{
1070
     3
1000
16362
1002
}
  0
ENDBLK
  5
1A0
330
199
100
AcDbEntity
  8
0
100
AcDbBlockEnd
  0
BLOCK
  5
1AA
330
1A4
100
AcDbEntity
  8
0
100
AcDbBlockBegin
  2
breakline with fill detail1to5 - breakline with fill detail1to5-200769-W-TRSIL-14A - Membrane Deck to Wall Junction Detail
 70
     0
 10
0.0
 20
0.0
 30
0.0
  3
breakline with fill detail1to5 - breakline with fill detail1to5-200769-W-TRSIL-14A - Membrane Deck to Wall Junction Detail
  1

  0
LINE
  5
1A5
330
1A4
100
AcDbEntity
  8
A-DETL-GENF
100
AcDbLine
 10
114.7681986046517
 20
0.0
 30
0.0
 11
3.716620848870186
 21
0.0
 31
0.0
  0
LINE
  5
1A6
330
1A4
100
AcDbEntity
  8
A-DETL-GENF
100
AcDbLine
 10
3.716620848870186
 20
0.0000000000000006
 30
0.0
 11
1.858310424435101
 21
-10.53900212530473
 31
0.0
  0
LINE
  5
1A7
330
1A4
100
AcDbEntity
  8
A-DETL-GENF
100
AcDbLine
 10
1.858310424435101
 20
-10.53900212530473
 30
0.0
 11
-1.867677296005188
 21
10.59212429374691
 31
0.0
  0
LINE
  5
1A8
330
1A4
100
AcDbEntity
  8
A-DETL-GENF
100
AcDbLine
 10
-1.867677296005188
 20
10.59212429374694
 30
0.0
 11
-3.735354592010394
 21
0.0
 31
0.0
  0
LINE
  5
1A9
330
1A4
100
AcDbEntity
  8
A-DETL-GENF
100
AcDbLine
 10
-3.735354592010394
 20
0.0
 30
0.0
 11
-114.7681986046517
 21
0.0
 31
0.0
  0
ENDBLK
  5
1AB
330
1A4
100
AcDbEntity
  8
0
100
AcDbBlockEnd
  0
BLOCK
  5
1AF
330
1AD
100
AcDbEntity
  8
0
100
AcDbBlockBegin
  2
rs_building wrap - Building wrap-200996-W-TRSIL-14A - Membrane Deck to Wall Junction Detail
 70
     0
 10
0.0
 20
0.0
 30
0.0
  3
rs_building wrap - Building wrap-200996-W-TRSIL-14A - Membrane Deck to Wall Junction Detail
  1

  0
LINE
  5
1AE
330
1AD
100
AcDbEntity
  8
A-DETL-GENF
100
AcDbLine
 10
0.0
 20
0.0
 30
0.0
 11
262.1608701506187
 21
0.0
 31
0.0
1001
REVIT
1002
{
1070
     3
1000
10657
1002
}
  0
ENDBLK
  5
1B0
330
1AD
100
AcDbEntity
  8
0
100
AcDbBlockEnd
  0
BLOCK
  5
1B4
330
1B2
100
AcDbEntity
  8
0
100
AcDbBlockBegin
  2
rs_building wrap - Building wrap-200961-W-TRSIL-14A - Membrane Deck to Wall Junction Detail
 70
     0
 10
0.0
 20
0.0
 30
0.0
  3
rs_building wrap - Building wrap-200961-W-TRSIL-14A - Membrane Deck to Wall Junction Detail
  1

  0
LINE
  5
1B3
330
1B2
100
AcDbEntity
  8
A-DETL-GENF
100
AcDbLine
 10
0.0
 20
0.0
 30
0.0
 11
71.35718371329355
 21
0.0
 31
0.0
1001
REVIT
1002
{
1070
     3
1000
10657
1002
}
  0
ENDBLK
  5
1B5
330
1B2
100
AcDbEntity
  8
0
100
AcDbBlockEnd
  0
BLOCK
  5
1B9
330
1B7
100
AcDbEntity
  8
0
100
AcDbBlockBegin
  2
rs_building wrap - Building wrap-200906-W-TRSIL-14A - Membrane Deck to Wall Junction Detail
 70
     0
 10
0.0
 20
0.0
 30
0.0
  3
rs_building wrap - Building wrap-200906-W-TRSIL-14A - Membrane Deck to Wall Junction Detail
  1

  0
LINE
  5
1B8
330
1B7
100
AcDbEntity
  8
A-DETL-GENF
100
AcDbLine
 10
0.0
 20
0.0
 30
0.0
 11
5.000000000000081
 21
0.0
 31
0.0
1001
REVIT
1002
{
1070
     3
1000
10657
1002
}
  0
ENDBLK
  5
1BA
330
1B7
100
AcDbEntity
  8
0
100
AcDbBlockEnd
  0
BLOCK
  5
1C2
330
1BC
100
AcDbEntity
  8
0
100
AcDbBlockBegin
  2
breakline with fill detail1to5 - breakline with fill detail1to5-38694-W-TRSIL-14A - Membrane Deck to Wall Junction Detail
 70
     0
 10
0.0
 20
0.0
 30
0.0
  3
breakline with fill detail1to5 - breakline with fill detail1to5-38694-W-TRSIL-14A - Membrane Deck to Wall Junction Detail
  1

  0
LINE
  5
1BD
330
1BC
100
AcDbEntity
  8
A-DETL-GENF
100
AcDbLine
 10
125.0
 20
0.0
 30
0.0
 11
3.716620848870186
 21
0.0
 31
0.0
  0
LINE
  5
1BE
330
1BC
100
AcDbEntity
  8
A-DETL-GENF
100
AcDbLine
 10
3.716620848870186
 20
0.0000000000000006
 30
0.0
 11
1.858310424435101
 21
-10.53900212530473
 31
0.0
  0
LINE
  5
1BF
330
1BC
100
AcDbEntity
  8
A-DETL-GENF
100
AcDbLine
 10
1.858310424435101
 20
-10.53900212530473
 30
0.0
 11
-1.867677296005188
 21
10.59212429374691
 31
0.0
  0
LINE
  5
1C0
330
1BC
100
AcDbEntity
  8
A-DETL-GENF
100
AcDbLine
 10
-1.867677296005188
 20
10.59212429374694
 30
0.0
 11
-3.735354592010394
 21
0.0
 31
0.0
  0
LINE
  5
1C1
330
1BC
100
AcDbEntity
  8
A-DETL-GENF
100
AcDbLine
 10
-3.735354592010394
 20
0.0
 30
0.0
 11
-125.0
 21
0.0
 31
0.0
  0
ENDBLK
  5
1C3
330
1BC
100
AcDbEntity
  8
0
100
AcDbBlockEnd
  0
BLOCK
  5
222
330
220
100
AcDbEntity
  8
0
100
AcDbBlockBegin
  2
_Oblique
 70
     0
 10
0.0
 20
0.0
 30
0.0
  3
_Oblique
  1

  0
LINE
  5
221
330
220
100
AcDbEntity
  8
0
  6
ByBlock
 62
     0
370
    -2
100
AcDbLine
 10
-0.5
 20
-0.5
 30
0.0
 11
0.5
 21
0.5
 31
0.0
  0
ENDBLK
  5
223
330
220
100
AcDbEntity
  8
0
100
AcDbBlockEnd
  0
BLOCK
  5
21D
330
226
100
AcDbEntity
  8
0
100
AcDbBlockBegin
  2
DIMBLOCK1-W-TRSIL-14A - Membrane Deck to Wall Junction Detail
 70
     0
 10
0.0
 20
0.0
 30
0.0
  3
DIMBLOCK1-W-TRSIL-14A - Membrane Deck to Wall Junction Detail
  1

  0
LINE
  5
212
330
226
100
AcDbEntity
  8
A-ANNO-DIMS-5
100
AcDbLine
 10
1171.197859154633
 20
3348.550736573957
 30
0.0
 11
1171.197859154633
 21
3406.139881201163
 31
0.0
1001
REVIT
1002
{
1070
     2
1000
-2000260
1002
}
  0
LINE
  5
213
330
226
100
AcDbEntity
  8
A-ANNO-DIMS-5
370
    35
100
AcDbLine
 10
1171.197859154633
 20
3406.139881201163
 30
0.0
 11
1177.447859154632
 21
3399.889881201163
 31
0.0
1001
REVIT
1002
{
1070
     2
1000
-2000260
1002
}
  0
LINE
  5
214
330
226
100
AcDbEntity
  8
A-ANNO-DIMS-5
370
    35
100
AcDbLine
 10
1171.197859154633
 20
3406.139881201163
 30
0.0
 11
1164.947859154632
 21
3412.389881201164
 31
0.0
1001
REVIT
1002
{
1070
     2
1000
-2000260
1002
}
  0
LINE
  5
215
330
226
100
AcDbEntity
  8
A-ANNO-DIMS-5
100
AcDbLine
 10
1156.197859154632
 20
3406.139881201163
 30
0.0
 11
1181.197859154632
 21
3406.139881201163
 31
0.0
1001
REVIT
1002
{
1070
     2
1000
-2000260
1002
}
  0
LINE
  5
216
330
226
100
AcDbEntity
  8
A-ANNO-DIMS-5
100
AcDbLine
 10
1171.197859154632
 20
3406.139881201163
 30
0.0
 11
1156.197859154632
 21
3406.139881201163
 31
0.0
1001
REVIT
1002
{
1070
     2
1000
-2000260
1002
}
  0
LINE
  5
217
330
226
100
AcDbEntity
  8
A-ANNO-DIMS-5
370
    35
100
AcDbLine
 10
1171.197859154633
 20
3348.550736573957
 30
0.0
 11
1177.447859154632
 21
3342.300736573957
 31
0.0
1001
REVIT
1002
{
1070
     2
1000
-2000260
1002
}
  0
LINE
  5
218
330
226
100
AcDbEntity
  8
A-ANNO-DIMS-5
370
    35
100
AcDbLine
 10
1171.197859154633
 20
3348.550736573957
 30
0.0
 11
1164.947859154632
 21
3354.800736573958
 31
0.0
1001
REVIT
1002
{
1070
     2
1000
-2000260
1002
}
  0
LINE
  5
219
330
226
100
AcDbEntity
  8
A-ANNO-DIMS-5
100
AcDbLine
 10
1156.197859154632
 20
3348.550736573957
 30
0.0
 11
1181.197859154632
 21
3348.550736573957
 31
0.0
1001
REVIT
1002
{
1070
     2
1000
-2000260
1002
}
  0
LINE
  5
21A
330
226
100
AcDbEntity
  8
A-ANNO-DIMS-5
100
AcDbLine
 10
1171.197859154632
 20
3348.550736573957
 30
0.0
 11
1156.197859154632
 21
3348.550736573957
 31
0.0
1001
REVIT
1002
{
1070
     2
1000
-2000260
1002
}
  0
MTEXT
  5
21B
330
226
100
AcDbEntity
  8
A-ANNO-DIMS-5
 62
     0
100
AcDbMText
 10
1187.888909866987
 20
3383.112080957835
 30
0.0
 40
12.5
 41
63.14731916863129
 46
0.0
 71
     1
 72
     1
  1
35 min.
  7
Century Gothic
 73
     2
 44
0.9845015114479526
 90
        3
 63
     9
421
 13158600
 45
1.25
441
        0
1001
REVIT
1002
{
1070
     2
1000
-2000260
1002
}
  0
ENDBLK
  5
21E
330
226
100
AcDbEntity
  8
0
100
AcDbBlockEnd
  0
BLOCK
  5
23D
330
240
100
AcDbEntity
  8
0
100
AcDbBlockBegin
  2
DIMBLOCK2-W-TRSIL-14A - Membrane Deck to Wall Junction Detail
 70
     0
 10
0.0
 20
0.0
 30
0.0
  3
DIMBLOCK2-W-TRSIL-14A - Membrane Deck to Wall Junction Detail
  1

  0
LINE
  5
233
330
240
100
AcDbEntity
  8
A-ANNO-DIMS-5
100
AcDbLine
 10
1171.198145012023
 20
3406.139881201163
 30
0.0
 11
1171.198145012023
 21
3428.260507488964
 31
0.0
1001
REVIT
1002
{
1070
     2
1000
-2000260
1002
}
  0
LINE
  5
234
330
240
100
AcDbEntity
  8
A-ANNO-DIMS-5
370
    35
100
AcDbLine
 10
1171.198145012023
 20
3428.260507488964
 30
0.0
 11
1177.448145012023
 21
3422.010507488965
 31
0.0
1001
REVIT
1002
{
1070
     2
1000
-2000260
1002
}
  0
LINE
  5
235
330
240
100
AcDbEntity
  8
A-ANNO-DIMS-5
370
    35
100
AcDbLine
 10
1171.198145012023
 20
3428.260507488964
 30
0.0
 11
1164.948145012023
 21
3434.510507488965
 31
0.0
1001
REVIT
1002
{
1070
     2
1000
-2000260
1002
}
  0
LINE
  5
236
330
240
100
AcDbEntity
  8
A-ANNO-DIMS-5
100
AcDbLine
 10
1156.198145012023
 20
3428.260507488964
 30
0.0
 11
1181.198145012023
 21
3428.260507488964
 31
0.0
1001
REVIT
1002
{
1070
     2
1000
-2000260
1002
}
  0
LINE
  5
237
330
240
100
AcDbEntity
  8
A-ANNO-DIMS-5
100
AcDbLine
 10
1171.198145012023
 20
3428.260507488964
 30
0.0
 11
1156.198145012023
 21
3428.260507488964
 31
0.0
1001
REVIT
1002
{
1070
     2
1000
-2000260
1002
}
  0
LINE
  5
238
330
240
100
AcDbEntity
  8
A-ANNO-DIMS-5
370
    35
100
AcDbLine
 10
1171.198145012023
 20
3406.139881201163
 30
0.0
 11
1177.448145012023
 21
3399.889881201163
 31
0.0
1001
REVIT
1002
{
1070
     2
1000
-2000260
1002
}
  0
LINE
  5
239
330
240
100
AcDbEntity
  8
A-ANNO-DIMS-5
370
    35
100
AcDbLine
 10
1171.198145012023
 20
3406.139881201163
 30
0.0
 11
1164.948145012023
 21
3412.389881201164
 31
0.0
1001
REVIT
1002
{
1070
     2
1000
-2000260
1002
}
  0
LINE
  5
23A
330
240
100
AcDbEntity
  8
A-ANNO-DIMS-5
100
AcDbLine
 10
1156.198145012023
 20
3406.139881201163
 30
0.0
 11
1181.198145012023
 21
3406.139881201163
 31
0.0
1001
REVIT
1002
{
1070
     2
1000
-2000260
1002
}
  0
LINE
  5
23B
330
240
100
AcDbEntity
  8
A-ANNO-DIMS-5
100
AcDbLine
 10
1171.198145012023
 20
3406.139881201163
 30
0.0
 11
1156.198145012023
 21
3406.139881201163
 31
0.0
1001
REVIT
1002
{
1070
     2
1000
-2000260
1002
}
  0
MTEXT
  5
23C
330
240
100
AcDbEntity
  8
A-ANNO-DIMS-5
 62
     0
100
AcDbMText
 10
1183.623543871278
 20
3422.966966415339
 30
0.0
 40
12.5
 41
149.1668956739322
 46
0.0
 71
     1
 72
     1
  1
10mm drip edge
  7
Century Gothic
 73
     2
 44
0.9845015114479526
 90
        3
 63
     9
421
 13158600
 45
1.25
441
        0
1001
REVIT
1002
{
1070
     2
1000
-2000260
1002
}
  0
ENDBLK
  5
23E
330
240
100
AcDbEntity
  8
0
100
AcDbBlockEnd
  0
BLOCK
  5
25F
330
263
100
AcDbEntity
  8
0
100
AcDbBlockBegin
  2
DIMBLOCK3-W-TRSIL-14A - Membrane Deck to Wall Junction Detail
 70
     0
 10
0.0
 20
0.0
 30
0.0
  3
DIMBLOCK3-W-TRSIL-14A - Membrane Deck to Wall Junction Detail
  1

  0
LINE
  5
255
330
263
100
AcDbEntity
  8
A-ANNO-DIMS-5
100
AcDbLine
 10
939.6949192474256
 20
3348.550736573957
 30
0.0
 11
939.6949192474256
 21
3533.413827669229
 31
0.0
1001
REVIT
1002
{
1070
     2
1000
-2000260
1002
}
  0
LINE
  5
256
330
263
100
AcDbEntity
  8
A-ANNO-DIMS-5
370
    35
100
AcDbLine
 10
939.6949192474256
 20
3533.413827669229
 30
0.0
 11
945.9449192474254
 21
3527.163827669229
 31
0.0
1001
REVIT
1002
{
1070
     2
1000
-2000260
1002
}
  0
LINE
  5
257
330
263
100
AcDbEntity
  8
A-ANNO-DIMS-5
370
    35
100
AcDbLine
 10
939.6949192474256
 20
3533.413827669229
 30
0.0
 11
933.4449192474256
 21
3539.663827669229
 31
0.0
1001
REVIT
1002
{
1070
     2
1000
-2000260
1002
}
  0
LINE
  5
258
330
263
100
AcDbEntity
  8
A-ANNO-DIMS-5
100
AcDbLine
 10
964.2145088422232
 20
3533.413827669229
 30
0.0
 11
929.6949192474256
 21
3533.413827669229
 31
0.0
1001
REVIT
1002
{
1070
     2
1000
-2000260
1002
}
  0
LINE
  5
259
330
263
100
AcDbEntity
  8
A-ANNO-DIMS-5
100
AcDbLine
 10
939.6949192474256
 20
3533.413827669229
 30
0.0
 11
964.214508842223
 21
3533.413827669229
 31
0.0
1001
REVIT
1002
{
1070
     2
1000
-2000260
1002
}
  0
LINE
  5
25A
330
263
100
AcDbEntity
  8
A-ANNO-DIMS-5
370
    35
100
AcDbLine
 10
939.6949192474256
 20
3348.550736573957
 30
0.0
 11
945.9449192474254
 21
3342.300736573957
 31
0.0
1001
REVIT
1002
{
1070
     2
1000
-2000260
1002
}
  0
LINE
  5
25B
330
263
100
AcDbEntity
  8
A-ANNO-DIMS-5
370
    35
100
AcDbLine
 10
939.6949192474256
 20
3348.550736573957
 30
0.0
 11
933.4449192474256
 21
3354.800736573958
 31
0.0
1001
REVIT
1002
{
1070
     2
1000
-2000260
1002
}
  0
LINE
  5
25C
330
263
100
AcDbEntity
  8
A-ANNO-DIMS-5
100
AcDbLine
 10
964.2145088422232
 20
3348.550736573957
 30
0.0
 11
929.6949192474256
 21
3348.550736573957
 31
0.0
1001
REVIT
1002
{
1070
     2
1000
-2000260
1002
}
  0
LINE
  5
25D
330
263
100
AcDbEntity
  8
A-ANNO-DIMS-5
100
AcDbLine
 10
939.6949192474256
 20
3348.550736573957
 30
0.0
 11
964.214508842223
 21
3348.550736573957
 31
0.0
1001
REVIT
1002
{
1070
     2
1000
-2000260
1002
}
  0
MTEXT
  5
25E
330
263
100
AcDbEntity
  8
A-ANNO-DIMS-5
 62
     0
100
AcDbMText
 10
918.6729230995689
 20
3395.921449053425
 30
0.0
 40
12.5
 41
108.1459993636008
 46
0.0
 71
     1
 72
     1
  1
150mm min.
  7
Century Gothic
 11
0.0
 21
1.0
 31
0.0
 73
     2
 44
0.9845015114479526
 90
        3
 63
     9
421
 13158600
 45
1.25
441
        0
1001
REVIT
1002
{
1070
     2
1000
-2000260
1002
}
  0
ENDBLK
  5
260
330
263
100
AcDbEntity
  8
0
100
AcDbBlockEnd
  0
BLOCK
  5
2B0
330
285
100
AcDbEntity
  8
0
100
AcDbBlockBegin
  2
Titleblock A4 The roofing store - Titleblock A4 The roofing store-2694-Membrane Deck _ Wall Jnc_ Detail
 70
     0
 10
0.0
 20
0.0
 30
0.0
  3
Titleblock A4 The roofing store - Titleblock A4 The roofing store-2694-Membrane Deck _ Wall Jnc_ Detail
  1

  0
IMAGE
  5
288
330
285
100
AcDbEntity
  8
G-ANNO-TTLB
160
               140
310
8C000000010000008400000006000000050000005617394A1B7A1640B7935150A3172A4000000000000000005617394A1B7A1640DCC928A8D10B3640000000000000000095168F065A825140DCC928A8D10B3640000000000000000095168F065A825140B7935150A3172A4000000000000000005617394A1B7A1640B79351
310
50A3172A400000000000000000
100
AcDbRasterImage
 90
        0
 10
5.619244727835242
 20
13.0461678599912
 30
0.0
 11
0.0225
 21
0.0
 31
0.0
 12
0.0
 22
0.0225
 32
0.0
 13
2863.0
 23
400.0
340
287
 70
     7
280
     0
281
    50
282
    50
283
     0
290
     0
360
289
 71
     1
 91
        2
 14
-0.5
 24
-0.5
 14
2862.5
 24
399.5
  0
LINE
  5
28B
330
285
100
AcDbEntity
  8
G-ANNO-TTLB-THIN
100
AcDbLine
 10
291.9756745145733
 20
16.5981545959536
 30
0.0
 11
236.9756745145732
 21
16.5981545959536
 31
0.0
1001
REVIT
1002
{
1070
     3
1000
-2000281
1002
}
  0
LINE
  5
28C
330
285
100
AcDbEntity
  8
G-ANNO-TTLB
100
AcDbLine
 10
71.28674472783522
 20
23.02396756137834
 30
0.0
 11
71.28674472783522
 21
5.023967561378343
 31
0.0
  0
LINE
  5
28E
330
285
100
AcDbEntity
  8
G-ANNO-TTLB-MEDM
100
AcDbLine
 10
291.9756745145733
 20
205.0239675613797
 30
0.0
 11
4.975674514620406
 21
205.0239675613797
 31
0.0
1001
REVIT
1002
{
1070
     3
1000
-2000282
1002
}
  0
LINE
  5
28F
330
285
100
AcDbEntity
  8
G-ANNO-TTLB-MEDM
100
AcDbLine
 10
4.975674514620408
 20
205.0239675613797
 30
0.0
 11
4.975674514620408
 21
5.02396756137836
 31
0.0
1001
REVIT
1002
{
1070
     3
1000
-2000282
1002
}
  0
LINE
  5
290
330
285
100
AcDbEntity
  8
G-ANNO-TTLB-MEDM
100
AcDbLine
 10
4.975674514620408
 20
5.023967561378343
 30
0.0
 11
291.9756745145733
 21
5.023967561378343
 31
0.0
1001
REVIT
1002
{
1070
     3
1000
-2000282
1002
}
  0
LINE
  5
291
330
285
100
AcDbEntity
  8
G-ANNO-TTLB-MEDM
100
AcDbLine
 10
291.9756745145733
 20
5.023967561378343
 30
0.0
 11
291.9756745145733
 21
205.0239675613797
 31
0.0
1001
REVIT
1002
{
1070
     3
1000
-2000282
1002
}
  0
LINE
  5
292
330
285
100
AcDbEntity
  8
G-ANNO-TTLB-THIN
100
AcDbLine
 10
291.9756745145733
 20
23.02396756137834
 30
0.0
 11
4.975674514620406
 21
23.02396756137834
 31
0.0
1001
REVIT
1002
{
1070
     3
1000
-2000281
1002
}
  0
LINE
  5
293
330
285
100
AcDbEntity
  8
G-ANNO-TTLB
100
AcDbLine
 10
236.9756745145732
 20
23.02396756137834
 30
0.0
 11
236.9756745145732
 21
5.023967561378343
 31
0.0
  0
MTEXT
  5
295
330
285
100
AcDbEntity
  8
G-ANNO-TTLB
100
AcDbMText
 10
9.61486176751347
 20
34.25458782332127
 30
0.0
 40
1.8
 41
2.309769
 46
0.0
 71
     1
 72
     1
  1
\U+2022
  7
Century Gothic_1
 73
     2
 44
1.0
  0
MTEXT
  5
296
330
285
100
AcDbEntity
  8
G-ANNO-TTLB
100
AcDbMText
 10
9.61486176751347
 20
31.3441711566546
 30
0.0
 40
1.8
 41
2.309769
 46
0.0
 71
     1
 72
     1
  1
\U+2022
  7
Century Gothic_1
 73
     2
 44
1.0
  0
MTEXT
  5
297
330
285
100
AcDbEntity
  8
G-ANNO-TTLB
100
AcDbMText
 10
9.61486176751347
 20
28.43375448998793
 30
0.0
 40
1.8
 41
2.309769
 46
0.0
 71
     1
 72
     1
  1
\U+2022
  7
Century Gothic_1
 73
     2
 44
1.0
  0
MTEXT
  5
298
330
285
100
AcDbEntity
  8
G-ANNO-TTLB
100
AcDbMText
 10
11.51986176751347
 20
34.25458782332127
 30
0.0
 40
1.8
 41
154.116405
 46
0.0
 71
     1
 72
     1
  1
These details are generally in accordance with NZBC E2/AS1 and or the NZ metal roof & wall caldding code of practice.
  7
Century Gothic_1
 73
     2
 44
1.0
  0
MTEXT
  5
299
330
285
100
AcDbEntity
  8
G-ANNO-TTLB
100
AcDbMText
 10
11.51986176751347
 20
31.3441711566546
 30
0.0
 40
1.8
 41
137.0885625
 46
0.0
 71
     1
 72
     1
  1
The building Architect / Designer is ultimately responsible for details to meet the NZ Building Code & E2/AS1.
  7
Century Gothic_1
 73
     2
 44
1.0
  0
MTEXT
  5
29A
330
285
100
AcDbEntity
  8
G-ANNO-TTLB
100
AcDbMText
 10
11.51986176751347
 20
28.43375448998794
 30
0.0
 40
1.8
 41
118.401226875
 46
0.0
 71
     1
 72
     1
  1
For Further information please contact your nearest roofing store www.theroofingstore.co.nz.
  7
Century Gothic_1
 73
     2
 44
1.0
  0
MTEXT
  5
29B
330
285
100
AcDbEntity
  8
G-ANNO-TTLB
100
AcDbMText
 10
152.075785282666
 20
20.51531106318182
 30
0.0
 40
1.8
 41
20.77974
 46
0.0
 71
     1
 72
     1
  1
P: HEAD OFFICE 
  7
Century Gothic_1
 73
     2
 44
1.0
  0
MTEXT
  5
29C
330
285
100
AcDbEntity
  8
G-ANNO-TTLB
100
AcDbMText
 10
169.220785282666
 20
20.51531106318182
 30
0.0
 40
1.8
 41
6.926579999999998
 46
0.0
 71
     1
 72
     1
  1
^I
  7
Century Gothic_1
 73
     2
 44
1.0
  0
MTEXT
  5
29D
330
285
100
AcDbEntity
  8
G-ANNO-TTLB
100
AcDbMText
 10
174.935785282666
 20
20.51531106318182
 30
0.0
 40
1.8
 41
15.079741875
 46
0.0
 71
     1
 72
     1
  1
09 277 2717
  7
Century Gothic_1
 73
     2
 44
1.0
  0
MTEXT
  5
29E
330
285
100
AcDbEntity
  8
G-ANNO-TTLB
100
AcDbMText
 10
152.075785282666
 20
17.60489439651515
 30
0.0
 40
1.8
 41
13.492400625
 46
0.0
 71
     1
 72
     1
  1
    ALBANY 
  7
Century Gothic_1
 73
     2
 44
1.0
  0
MTEXT
  5
29F
330
285
100
AcDbEntity
  8
G-ANNO-TTLB
100
AcDbMText
 10
163.208129032666
 20
17.60489439651515
 30
0.0
 40
1.8
 41
14.213919375
 46
0.0
 71
     1
 72
     1
  1
^I^I
  7
Century Gothic_1
 73
     2
 44
1.0
  0
MTEXT
  5
2A0
330
285
100
AcDbEntity
  8
G-ANNO-TTLB
100
AcDbMText
 10
174.935785282666
 20
17.60489439651515
 30
0.0
 40
1.8
 41
15.079741875
 46
0.0
 71
     1
 72
     1
  1
09 972 0060
  7
Century Gothic_1
 73
     2
 44
1.0
  0
MTEXT
  5
2A1
330
285
100
AcDbEntity
  8
G-ANNO-TTLB
100
AcDbMText
 10
152.075785282666
 20
14.69447772984849
 30
0.0
 40
1.8
 41
13.99746375
 46
0.0
 71
     1
 72
     1
  1
    KATIKAIT 
  7
Century Gothic_1
 73
     2
 44
1.0
  0
MTEXT
  5
2A2
330
285
100
AcDbEntity
  8
G-ANNO-TTLB
100
AcDbMText
 10
163.624847782666
 20
14.69447772984849
 30
0.0
 40
1.8
 41
13.70885625
 46
0.0
 71
     1
 72
     1
  1
^I
  7
Century Gothic_1
 73
     2
 44
1.0
  0
MTEXT
  5
2A3
330
285
100
AcDbEntity
  8
G-ANNO-TTLB
100
AcDbMText
 10
174.935785282666
 20
14.69447772984849
 30
0.0
 40
1.8
 41
15.079741875
 46
0.0
 71
     1
 72
     1
  1
07 549 5190
  7
Century Gothic_1
 73
     2
 44
1.0
  0
MTEXT
  5
2A4
330
285
100
AcDbEntity
  8
G-ANNO-TTLB
100
AcDbMText
 10
152.075785282666
 20
11.78406106318182
 30
0.0
 40
1.8
 41
20.274676875
 46
0.0
 71
     1
 72
     1
  1
    WELLINGTON 
  7
Century Gothic_1
 73
     2
 44
1.0
  0
MTEXT
  5
2A5
330
285
100
AcDbEntity
  8
G-ANNO-TTLB
100
AcDbMText
 10
168.804066532666
 20
11.78406106318182
 30
0.0
 40
1.8
 41
7.431643124999999
 46
0.0
 71
     1
 72
     1
  1
^I
  7
Century Gothic_1
 73
     2
 44
1.0
  0
MTEXT
  5
2A6
330
285
100
AcDbEntity
  8
G-ANNO-TTLB
100
AcDbMText
 10
174.935785282666
 20
11.78406106318182
 30
0.0
 40
1.8
 41
15.079741875
 46
0.0
 71
     1
 72
     1
  1
04 974 5792
  7
Century Gothic_1
 73
     2
 44
1.0
  0
MTEXT
  5
2A7
330
285
100
AcDbEntity
  8
G-ANNO-TTLB
100
AcDbMText
 10
187.377816532666
 20
11.78406106318182
 30
0.0
 40
1.8
 41
12.626578125
 46
0.0
 71
     1
 72
     1
  1
^I
  7
Century Gothic_1
 73
     2
 44
1.0
  0
MTEXT
  5
2A8
330
285
100
AcDbEntity
  8
G-ANNO-TTLB
100
AcDbMText
 10
197.795785282666
 20
11.78406106318182
 30
0.0
 40
1.8
 41
41.63163187500001
 46
0.0
 71
     1
 72
     1
  1
WEB: www.theroofingstore.co.nz
  7
Century Gothic_1
 73
     2
 44
1.0
  0
MTEXT
  5
2A9
330
285
100
AcDbEntity
  8
G-ANNO-TTLB
100
AcDbMText
 10
152.075785282666
 20
8.873644396515153
 30
0.0
 40
1.8
 41
23.52151125
 46
0.0
 71
     1
 72
     1
  1
    CHRISTCHURCH 
  7
Century Gothic_1
 73
     2
 44
1.0
  0
MTEXT
  5
2AA
330
285
100
AcDbEntity
  8
G-ANNO-TTLB
100
AcDbMText
 10
171.482972782666
 20
8.873644396515153
 30
0.0
 40
1.8
 41
4.184808749999999
 46
0.0
 71
     1
 72
     1
  1
^I
  7
Century Gothic_1
 73
     2
 44
1.0
  0
MTEXT
  5
2AB
330
285
100
AcDbEntity
  8
G-ANNO-TTLB
100
AcDbMText
 10
174.935785282666
 20
8.873644396515153
 30
0.0
 40
1.8
 41
15.079741875
 46
0.0
 71
     1
 72
     1
  1
03 348 6528
  7
Century Gothic_1
 73
     2
 44
1.0
  0
MTEXT
  5
2AC
330
285
100
AcDbEntity
  8
G-ANNO-TTLB
100
AcDbMText
 10
187.377816532666
 20
8.873644396515153
 30
0.0
 40
1.8
 41
12.626578125
 46
0.0
 71
     1
 72
     1
  1
^I
  7
Century Gothic_1
 73
     2
 44
1.0
  0
MTEXT
  5
2AD
330
285
100
AcDbEntity
  8
G-ANNO-TTLB
100
AcDbMText
 10
197.795785282666
 20
8.873644396515153
 30
0.0
 40
1.8
 41
45.16707375
 46
0.0
 71
     1
 72
     1
  1
Copyright © The Roofing Store 2013
  7
Century Gothic_1
 73
     2
 44
1.0
  0
MTEXT
  5
2AE
330
285
100
AcDbEntity
  8
G-ANNO-TTLB
100
AcDbMText
 10
238.4531881313984
 20
13.76450265283994
 30
0.0
 40
1.8
 41
13.348096875
 46
0.0
 71
     1
 72
     1
  1
Detail No.:
  7
Century Gothic_1
 73
     2
 44
1.0
  0
MTEXT
  5
2AF
330
285
100
AcDbEntity
  8
G-ANNO-TTLB
100
AcDbMText
 10
238.4531881313984
 20
20.51531106318182
 30
0.0
 40
1.8
 41
14.502526875
 46
0.0
 71
     1
 72
     1
  1
Scale:  1 : 5
  7
Century Gothic_1
 73
     2
 44
1.0
  0
ENDBLK
  5
2B1
330
285
100
AcDbEntity
  8
0
100
AcDbBlockEnd
  0
ENDSEC
  0
SECTION
  2
ENTITIES
  0
HATCH
  5
C8
330
70
100
AcDbEntity
  8
A-DETL-GENF
100
AcDbHatch
 10
0.0
 20
0.0
 30
0.0
210
0.0
220
0.0
230
1.0
  2
SOLID
 70
     1
 71
     0
 91
        1
 92
        0
 93
       11
 72
     1
 10
1359.458349361464
 20
3278.178732337862
 11
1359.458349361464
 21
3313.988635753096
 72
     1
 10
1359.458349361464
 20
3313.988635753096
 11
1348.866225067717
 21
3315.856313049102
 72
     1
 10
1348.866225067717
 20
3315.856313049102
 11
1369.997351486769
 21
3319.582300769543
 72
     1
 10
1369.997351486769
 20
3319.582300769543
 11
1359.458349361464
 21
3321.440611193978
 72
     1
 10
1359.458349361464
 20
3321.440611193978
 11
1359.458349361464
 21
3343.570429074418
 72
     1
 10
1359.458349361464
 20
3343.570429074418
 11
1074.136723803361
 21
3348.550736573959
 72
     1
 10
1074.136723803361
 20
3348.550736573959
 11
1074.136723803361
 21
3278.502320837644
 72
     1
 10
1074.136723803361
 20
3278.502320837644
 11
1153.673121012663
 21
3278.502320837644
 72
     1
 10
1153.673121012663
 20
3278.502320837644
 11
1153.673121012663
 21
3278.178732337862
 72
     1
 10
1153.673121012663
 20
3278.178732337862
 11
1348.866225067717
 21
3278.178732337862
 72
     1
 10
1348.866225067717
 20
3278.178732337862
 11
1359.458349361464
 21
3278.178732337862
 97
        0
 75
     0
 76
     1
 98
        1
 10
0.0
 20
0.0
450
        0
451
        0
460
0.0
461
0.0
452
        0
462
0.0
453
        0
470

1001
REVIT
1002
{
1070
     1
1000
200049
1002
}
1002
{
1070
     5
1000
17867
1002
}
1002
{
1070
     2
1000
-2002000
1002
}
  0
SPLINE
  5
C9
330
70
100
AcDbEntity
  8
A-DETL
100
AcDbSpline
210
0.0
220
0.0
230
1.0
 70
     8
 71
     3
 72
     8
 73
     4
 74
     0
 42
0.000000001
 43
0.0000000001
 40
0.0
 40
0.0
 40
0.0
 40
0.0
 40
0.7285342594043771
 40
0.7285342594043771
 40
0.7285342594043771
 40
0.7285342594043771
 10
999.13672380336
 20
3776.49327353406
 30
0.0
 10
995.4940525063381
 20
3776.49327353406
 30
0.0
 10
991.6237202315919
 20
3778.483631660782
 30
0.0
 10
988.7269828302198
 20
3781.439011909551
 30
0.0
1001
REVIT
1002
{
1070
     1
1000
200011
1002
}
1002
{
1070
     2
1000
-2000051
1002
}
1002
{
1070
     3
1000
-2000077
1002
}
  0
SPLINE
  5
CA
330
70
100
AcDbEntity
  8
A-DETL
100
AcDbSpline
210
0.0
220
0.0
230
1.0
 70
     8
 71
     3
 72
     8
 73
     4
 74
     0
 42
0.000000001
 43
0.0000000001
 40
0.7788491806389891
 40
0.7788491806389891
 40
0.7788491806389891
 40
0.7788491806389891
 40
0.8304949585746363
 40
0.8304949585746363
 40
0.8304949585746363
 40
0.8304949585746363
 10
1047.626765996279
 20
3790.089764136033
 30
0.0
 10
1047.375624940571
 20
3790.032188912036
 30
0.0
 10
1047.124549240075
 20
3789.974082800745
 30
0.0
 10
1046.873536960469
 20
3789.915461514876
 30
0.0
1001
REVIT
1002
{
1070
     1
1000
200011
1002
}
1002
{
1070
     2
1000
-2000051
1002
}
1002
{
1070
     3
1000
-2000077
1002
}
  0
SPLINE
  5
CB
330
70
100
AcDbEntity
  8
A-DETL
100
AcDbSpline
210
0.0
220
0.0
230
1.0
 70
     8
 71
     3
 72
     8
 73
     4
 74
     0
 42
0.000000001
 43
0.0000000001
 40
2.52942295472271
 40
2.52942295472271
 40
2.52942295472271
 40
2.52942295472271
 40
4.12310562561766
 40
4.12310562561766
 40
4.12310562561766
 40
4.12310562561766
 10
1022.427587539711
 20
3781.483917332749
 30
0.0
 10
1014.797668148879
 20
3778.734295112452
 30
0.0
 10
1007.105137157835
 20
3776.49327353406
 30
0.0
 10
999.13672380336
 20
3776.49327353406
 30
0.0
1001
REVIT
1002
{
1070
     1
1000
200011
1002
}
1002
{
1070
     2
1000
-2000051
1002
}
1002
{
1070
     3
1000
-2000077
1002
}
  0
SPLINE
  5
CC
330
70
100
AcDbEntity
  8
A-DETL
100
AcDbSpline
210
0.0
220
0.0
230
1.0
 70
     8
 71
     3
 72
     9
 73
     5
 74
     0
 42
0.000000001
 43
0.0000000001
 40
0.0
 40
0.0
 40
0.0
 40
0.0
 40
1.414213562373095
 40
1.735748178372483
 40
1.735748178372483
 40
1.735748178372483
 40
1.735748178372483
 10
1059.13672380336
 20
3761.49327353406
 30
0.0
 10
1066.207791615225
 20
3761.49327353406
 30
0.0
 10
1075.939440333754
 20
3770.698468339255
 30
0.0
 10
1073.726859421644
 20
3779.903663144452
 30
0.0
 10
1073.010399375855
 20
3781.520712585559
 30
0.0
1001
REVIT
1002
{
1070
     1
1000
200011
1002
}
1002
{
1070
     2
1000
-2000051
1002
}
1002
{
1070
     3
1000
-2000077
1002
}
  0
SPLINE
  5
CD
330
70
100
AcDbEntity
  8
A-DETL
100
AcDbSpline
210
0.0
220
0.0
230
1.0
 70
     8
 71
     3
 72
     8
 73
     4
 74
     0
 42
0.000000001
 43
0.0000000001
 40
0.0
 40
0.0
 40
0.0
 40
0.0
 40
4.12310562561766
 40
4.12310562561766
 40
4.12310562561766
 40
4.12310562561766
 10
999.13672380336
 20
3776.49327353406
 30
0.0
 10
1019.752251931448
 20
3776.49327353406
 30
0.0
 10
1038.521195675271
 20
3761.49327353406
 30
0.0
 10
1059.13672380336
 20
3761.49327353406
 30
0.0
1001
REVIT
1002
{
1070
     1
1000
200011
1002
}
1002
{
1070
     2
1000
-2000051
1002
}
1002
{
1070
     3
1000
-2000077
1002
}
  0
SPLINE
  5
CE
330
70
100
AcDbEntity
  8
A-DETL
100
AcDbSpline
210
0.0
220
0.0
230
1.0
 70
     8
 71
     3
 72
     9
 73
     5
 74
     0
 42
0.000000001
 43
0.0000000001
 40
0.0
 40
0.0
 40
0.0
 40
0.0
 40
1.414213562373095
 40
2.82842712474619
 40
2.82842712474619
 40
2.82842712474619
 40
2.82842712474619
 10
999.13672380336
 20
3746.49327353406
 30
0.0
 10
992.0656559914945
 20
3746.49327353406
 30
0.0
 10
976.2077916152254
 20
3761.49327353406
 30
0.0
 10
992.0656559914947
 20
3776.493273534061
 30
0.0
 10
999.13672380336
 20
3776.493273534061
 30
0.0
1001
REVIT
1002
{
1070
     1
1000
200011
1002
}
1002
{
1070
     2
1000
-2000051
1002
}
1002
{
1070
     3
1000
-2000077
1002
}
  0
SPLINE
  5
CF
330
70
100
AcDbEntity
  8
A-DETL
100
AcDbSpline
210
0.0
220
0.0
230
1.0
 70
     8
 71
     3
 72
     8
 73
     4
 74
     0
 42
0.000000001
 43
0.0000000001
 40
0.0
 40
0.0
 40
0.0
 40
0.0
 40
4.12310562561766
 40
4.12310562561766
 40
4.12310562561766
 40
4.12310562561766
 10
1059.13672380336
 20
3761.49327353406
 30
0.0
 10
1038.521195675271
 20
3761.49327353406
 30
0.0
 10
1019.752251931448
 20
3746.49327353406
 30
0.0
 10
999.13672380336
 20
3746.49327353406
 30
0.0
1001
REVIT
1002
{
1070
     1
1000
200011
1002
}
1002
{
1070
     2
1000
-2000051
1002
}
1002
{
1070
     3
1000
-2000077
1002
}
  0
SPLINE
  5
D0
330
70
100
AcDbEntity
  8
A-DETL
100
AcDbSpline
210
0.0
220
0.0
230
1.0
 70
     8
 71
     3
 72
     9
 73
     5
 74
     0
 42
0.000000001
 43
0.0000000001
 40
0.0
 40
0.0
 40
0.0
 40
0.0
 40
1.414213562373095
 40
2.82842712474619
 40
2.82842712474619
 40
2.82842712474619
 40
2.82842712474619
 10
1059.13672380336
 20
3731.49327353406
 30
0.0
 10
1066.207791615225
 20
3731.49327353406
 30
0.0
 10
1082.065655991495
 20
3746.49327353406
 30
0.0
 10
1066.207791615225
 20
3761.49327353406
 30
0.0
 10
1059.13672380336
 20
3761.493273534062
 30
0.0
1001
REVIT
1002
{
1070
     1
1000
200011
1002
}
1002
{
1070
     2
1000
-2000051
1002
}
1002
{
1070
     3
1000
-2000077
1002
}
  0
SPLINE
  5
D1
330
70
100
AcDbEntity
  8
A-DETL
100
AcDbSpline
210
0.0
220
0.0
230
1.0
 70
     8
 71
     3
 72
     8
 73
     4
 74
     0
 42
0.000000001
 43
0.0000000001
 40
0.0
 40
0.0
 40
0.0
 40
0.0
 40
4.12310562561766
 40
4.12310562561766
 40
4.12310562561766
 40
4.12310562561766
 10
999.13672380336
 20
3746.49327353406
 30
0.0
 10
1019.752251931448
 20
3746.49327353406
 30
0.0
 10
1038.521195675271
 20
3731.49327353406
 30
0.0
 10
1059.13672380336
 20
3731.49327353406
 30
0.0
1001
REVIT
1002
{
1070
     1
1000
200011
1002
}
1002
{
1070
     2
1000
-2000051
1002
}
1002
{
1070
     3
1000
-2000077
1002
}
  0
SPLINE
  5
D2
330
70
100
AcDbEntity
  8
A-DETL
100
AcDbSpline
210
0.0
220
0.0
230
1.0
 70
     8
 71
     3
 72
     9
 73
     5
 74
     0
 42
0.000000001
 43
0.0000000001
 40
0.0
 40
0.0
 40
0.0
 40
0.0
 40
1.414213562373095
 40
2.82842712474619
 40
2.82842712474619
 40
2.82842712474619
 40
2.82842712474619
 10
999.13672380336
 20
3716.49327353406
 30
0.0
 10
992.0656559914945
 20
3716.49327353406
 30
0.0
 10
976.2077916152254
 20
3731.493273534058
 30
0.0
 10
992.0656559914947
 20
3746.49327353406
 30
0.0
 10
999.13672380336
 20
3746.49327353406
 30
0.0
1001
REVIT
1002
{
1070
     1
1000
200011
1002
}
1002
{
1070
     2
1000
-2000051
1002
}
1002
{
1070
     3
1000
-2000077
1002
}
  0
SPLINE
  5
D3
330
70
100
AcDbEntity
  8
A-DETL
100
AcDbSpline
210
0.0
220
0.0
230
1.0
 70
     8
 71
     3
 72
     8
 73
     4
 74
     0
 42
0.000000001
 43
0.0000000001
 40
0.0
 40
0.0
 40
0.0
 40
0.0
 40
4.12310562561766
 40
4.12310562561766
 40
4.12310562561766
 40
4.12310562561766
 10
1059.13672380336
 20
3731.49327353406
 30
0.0
 10
1038.521195675271
 20
3731.49327353406
 30
0.0
 10
1019.752251931448
 20
3716.493273534061
 30
0.0
 10
999.13672380336
 20
3716.493273534061
 30
0.0
1001
REVIT
1002
{
1070
     1
1000
200011
1002
}
1002
{
1070
     2
1000
-2000051
1002
}
1002
{
1070
     3
1000
-2000077
1002
}
  0
SPLINE
  5
D4
330
70
100
AcDbEntity
  8
A-DETL
100
AcDbSpline
210
0.0
220
0.0
230
1.0
 70
     8
 71
     3
 72
     9
 73
     5
 74
     0
 42
0.000000001
 43
0.0000000001
 40
0.0
 40
0.0
 40
0.0
 40
0.0
 40
1.414213562373095
 40
2.82842712474619
 40
2.82842712474619
 40
2.82842712474619
 40
2.82842712474619
 10
1059.13672380336
 20
3701.49327353406
 30
0.0
 10
1066.207791615225
 20
3701.49327353406
 30
0.0
 10
1082.065655991495
 20
3716.493273534061
 30
0.0
 10
1066.207791615225
 20
3731.493273534062
 30
0.0
 10
1059.13672380336
 20
3731.49327353406
 30
0.0
1001
REVIT
1002
{
1070
     1
1000
200011
1002
}
1002
{
1070
     2
1000
-2000051
1002
}
1002
{
1070
     3
1000
-2000077
1002
}
  0
SPLINE
  5
D5
330
70
100
AcDbEntity
  8
A-DETL
100
AcDbSpline
210
0.0
220
0.0
230
1.0
 70
     8
 71
     3
 72
     8
 73
     4
 74
     0
 42
0.000000001
 43
0.0000000001
 40
0.0
 40
0.0
 40
0.0
 40
0.0
 40
4.12310562561766
 40
4.12310562561766
 40
4.12310562561766
 40
4.12310562561766
 10
999.13672380336
 20
3716.49327353406
 30
0.0
 10
1019.752251931448
 20
3716.49327353406
 30
0.0
 10
1038.521195675271
 20
3701.493273534059
 30
0.0
 10
1059.13672380336
 20
3701.493273534059
 30
0.0
1001
REVIT
1002
{
1070
     1
1000
200011
1002
}
1002
{
1070
     2
1000
-2000051
1002
}
1002
{
1070
     3
1000
-2000077
1002
}
  0
SPLINE
  5
D6
330
70
100
AcDbEntity
  8
A-DETL
100
AcDbSpline
210
0.0
220
0.0
230
1.0
 70
     8
 71
     3
 72
     9
 73
     5
 74
     0
 42
0.000000001
 43
0.0000000001
 40
0.0
 40
0.0
 40
0.0
 40
0.0
 40
1.414213562373095
 40
2.82842712474619
 40
2.82842712474619
 40
2.82842712474619
 40
2.82842712474619
 10
999.13672380336
 20
3686.49327353406
 30
0.0
 10
992.0656559914943
 20
3686.49327353406
 30
0.0
 10
976.2077916152252
 20
3701.49327353406
 30
0.0
 10
992.0656559914945
 20
3716.49327353406
 30
0.0
 10
999.13672380336
 20
3716.493273534061
 30
0.0
1001
REVIT
1002
{
1070
     1
1000
200011
1002
}
1002
{
1070
     2
1000
-2000051
1002
}
1002
{
1070
     3
1000
-2000077
1002
}
  0
SPLINE
  5
D7
330
70
100
AcDbEntity
  8
A-DETL
100
AcDbSpline
210
0.0
220
0.0
230
1.0
 70
     8
 71
     3
 72
     8
 73
     4
 74
     0
 42
0.000000001
 43
0.0000000001
 40
0.0
 40
0.0
 40
0.0
 40
0.0
 40
4.12310562561766
 40
4.12310562561766
 40
4.12310562561766
 40
4.12310562561766
 10
1059.13672380336
 20
3701.49327353406
 30
0.0
 10
1038.521195675271
 20
3701.49327353406
 30
0.0
 10
1019.752251931448
 20
3686.49327353406
 30
0.0
 10
999.13672380336
 20
3686.49327353406
 30
0.0
1001
REVIT
1002
{
1070
     1
1000
200011
1002
}
1002
{
1070
     2
1000
-2000051
1002
}
1002
{
1070
     3
1000
-2000077
1002
}
  0
SPLINE
  5
D8
330
70
100
AcDbEntity
  8
A-DETL
100
AcDbSpline
210
0.0
220
0.0
230
1.0
 70
     8
 71
     3
 72
     9
 73
     5
 74
     0
 42
0.000000001
 43
0.0000000001
 40
0.0
 40
0.0
 40
0.0
 40
0.0
 40
1.414213562373095
 40
2.82842712474619
 40
2.82842712474619
 40
2.82842712474619
 40
2.82842712474619
 10
1059.136723803359
 20
3671.49327353406
 30
0.0
 10
1066.207791615225
 20
3671.49327353406
 30
0.0
 10
1082.065655991495
 20
3686.49327353406
 30
0.0
 10
1066.207791615225
 20
3701.493273534061
 30
0.0
 10
1059.13672380336
 20
3701.49327353406
 30
0.0
1001
REVIT
1002
{
1070
     1
1000
200011
1002
}
1002
{
1070
     2
1000
-2000051
1002
}
1002
{
1070
     3
1000
-2000077
1002
}
  0
SPLINE
  5
D9
330
70
100
AcDbEntity
  8
A-DETL
100
AcDbSpline
210
0.0
220
0.0
230
1.0
 70
     8
 71
     3
 72
     8
 73
     4
 74
     0
 42
0.000000001
 43
0.0000000001
 40
0.0
 40
0.0
 40
0.0
 40
0.0
 40
4.12310562561766
 40
4.12310562561766
 40
4.12310562561766
 40
4.12310562561766
 10
999.13672380336
 20
3686.49327353406
 30
0.0
 10
1019.752251931448
 20
3686.49327353406
 30
0.0
 10
1038.521195675271
 20
3671.49327353406
 30
0.0
 10
1059.136723803359
 20
3671.49327353406
 30
0.0
1001
REVIT
1002
{
1070
     1
1000
200011
1002
}
1002
{
1070
     2
1000
-2000051
1002
}
1002
{
1070
     3
1000
-2000077
1002
}
  0
SPLINE
  5
DA
330
70
100
AcDbEntity
  8
A-DETL
100
AcDbSpline
210
0.0
220
0.0
230
1.0
 70
     8
 71
     3
 72
     9
 73
     5
 74
     0
 42
0.000000001
 43
0.0000000001
 40
0.0
 40
0.0
 40
0.0
 40
0.0
 40
1.414213562373095
 40
2.82842712474619
 40
2.82842712474619
 40
2.82842712474619
 40
2.82842712474619
 10
999.13672380336
 20
3656.49327353406
 30
0.0
 10
992.0656559914943
 20
3656.49327353406
 30
0.0
 10
976.207791615225
 20
3671.493273534059
 30
0.0
 10
992.0656559914943
 20
3686.49327353406
 30
0.0
 10
999.13672380336
 20
3686.493273534061
 30
0.0
1001
REVIT
1002
{
1070
     1
1000
200011
1002
}
1002
{
1070
     2
1000
-2000051
1002
}
1002
{
1070
     3
1000
-2000077
1002
}
  0
SPLINE
  5
DB
330
70
100
AcDbEntity
  8
A-DETL
100
AcDbSpline
210
0.0
220
0.0
230
1.0
 70
     8
 71
     3
 72
     8
 73
     4
 74
     0
 42
0.000000001
 43
0.0000000001
 40
0.0
 40
0.0
 40
0.0
 40
0.0
 40
4.12310562561766
 40
4.12310562561766
 40
4.12310562561766
 40
4.12310562561766
 10
1059.136723803359
 20
3671.49327353406
 30
0.0
 10
1038.521195675271
 20
3671.49327353406
 30
0.0
 10
1019.752251931448
 20
3656.49327353406
 30
0.0
 10
999.13672380336
 20
3656.49327353406
 30
0.0
1001
REVIT
1002
{
1070
     1
1000
200011
1002
}
1002
{
1070
     2
1000
-2000051
1002
}
1002
{
1070
     3
1000
-2000077
1002
}
  0
SPLINE
  5
DC
330
70
100
AcDbEntity
  8
A-DETL
100
AcDbSpline
210
0.0
220
0.0
230
1.0
 70
     8
 71
     3
 72
     9
 73
     5
 74
     0
 42
0.000000001
 43
0.0000000001
 40
0.0
 40
0.0
 40
0.0
 40
0.0
 40
1.414213562373095
 40
2.82842712474619
 40
2.82842712474619
 40
2.82842712474619
 40
2.82842712474619
 10
1059.136723803359
 20
3641.493273534061
 30
0.0
 10
1066.207791615225
 20
3641.493273534061
 30
0.0
 10
1082.065655991495
 20
3656.493273534059
 30
0.0
 10
1066.207791615225
 20
3671.49327353406
 30
0.0
 10
1059.136723803359
 20
3671.493273534061
 30
0.0
1001
REVIT
1002
{
1070
     1
1000
200011
1002
}
1002
{
1070
     2
1000
-2000051
1002
}
1002
{
1070
     3
1000
-2000077
1002
}
  0
SPLINE
  5
DD
330
70
100
AcDbEntity
  8
A-DETL
100
AcDbSpline
210
0.0
220
0.0
230
1.0
 70
     8
 71
     3
 72
     8
 73
     4
 74
     0
 42
0.000000001
 43
0.0000000001
 40
0.0
 40
0.0
 40
0.0
 40
0.0
 40
4.12310562561766
 40
4.12310562561766
 40
4.12310562561766
 40
4.12310562561766
 10
999.13672380336
 20
3656.49327353406
 30
0.0
 10
1019.752251931448
 20
3656.49327353406
 30
0.0
 10
1038.521195675271
 20
3641.493273534061
 30
0.0
 10
1059.136723803359
 20
3641.493273534061
 30
0.0
1001
REVIT
1002
{
1070
     1
1000
200011
1002
}
1002
{
1070
     2
1000
-2000051
1002
}
1002
{
1070
     3
1000
-2000077
1002
}
  0
SPLINE
  5
DE
330
70
100
AcDbEntity
  8
A-DETL
100
AcDbSpline
210
0.0
220
0.0
230
1.0
 70
     8
 71
     3
 72
     9
 73
     5
 74
     0
 42
0.000000001
 43
0.0000000001
 40
0.0
 40
0.0
 40
0.0
 40
0.0
 40
1.414213562373095
 40
2.82842712474619
 40
2.82842712474619
 40
2.82842712474619
 40
2.82842712474619
 10
999.13672380336
 20
3626.49327353406
 30
0.0
 10
992.0656559914943
 20
3626.49327353406
 30
0.0
 10
976.207791615225
 20
3641.493273534062
 30
0.0
 10
992.0656559914943
 20
3656.49327353406
 30
0.0
 10
999.13672380336
 20
3656.49327353406
 30
0.0
1001
REVIT
1002
{
1070
     1
1000
200011
1002
}
1002
{
1070
     2
1000
-2000051
1002
}
1002
{
1070
     3
1000
-2000077
1002
}
  0
SPLINE
  5
DF
330
70
100
AcDbEntity
  8
A-DETL
100
AcDbSpline
210
0.0
220
0.0
230
1.0
 70
     8
 71
     3
 72
     8
 73
     4
 74
     0
 42
0.000000001
 43
0.0000000001
 40
0.0
 40
0.0
 40
0.0
 40
0.0
 40
4.12310562561766
 40
4.12310562561766
 40
4.12310562561766
 40
4.12310562561766
 10
1059.136723803359
 20
3641.493273534061
 30
0.0
 10
1038.521195675271
 20
3641.493273534061
 30
0.0
 10
1019.752251931448
 20
3626.493273534059
 30
0.0
 10
999.13672380336
 20
3626.493273534059
 30
0.0
1001
REVIT
1002
{
1070
     1
1000
200011
1002
}
1002
{
1070
     2
1000
-2000051
1002
}
1002
{
1070
     3
1000
-2000077
1002
}
  0
SPLINE
  5
E0
330
70
100
AcDbEntity
  8
A-DETL
100
AcDbSpline
210
0.0
220
0.0
230
1.0
 70
     8
 71
     3
 72
     9
 73
     5
 74
     0
 42
0.000000001
 43
0.0000000001
 40
0.0
 40
0.0
 40
0.0
 40
0.0
 40
1.414213562373095
 40
2.82842712474619
 40
2.82842712474619
 40
2.82842712474619
 40
2.82842712474619
 10
1059.136723803359
 20
3611.493273534061
 30
0.0
 10
1066.207791615225
 20
3611.493273534061
 30
0.0
 10
1082.065655991495
 20
3626.493273534059
 30
0.0
 10
1066.207791615225
 20
3641.493273534059
 30
0.0
 10
1059.136723803359
 20
3641.493273534061
 30
0.0
1001
REVIT
1002
{
1070
     1
1000
200011
1002
}
1002
{
1070
     2
1000
-2000051
1002
}
1002
{
1070
     3
1000
-2000077
1002
}
  0
SPLINE
  5
E1
330
70
100
AcDbEntity
  8
A-DETL
100
AcDbSpline
210
0.0
220
0.0
230
1.0
 70
     8
 71
     3
 72
     8
 73
     4
 74
     0
 42
0.000000001
 43
0.0000000001
 40
0.0
 40
0.0
 40
0.0
 40
0.0
 40
4.12310562561766
 40
4.12310562561766
 40
4.12310562561766
 40
4.12310562561766
 10
999.13672380336
 20
3626.49327353406
 30
0.0
 10
1019.752251931448
 20
3626.49327353406
 30
0.0
 10
1038.521195675271
 20
3611.493273534061
 30
0.0
 10
1059.136723803359
 20
3611.493273534061
 30
0.0
1001
REVIT
1002
{
1070
     1
1000
200011
1002
}
1002
{
1070
     2
1000
-2000051
1002
}
1002
{
1070
     3
1000
-2000077
1002
}
  0
SPLINE
  5
E2
330
70
100
AcDbEntity
  8
A-DETL
100
AcDbSpline
210
0.0
220
0.0
230
1.0
 70
     8
 71
     3
 72
     9
 73
     5
 74
     0
 42
0.000000001
 43
0.0000000001
 40
0.0
 40
0.0
 40
0.0
 40
0.0
 40
1.414213562373095
 40
2.82842712474619
 40
2.82842712474619
 40
2.82842712474619
 40
2.82842712474619
 10
999.13672380336
 20
3596.49327353406
 30
0.0
 10
992.0656559914943
 20
3596.49327353406
 30
0.0
 10
976.207791615225
 20
3611.493273534061
 30
0.0
 10
992.0656559914943
 20
3626.493273534061
 30
0.0
 10
999.13672380336
 20
3626.49327353406
 30
0.0
1001
REVIT
1002
{
1070
     1
1000
200011
1002
}
1002
{
1070
     2
1000
-2000051
1002
}
1002
{
1070
     3
1000
-2000077
1002
}
  0
SPLINE
  5
E3
330
70
100
AcDbEntity
  8
A-DETL
100
AcDbSpline
210
0.0
220
0.0
230
1.0
 70
     8
 71
     3
 72
     8
 73
     4
 74
     0
 42
0.000000001
 43
0.0000000001
 40
0.0
 40
0.0
 40
0.0
 40
0.0
 40
4.12310562561766
 40
4.12310562561766
 40
4.12310562561766
 40
4.12310562561766
 10
1059.136723803359
 20
3611.493273534061
 30
0.0
 10
1038.521195675271
 20
3611.493273534061
 30
0.0
 10
1019.752251931448
 20
3596.49327353406
 30
0.0
 10
999.13672380336
 20
3596.49327353406
 30
0.0
1001
REVIT
1002
{
1070
     1
1000
200011
1002
}
1002
{
1070
     2
1000
-2000051
1002
}
1002
{
1070
     3
1000
-2000077
1002
}
  0
SPLINE
  5
E4
330
70
100
AcDbEntity
  8
A-DETL
100
AcDbSpline
210
0.0
220
0.0
230
1.0
 70
     8
 71
     3
 72
     9
 73
     5
 74
     0
 42
0.000000001
 43
0.0000000001
 40
0.0
 40
0.0
 40
0.0
 40
0.0
 40
1.414213562373095
 40
2.82842712474619
 40
2.82842712474619
 40
2.82842712474619
 40
2.82842712474619
 10
1059.136723803359
 20
3581.49327353406
 30
0.0
 10
1066.207791615225
 20
3581.49327353406
 30
0.0
 10
1082.065655991495
 20
3596.49327353406
 30
0.0
 10
1066.207791615225
 20
3611.493273534061
 30
0.0
 10
1059.136723803359
 20
3611.493273534061
 30
0.0
1001
REVIT
1002
{
1070
     1
1000
200011
1002
}
1002
{
1070
     2
1000
-2000051
1002
}
1002
{
1070
     3
1000
-2000077
1002
}
  0
SPLINE
  5
E5
330
70
100
AcDbEntity
  8
A-DETL
100
AcDbSpline
210
0.0
220
0.0
230
1.0
 70
     8
 71
     3
 72
     8
 73
     4
 74
     0
 42
0.000000001
 43
0.0000000001
 40
0.0
 40
0.0
 40
0.0
 40
0.0
 40
4.12310562561766
 40
4.12310562561766
 40
4.12310562561766
 40
4.12310562561766
 10
999.13672380336
 20
3596.49327353406
 30
0.0
 10
1019.752251931448
 20
3596.49327353406
 30
0.0
 10
1038.521195675271
 20
3581.49327353406
 30
0.0
 10
1059.136723803359
 20
3581.493273534061
 30
0.0
1001
REVIT
1002
{
1070
     1
1000
200011
1002
}
1002
{
1070
     2
1000
-2000051
1002
}
1002
{
1070
     3
1000
-2000077
1002
}
  0
SPLINE
  5
E6
330
70
100
AcDbEntity
  8
A-DETL
100
AcDbSpline
210
0.0
220
0.0
230
1.0
 70
     8
 71
     3
 72
     9
 73
     5
 74
     0
 42
0.000000001
 43
0.0000000001
 40
0.0
 40
0.0
 40
0.0
 40
0.0
 40
1.414213562373095
 40
2.82842712474619
 40
2.82842712474619
 40
2.82842712474619
 40
2.82842712474619
 10
999.1367238033598
 20
3566.49327353406
 30
0.0
 10
992.0656559914943
 20
3566.49327353406
 30
0.0
 10
976.207791615225
 20
3581.493273534058
 30
0.0
 10
992.0656559914943
 20
3596.49327353406
 30
0.0
 10
999.13672380336
 20
3596.49327353406
 30
0.0
1001
REVIT
1002
{
1070
     1
1000
200011
1002
}
1002
{
1070
     2
1000
-2000051
1002
}
1002
{
1070
     3
1000
-2000077
1002
}
  0
SPLINE
  5
E7
330
70
100
AcDbEntity
  8
A-DETL
100
AcDbSpline
210
0.0
220
0.0
230
1.0
 70
     8
 71
     3
 72
     8
 73
     4
 74
     0
 42
0.000000001
 43
0.0000000001
 40
0.0
 40
0.0
 40
0.0
 40
0.0
 40
4.12310562561766
 40
4.12310562561766
 40
4.12310562561766
 40
4.12310562561766
 10
1059.136723803359
 20
3581.49327353406
 30
0.0
 10
1038.521195675271
 20
3581.49327353406
 30
0.0
 10
1019.752251931448
 20
3566.493273534061
 30
0.0
 10
999.13672380336
 20
3566.493273534061
 30
0.0
1001
REVIT
1002
{
1070
     1
1000
200011
1002
}
1002
{
1070
     2
1000
-2000051
1002
}
1002
{
1070
     3
1000
-2000077
1002
}
  0
SPLINE
  5
E8
330
70
100
AcDbEntity
  8
A-DETL
100
AcDbSpline
210
0.0
220
0.0
230
1.0
 70
     8
 71
     3
 72
     9
 73
     5
 74
     0
 42
0.000000001
 43
0.0000000001
 40
0.0
 40
0.0
 40
0.0
 40
0.0
 40
1.414213562373095
 40
2.82842712474619
 40
2.82842712474619
 40
2.82842712474619
 40
2.82842712474619
 10
1059.136723803359
 20
3551.49327353406
 30
0.0
 10
1066.207791615225
 20
3551.49327353406
 30
0.0
 10
1082.065655991494
 20
3566.493273534061
 30
0.0
 10
1066.207791615225
 20
3581.493273534061
 30
0.0
 10
1059.136723803359
 20
3581.493273534061
 30
0.0
1001
REVIT
1002
{
1070
     1
1000
200011
1002
}
1002
{
1070
     2
1000
-2000051
1002
}
1002
{
1070
     3
1000
-2000077
1002
}
  0
SPLINE
  5
E9
330
70
100
AcDbEntity
  8
A-DETL
100
AcDbSpline
210
0.0
220
0.0
230
1.0
 70
     8
 71
     3
 72
     8
 73
     4
 74
     0
 42
0.000000001
 43
0.0000000001
 40
0.0
 40
0.0
 40
0.0
 40
0.0
 40
4.12310562561766
 40
4.12310562561766
 40
4.12310562561766
 40
4.12310562561766
 10
999.1367238033598
 20
3566.49327353406
 30
0.0
 10
1019.752251931448
 20
3566.49327353406
 30
0.0
 10
1038.521195675271
 20
3551.49327353406
 30
0.0
 10
1059.136723803359
 20
3551.49327353406
 30
0.0
1001
REVIT
1002
{
1070
     1
1000
200011
1002
}
1002
{
1070
     2
1000
-2000051
1002
}
1002
{
1070
     3
1000
-2000077
1002
}
  0
SPLINE
  5
EA
330
70
100
AcDbEntity
  8
A-DETL
100
AcDbSpline
210
0.0
220
0.0
230
1.0
 70
     8
 71
     3
 72
     9
 73
     5
 74
     0
 42
0.000000001
 43
0.0000000001
 40
0.0
 40
0.0
 40
0.0
 40
0.0
 40
1.414213562373095
 40
2.82842712474619
 40
2.82842712474619
 40
2.82842712474619
 40
2.82842712474619
 10
999.1367238033598
 20
3536.49327353406
 30
0.0
 10
992.0656559914943
 20
3536.49327353406
 30
0.0
 10
976.2077916152248
 20
3551.49327353406
 30
0.0
 10
992.065655991494
 20
3566.493273534059
 30
0.0
 10
999.1367238033598
 20
3566.493273534061
 30
0.0
1001
REVIT
1002
{
1070
     1
1000
200011
1002
}
1002
{
1070
     2
1000
-2000051
1002
}
1002
{
1070
     3
1000
-2000077
1002
}
  0
SPLINE
  5
EB
330
70
100
AcDbEntity
  8
A-DETL
100
AcDbSpline
210
0.0
220
0.0
230
1.0
 70
     8
 71
     3
 72
     8
 73
     4
 74
     0
 42
0.000000001
 43
0.0000000001
 40
0.0
 40
0.0
 40
0.0
 40
0.0
 40
4.12310562561766
 40
4.12310562561766
 40
4.12310562561766
 40
4.12310562561766
 10
1059.136723803359
 20
3551.49327353406
 30
0.0
 10
1038.521195675271
 20
3551.49327353406
 30
0.0
 10
1019.752251931448
 20
3536.49327353406
 30
0.0
 10
999.1367238033598
 20
3536.49327353406
 30
0.0
1001
REVIT
1002
{
1070
     1
1000
200011
1002
}
1002
{
1070
     2
1000
-2000051
1002
}
1002
{
1070
     3
1000
-2000077
1002
}
  0
SPLINE
  5
EC
330
70
100
AcDbEntity
  8
A-DETL
100
AcDbSpline
210
0.0
220
0.0
230
1.0
 70
     8
 71
     3
 72
     9
 73
     5
 74
     0
 42
0.000000001
 43
0.0000000001
 40
0.8729650162449193
 40
0.8729650162449193
 40
0.8729650162449193
 40
0.8729650162449193
 40
1.414213562373095
 40
2.82842712474619
 40
2.82842712474619
 40
2.82842712474619
 40
2.82842712474619
 10
1071.14513181325
 20
3528.302504287402
 30
0.0
 10
1072.975333505957
 20
3530.75246577494
 30
0.0
 10
1077.171288831838
 20
3541.1228696545
 30
0.0
 10
1066.207791615224
 20
3551.493273534062
 30
0.0
 10
1059.136723803359
 20
3551.493273534061
 30
0.0
1001
REVIT
1002
{
1070
     1
1000
200011
1002
}
1002
{
1070
     2
1000
-2000051
1002
}
1002
{
1070
     3
1000
-2000077
1002
}
  0
SPLINE
  5
ED
330
70
100
AcDbEntity
  8
A-DETL
100
AcDbSpline
210
0.0
220
0.0
230
1.0
 70
     8
 71
     3
 72
     8
 73
     4
 74
     0
 42
0.000000001
 43
0.0000000001
 40
0.0
 40
0.0
 40
0.0
 40
0.0
 40
2.178520348287149
 40
2.178520348287149
 40
2.178520348287149
 40
2.178520348287149
 10
999.1367238033598
 20
3536.49327353406
 30
0.0
 10
1010.029325544795
 20
3536.49327353406
 30
0.0
 10
1020.406409707701
 20
3532.305669791794
 30
0.0
 10
1030.81274309492
 20
3528.355660588096
 30
0.0
1001
REVIT
1002
{
1070
     1
1000
200011
1002
}
1002
{
1070
     2
1000
-2000051
1002
}
1002
{
1070
     3
1000
-2000077
1002
}
  0
SPLINE
  5
EE
330
70
100
AcDbEntity
  8
A-DETL
100
AcDbSpline
210
0.0
220
0.0
230
1.0
 70
     8
 71
     3
 72
     9
 73
     5
 74
     0
 42
0.000000001
 43
0.0000000001
 40
0.0
 40
0.0
 40
0.0
 40
0.0
 40
1.414213562373095
 40
2.82842712474619
 40
2.82842712474619
 40
2.82842712474619
 40
2.82842712474619
 10
999.1367238033598
 20
3506.49327353406
 30
0.0
 10
992.0656559914943
 20
3506.49327353406
 30
0.0
 10
976.2077916152248
 20
3521.493273534059
 30
0.0
 10
992.065655991494
 20
3536.49327353406
 30
0.0
 10
999.1367238033598
 20
3536.49327353406
 30
0.0
1001
REVIT
1002
{
1070
     1
1000
200011
1002
}
1002
{
1070
     2
1000
-2000051
1002
}
1002
{
1070
     3
1000
-2000077
1002
}
  0
SPLINE
  5
EF
330
70
100
AcDbEntity
  8
A-DETL
100
AcDbSpline
210
0.0
220
0.0
230
1.0
 70
     8
 71
     3
 72
     8
 73
     4
 74
     0
 42
0.000000001
 43
0.0000000001
 40
2.06155281280883
 40
2.06155281280883
 40
2.06155281280883
 40
2.06155281280883
 40
4.12310562561766
 40
4.12310562561766
 40
4.12310562561766
 40
4.12310562561766
 10
1029.136723803359
 20
3513.99327353406
 30
0.0
 10
1019.290605835382
 20
3510.243273534061
 30
0.0
 10
1009.444487867404
 20
3506.49327353406
 30
0.0
 10
999.13672380336
 20
3506.49327353406
 30
0.0
1001
REVIT
1002
{
1070
     1
1000
200011
1002
}
1002
{
1070
     2
1000
-2000051
1002
}
1002
{
1070
     3
1000
-2000077
1002
}
  0
SPLINE
  5
F0
330
70
100
AcDbEntity
  8
A-DETL
100
AcDbSpline
210
0.0
220
0.0
230
1.0
 70
     8
 71
     3
 72
     8
 73
     4
 74
     0
 42
0.000000001
 43
0.0000000001
 40
0.0
 40
0.0
 40
0.0
 40
0.0
 40
2.06155281280883
 40
2.06155281280883
 40
2.06155281280883
 40
2.06155281280883
 10
999.1367238033598
 20
3506.49327353406
 30
0.0
 10
1009.444487867404
 20
3506.49327353406
 30
0.0
 10
1019.290605835381
 20
3502.74327353406
 30
0.0
 10
1029.136723803359
 20
3498.99327353406
 30
0.0
1001
REVIT
1002
{
1070
     1
1000
200011
1002
}
1002
{
1070
     2
1000
-2000051
1002
}
1002
{
1070
     3
1000
-2000077
1002
}
  0
SPLINE
  5
F1
330
70
100
AcDbEntity
  8
A-DETL
100
AcDbSpline
210
0.0
220
0.0
230
1.0
 70
     8
 71
     3
 72
     9
 73
     5
 74
     0
 42
0.000000001
 43
0.0000000001
 40
0.0
 40
0.0
 40
0.0
 40
0.0
 40
1.414213562373095
 40
2.82842712474619
 40
2.82842712474619
 40
2.82842712474619
 40
2.82842712474619
 10
999.1367238033598
 20
3476.49327353406
 30
0.0
 10
992.0656559914943
 20
3476.49327353406
 30
0.0
 10
976.2077916152248
 20
3491.493273534061
 30
0.0
 10
992.065655991494
 20
3506.49327353406
 30
0.0
 10
999.1367238033598
 20
3506.493273534061
 30
0.0
1001
REVIT
1002
{
1070
     1
1000
200011
1002
}
1002
{
1070
     2
1000
-2000051
1002
}
1002
{
1070
     3
1000
-2000077
1002
}
  0
SPLINE
  5
F2
330
70
100
AcDbEntity
  8
A-DETL
100
AcDbSpline
210
0.0
220
0.0
230
1.0
 70
     8
 71
     3
 72
     8
 73
     4
 74
     0
 42
0.000000001
 43
0.0000000001
 40
2.06155281280883
 40
2.06155281280883
 40
2.06155281280883
 40
2.06155281280883
 40
4.12310562561766
 40
4.12310562561766
 40
4.12310562561766
 40
4.12310562561766
 10
1029.136723803359
 20
3483.993273534061
 30
0.0
 10
1019.290605835382
 20
3480.24327353406
 30
0.0
 10
1009.444487867404
 20
3476.49327353406
 30
0.0
 10
999.13672380336
 20
3476.49327353406
 30
0.0
1001
REVIT
1002
{
1070
     1
1000
200011
1002
}
1002
{
1070
     2
1000
-2000051
1002
}
1002
{
1070
     3
1000
-2000077
1002
}
  0
SPLINE
  5
F3
330
70
100
AcDbEntity
  8
A-DETL
100
AcDbSpline
210
0.0
220
0.0
230
1.0
 70
     8
 71
     3
 72
     8
 73
     4
 74
     0
 42
0.000000001
 43
0.0000000001
 40
0.0
 40
0.0
 40
0.0
 40
0.0
 40
2.06155281280883
 40
2.06155281280883
 40
2.06155281280883
 40
2.06155281280883
 10
999.1367238033598
 20
3476.49327353406
 30
0.0
 10
1009.444487867404
 20
3476.49327353406
 30
0.0
 10
1019.290605835381
 20
3472.74327353406
 30
0.0
 10
1029.136723803359
 20
3468.99327353406
 30
0.0
1001
REVIT
1002
{
1070
     1
1000
200011
1002
}
1002
{
1070
     2
1000
-2000051
1002
}
1002
{
1070
     3
1000
-2000077
1002
}
  0
SPLINE
  5
F4
330
70
100
AcDbEntity
  8
A-DETL
100
AcDbSpline
210
0.0
220
0.0
230
1.0
 70
     8
 71
     3
 72
     9
 73
     5
 74
     0
 42
0.000000001
 43
0.0000000001
 40
0.0
 40
0.0
 40
0.0
 40
0.0
 40
1.414213562373095
 40
2.82842712474619
 40
2.82842712474619
 40
2.82842712474619
 40
2.82842712474619
 10
999.1367238033596
 20
3446.49327353406
 30
0.0
 10
992.065655991494
 20
3446.49327353406
 30
0.0
 10
976.2077916152247
 20
3461.493273534059
 30
0.0
 10
992.065655991494
 20
3476.49327353406
 30
0.0
 10
999.13672380336
 20
3476.493273534061
 30
0.0
1001
REVIT
1002
{
1070
     1
1000
200011
1002
}
1002
{
1070
     2
1000
-2000051
1002
}
1002
{
1070
     3
1000
-2000077
1002
}
  0
SPLINE
  5
F5
330
70
100
AcDbEntity
  8
A-DETL
100
AcDbSpline
210
0.0
220
0.0
230
1.0
 70
     8
 71
     3
 72
     8
 73
     4
 74
     0
 42
0.000000001
 43
0.0000000001
 40
2.06155281280883
 40
2.06155281280883
 40
2.06155281280883
 40
2.06155281280883
 40
4.12310562561766
 40
4.12310562561766
 40
4.12310562561766
 40
4.12310562561766
 10
1029.136723803359
 20
3453.99327353406
 30
0.0
 10
1019.290605835381
 20
3450.243273534061
 30
0.0
 10
1009.444487867403
 20
3446.49327353406
 30
0.0
 10
999.1367238033596
 20
3446.49327353406
 30
0.0
1001
REVIT
1002
{
1070
     1
1000
200011
1002
}
1002
{
1070
     2
1000
-2000051
1002
}
1002
{
1070
     3
1000
-2000077
1002
}
  0
SPLINE
  5
F6
330
70
100
AcDbEntity
  8
A-DETL
100
AcDbSpline
210
0.0
220
0.0
230
1.0
 70
     8
 71
     3
 72
     8
 73
     4
 74
     0
 42
0.000000001
 43
0.0000000001
 40
0.0
 40
0.0
 40
0.0
 40
0.0
 40
2.06155281280883
 40
2.06155281280883
 40
2.06155281280883
 40
2.06155281280883
 10
999.1367238033596
 20
3446.49327353406
 30
0.0
 10
1009.444487867404
 20
3446.49327353406
 30
0.0
 10
1019.290605835381
 20
3442.74327353406
 30
0.0
 10
1029.136723803359
 20
3438.993273534059
 30
0.0
1001
REVIT
1002
{
1070
     1
1000
200011
1002
}
1002
{
1070
     2
1000
-2000051
1002
}
1002
{
1070
     3
1000
-2000077
1002
}
  0
SPLINE
  5
F7
330
70
100
AcDbEntity
  8
A-DETL
100
AcDbSpline
210
0.0
220
0.0
230
1.0
 70
     8
 71
     3
 72
     9
 73
     5
 74
     0
 42
0.000000001
 43
0.0000000001
 40
0.0
 40
0.0
 40
0.0
 40
0.0
 40
1.414213562373095
 40
2.82842712474619
 40
2.82842712474619
 40
2.82842712474619
 40
2.82842712474619
 10
999.1367238033596
 20
3416.49327353406
 30
0.0
 10
992.065655991494
 20
3416.49327353406
 30
0.0
 10
976.2077916152247
 20
3431.493273534061
 30
0.0
 10
992.065655991494
 20
3446.493273534061
 30
0.0
 10
999.1367238033598
 20
3446.49327353406
 30
0.0
1001
REVIT
1002
{
1070
     1
1000
200011
1002
}
1002
{
1070
     2
1000
-2000051
1002
}
1002
{
1070
     3
1000
-2000077
1002
}
  0
SPLINE
  5
F8
330
70
100
AcDbEntity
  8
A-DETL
100
AcDbSpline
210
0.0
220
0.0
230
1.0
 70
     8
 71
     3
 72
     8
 73
     4
 74
     0
 42
0.000000001
 43
0.0000000001
 40
2.06155281280883
 40
2.06155281280883
 40
2.06155281280883
 40
2.06155281280883
 40
4.12310562561766
 40
4.12310562561766
 40
4.12310562561766
 40
4.12310562561766
 10
1029.136723803359
 20
3423.993273534061
 30
0.0
 10
1019.290605835381
 20
3420.243273534059
 30
0.0
 10
1009.444487867403
 20
3416.493273534061
 30
0.0
 10
999.1367238033596
 20
3416.49327353406
 30
0.0
1001
REVIT
1002
{
1070
     1
1000
200011
1002
}
1002
{
1070
     2
1000
-2000051
1002
}
1002
{
1070
     3
1000
-2000077
1002
}
  0
SPLINE
  5
F9
330
70
100
AcDbEntity
  8
A-DETL
100
AcDbSpline
210
0.0
220
0.0
230
1.0
 70
     8
 71
     3
 72
     8
 73
     4
 74
     0
 42
0.000000001
 43
0.0000000001
 40
0.0
 40
0.0
 40
0.0
 40
0.0
 40
2.06155281280883
 40
2.06155281280883
 40
2.06155281280883
 40
2.06155281280883
 10
999.1367238033596
 20
3416.49327353406
 30
0.0
 10
1009.444487867404
 20
3416.49327353406
 30
0.0
 10
1019.290605835381
 20
3412.743273534061
 30
0.0
 10
1029.136723803359
 20
3408.99327353406
 30
0.0
1001
REVIT
1002
{
1070
     1
1000
200011
1002
}
1002
{
1070
     2
1000
-2000051
1002
}
1002
{
1070
     3
1000
-2000077
1002
}
  0
SPLINE
  5
FA
330
70
100
AcDbEntity
  8
A-DETL
100
AcDbSpline
210
0.0
220
0.0
230
1.0
 70
     8
 71
     3
 72
     9
 73
     5
 74
     0
 42
0.000000001
 43
0.0000000001
 40
0.4149998354825695
 40
0.4149998354825695
 40
0.4149998354825695
 40
0.4149998354825695
 40
1.414213562373095
 40
2.82842712474619
 40
2.82842712474619
 40
2.82842712474619
 40
2.82842712474619
 10
992.9121469540124
 20
3388.241281067762
 30
0.0
 10
988.094958042194
 20
3390.895011501976
 30
0.0
 10
978.5345304057274
 20
3403.694142518019
 30
0.0
 10
992.0656559914943
 20
3416.493273534062
 30
0.0
 10
999.1367238033598
 20
3416.49327353406
 30
0.0
1001
REVIT
1002
{
1070
     1
1000
200011
1002
}
1002
{
1070
     2
1000
-2000051
1002
}
1002
{
1070
     3
1000
-2000077
1002
}
  0
SPLINE
  5
FB
330
70
100
AcDbEntity
  8
A-DETL
100
AcDbSpline
210
0.0
220
0.0
230
1.0
 70
     8
 71
     3
 72
     8
 73
     4
 74
     0
 42
0.000000001
 43
0.0000000001
 40
2.06155281280883
 40
2.06155281280883
 40
2.06155281280883
 40
2.06155281280883
 40
3.234505275268781
 40
3.234505275268781
 40
3.234505275268781
 40
3.234505275268781
 10
1029.136723803359
 20
3393.993273534061
 30
0.0
 10
1023.53462220089
 20
3391.859652844405
 30
0.0
 10
1017.831454273487
 20
3390.547004587382
 30
0.0
 10
1012.114700795456
 20
3389.344713193093
 30
0.0
1001
REVIT
1002
{
1070
     1
1000
200011
1002
}
1002
{
1070
     2
1000
-2000051
1002
}
1002
{
1070
     3
1000
-2000077
1002
}
  0
INSERT
  5
101
330
70
100
AcDbEntity
  8
A-DETL-GENF
100
AcDbBlockReference
  2
rs_building wrap - Building wrap-109723-W-TRSIL-14A - Membrane Deck to Wall Junction Detail
 10
1077.136723803359
 20
3543.972070874327
 30
0.0
 50
90.00000000000014
1001
REVIT
1002
{
1070
     1
1000
200012
1002
}
1002
{
1070
     5
1000
10675
1002
}
1002
{
1070
     2
1000
-2002000
1002
}
  0
INSERT
  5
109
330
70
100
AcDbEntity
  8
A-DETL-GENF
100
AcDbBlockReference
  2
FP Timber Nog Packer - Variable-109744-W-TRSIL-14A - Membrane Deck to Wall Junction Detail
 10
1049.136723803361
 20
3528.368273534062
 30
0.0
 50
270.0000000000002
1001
REVIT
1002
{
1070
     1
1000
200013
1002
}
1002
{
1070
     5
1000
33622
1002
}
1002
{
1070
     2
1000
-2002000
1002
}
  0
INSERT
  5
111
330
70
100
AcDbEntity
  8
A-DETL-GENF
100
AcDbBlockReference
  2
rs_base flashing 95 - Base flashing-10681-W-TRSIL-14A - Membrane Deck to Wall Junction Detail
 10
1109.886723803361
 20
3412.048182677486
 30
0.0
1001
REVIT
1002
{
1070
     1
1000
200014
1002
}
1002
{
1070
     5
1000
10681
1002
}
1002
{
1070
     2
1000
-2002000
1002
}
  0
HATCH
  5
116
330
70
100
AcDbEntity
  8
A-DETL-GENF
100
AcDbHatch
 10
0.0
 20
0.0
 30
0.0
210
0.0
220
0.0
230
1.0
  2
FP_1
 70
     0
 71
     0
 91
        1
 92
        0
 93
        4
 72
     1
 10
1107.92180577687
 20
3486.493273534068
 11
1107.92180577687
 21
3781.493273534067
 72
     1
 10
1107.92180577687
 20
3781.493273534067
 11
1087.921805776865
 21
3781.493273534067
 72
     1
 10
1087.921805776865
 20
3781.493273534067
 11
1087.921805776865
 21
3486.493273534068
 72
     1
 10
1087.921805776865
 20
3486.493273534068
 11
1107.92180577687
 21
3486.493273534068
 97
        0
 75
     0
 76
     2
 52
0.0
 41
1.0
 77
     0
 78
     2
 53
0.0
 43
0.0
 44
0.0
 45
0.0
 46
11.0
 79
     0
 53
90.0
 43
0.0
 44
0.0
 45
-11.0
 46
0.0000000000000007
 79
     0
 98
        1
 10
0.0
 20
0.0
1001
REVIT
1002
{
1070
     1
1000
200020
1002
}
1002
{
1070
     5
1000
14996
1002
}
1002
{
1070
     2
1000
-2002000
1002
}
  0
LINE
  5
118
330
70
100
AcDbEntity
  8
A-DETL-THIN
100
AcDbLine
 10
1107.921805776869
 20
3486.493273534064
 30
0.0
 11
1107.921805776869
 21
3781.493273534064
 31
0.0
1001
REVIT
1002
{
1070
     1
1000
200020
1002
}
1002
{
1070
     5
1000
14996
1002
}
1002
{
1070
     2
1000
-2000051
1002
}
1002
{
1070
     3
1000
-2000042
1002
}
  0
LINE
  5
119
330
70
100
AcDbEntity
  8
A-DETL-THIN
100
AcDbLine
 10
1087.921805776864
 20
3781.493273534064
 30
0.0
 11
1087.921805776864
 21
3486.493273534064
 31
0.0
1001
REVIT
1002
{
1070
     1
1000
200020
1002
}
1002
{
1070
     5
1000
14996
1002
}
1002
{
1070
     2
1000
-2000051
1002
}
1002
{
1070
     3
1000
-2000042
1002
}
  0
LINE
  5
11A
330
70
100
AcDbEntity
  8
A-DETL-THIN
100
AcDbLine
 10
1359.458349361462
 20
3343.570429074414
 30
0.0
 11
1074.136723803359
 21
3348.550736573957
 31
0.0
1001
REVIT
1002
{
1070
     1
1000
200049
1002
}
1002
{
1070
     5
1000
17867
1002
}
1002
{
1070
     2
1000
-2000051
1002
}
1002
{
1070
     3
1000
-2000042
1002
}
  0
HATCH
  5
11F
330
70
100
AcDbEntity
  8
A-DETL-GENF
100
AcDbHatch
 10
0.0
 20
0.0
 30
0.0
210
0.0
220
0.0
230
1.0
  2
FP_2
 70
     0
 71
     0
 91
        1
 92
        0
 93
        4
 72
     1
 10
984.1367238033608
 20
3388.368273534064
 11
984.1367238033598
 21
3781.493273534064
 72
     1
 10
984.1367238033598
 20
3781.493273534064
 11
971.1367238033616
 21
3781.493273534064
 72
     1
 10
971.1367238033616
 20
3781.493273534064
 11
971.1367238033627
 21
3388.368273534064
 72
     1
 10
971.1367238033627
 20
3388.368273534064
 11
984.1367238033608
 21
3388.368273534064
 97
        0
 75
     0
 76
     2
 52
0.0
 41
1.0
 77
     0
 78
     9
 53
0.0
 43
0.0
 44
0.0
 45
20.32
 46
5.08
 79
     5
 49
1.675999999999999
 49
-13.564
 49
1.675999999999999
 49
-13.564
 49
-81.28
 53
0.0
 43
0.0
 44
0.0
 45
20.32
 46
5.08
 79
     6
 49
-30.48
 49
1.675999999999999
 49
-28.804
 49
1.675999999999999
 49
-13.564
 49
-35.56
 53
0.0
 43
0.0
 44
0.0
 45
20.32
 46
5.08
 79
     5
 49
-76.2
 49
1.675999999999999
 49
-8.483999999999999
 49
1.675999999999999
 49
-23.724
 53
120.0
 43
7.62
 44
2.54
 45
-14.55940905122494
 46
15.0576362048998
 79
     5
 49
1.675999999999999
 49
-13.564
 49
1.675999999999999
 49
-13.564
 49
-81.27999999999998
 53
120.0
 43
7.62
 44
2.54
 45
-14.55940905122494
 46
15.0576362048998
 79
     6
 49
-30.48
 49
1.675999999999999
 49
-28.804
 49
1.675999999999999
 49
-13.564
 49
-35.56
 53
120.0
 43
7.62
 44
2.54
 45
-14.55940905122494
 46
15.0576362048998
 79
     5
 49
-76.19999999999999
 49
1.675999999999999
 49
-8.483999999999998
 49
1.675999999999999
 49
-23.724
 53
240.0
 43
10.16
 44
12.7
 45
-5.760590948775045
 46
-20.1376362048998
 79
     5
 49
1.675999999999999
 49
-13.564
 49
1.675999999999999
 49
-13.564
 49
-81.28
 53
240.0
 43
10.16
 44
12.7
 45
-5.760590948775045
 46
-20.1376362048998
 79
     6
 49
-30.48
 49
1.675999999999999
 49
-28.804
 49
1.675999999999999
 49
-13.564
 49
-35.56
 53
240.0
 43
10.16
 44
12.7
 45
-5.760590948775045
 46
-20.1376362048998
 79
     5
 49
-76.2
 49
1.675999999999999
 49
-8.483999999999999
 49
1.675999999999999
 49
-23.724
 98
        1
 10
0.0
 20
0.0
1001
REVIT
1002
{
1070
     1
1000
200031
1002
}
1002
{
1070
     5
1000
17941
1002
}
1002
{
1070
     2
1000
-2002000
1002
}
  0
LINE
  5
120
330
70
100
AcDbEntity
  8
A-DETL
100
AcDbLine
 10
971.1367238033608
 20
3781.49327353406
 30
0.0
 11
971.136723803362
 21
3388.368273534061
 31
0.0
1001
REVIT
1002
{
1070
     1
1000
200031
1002
}
1002
{
1070
     5
1000
17941
1002
}
1002
{
1070
     2
1000
-2000051
1002
}
1002
{
1070
     3
1000
16210
1002
}
  0
LINE
  5
121
330
70
100
AcDbEntity
  8
A-DETL
100
AcDbLine
 10
984.1367238033599
 20
3388.368273534061
 30
0.0
 11
984.1367238033589
 21
3781.49327353406
 31
0.0
1001
REVIT
1002
{
1070
     1
1000
200031
1002
}
1002
{
1070
     5
1000
17941
1002
}
1002
{
1070
     2
1000
-2000051
1002
}
1002
{
1070
     3
1000
16210
1002
}
  0
LINE
  5
122
330
70
100
AcDbEntity
  8
A-DETL-THIN
100
AcDbLine
 10
1074.13672380336
 20
3388.368273534061
 30
0.0
 11
1074.13672380336
 21
3781.493273534061
 31
0.0
1001
REVIT
1002
{
1070
     1
1000
200027
1002
}
1002
{
1070
     2
1000
-2000051
1002
}
1002
{
1070
     3
1000
-2000042
1002
}
  0
LINE
  5
123
330
70
100
AcDbEntity
  8
A-DETL-THIN
100
AcDbLine
 10
984.1367238033599
 20
3388.368273534061
 30
0.0
 11
984.1367238033607
 21
3781.49327353406
 31
0.0
1001
REVIT
1002
{
1070
     1
1000
200028
1002
}
1002
{
1070
     2
1000
-2000051
1002
}
1002
{
1070
     3
1000
-2000042
1002
}
  0
INSERT
  5
12D
330
70
100
AcDbEntity
  8
A-DETL-GENF
100
AcDbBlockReference
  2
FP Timber Nog Packer - Variable-40636-W-TRSIL-14A - Membrane Deck to Wall Junction Detail
 10
1082.921805776872
 20
3441.493273534059
 30
0.0
 50
90.00000000000119
1001
REVIT
1002
{
1070
     1
1000
200038
1002
}
1002
{
1070
     5
1000
33622
1002
}
1002
{
1070
     2
1000
-2002000
1002
}
  0
INSERT
  5
166
330
70
100
AcDbEntity
  8
A-DETL-GENF
100
AcDbBlockReference
  2
4821_Cavity Closure - 4821_Cavity Closure-36600-W-TRSIL-14A - Membrane Deck to Wall Junction Detail
 10
1085.886723803366
 20
3428.260507488964
 30
0.0
 50
180.0
1001
REVIT
1002
{
1070
     1
1000
200039
1002
}
1002
{
1070
     5
1000
36099
1002
}
1002
{
1070
     2
1000
-2002000
1002
}
  0
HATCH
  5
16A
330
70
100
AcDbEntity
  8
A-DETL-GENF
100
AcDbHatch
 10
0.0
 20
0.0
 30
0.0
210
0.0
220
0.0
230
1.0
  2
FP_3
 70
     0
 71
     0
 91
        1
 92
        0
 93
        3
 72
     1
 10
1077.136723803361
 20
3351.498828363307
 11
1107.136723803361
 21
3351.498828363307
 72
     1
 10
1107.136723803361
 20
3351.498828363307
 11
1077.136723803361
 21
3381.498828363306
 72
     1
 10
1077.136723803361
 20
3381.498828363306
 11
1077.136723803361
 21
3351.498828363307
 97
        0
 75
     0
 76
     2
 52
0.0
 41
1.0
 77
     0
 78
     3
 53
216.87
 43
8.462999999999999
 44
21.158
 45
63.47512440516132
 46
42.31651339311042
 79
     2
 49
10.579
 49
-95.212
 53
206.565
 43
21.158
 44
14.811
 45
-21.15858852890061
 46
-21.15810351767557
 79
     2
 49
23.656
 49
-23.656
 53
198.435
 43
21.158
 44
4.232
 45
-42.31663206612067
 46
-21.15852139400503
 79
     2
 49
13.382
 49
-53.52599999999999
 98
        1
 10
0.0
 20
0.0
1001
REVIT
1002
{
1070
     1
1000
200073
1002
}
1002
{
1070
     5
1000
108656
1002
}
1002
{
1070
     2
1000
-2002000
1002
}
  0
LINE
  5
16B
330
70
100
AcDbEntity
  8
A-DETL-THIN
100
AcDbLine
 10
1077.13672380336
 20
3381.498828363304
 30
0.0
 11
1077.13672380336
 21
3351.498828363304
 31
0.0
1001
REVIT
1002
{
1070
     1
1000
200073
1002
}
1002
{
1070
     5
1000
108656
1002
}
1002
{
1070
     2
1000
-2000051
1002
}
1002
{
1070
     3
1000
-2000042
1002
}
  0
LINE
  5
16C
330
70
100
AcDbEntity
  8
A-DETL-THIN
100
AcDbLine
 10
1077.13672380336
 20
3351.498828363304
 30
0.0
 11
1107.13672380336
 21
3351.498828363304
 31
0.0
1001
REVIT
1002
{
1070
     1
1000
200073
1002
}
1002
{
1070
     5
1000
108656
1002
}
1002
{
1070
     2
1000
-2000051
1002
}
1002
{
1070
     3
1000
-2000042
1002
}
  0
LINE
  5
16D
330
70
100
AcDbEntity
  8
A-DETL-THIN
100
AcDbLine
 10
1107.13672380336
 20
3351.498828363304
 30
0.0
 11
1077.13672380336
 21
3381.498828363304
 31
0.0
1001
REVIT
1002
{
1070
     1
1000
200073
1002
}
1002
{
1070
     5
1000
108656
1002
}
1002
{
1070
     2
1000
-2000051
1002
}
1002
{
1070
     3
1000
-2000042
1002
}
  0
HATCH
  5
173
330
70
100
AcDbEntity
  8
A-DETL-GENF
100
AcDbHatch
 10
0.0
 20
0.0
 30
0.0
210
0.0
220
0.0
230
1.0
  2
FP_4
 70
     0
 71
     0
 91
        1
 92
        0
 93
        5
 72
     1
 10
1074.13672380336
 20
3368.368273534063
 11
1074.13672380336
 21
3388.368273534064
 72
     1
 10
1074.13672380336
 20
3388.368273534064
 11
915.871880264693
 21
3388.368273534064
 72
     1
 10
915.871880264693
 20
3388.368273534064
 11
915.871880264693
 21
3368.368273534063
 72
     1
 10
915.871880264693
 20
3368.368273534063
 11
1029.136723803362
 21
3368.368273534063
 72
     1
 10
1029.136723803362
 20
3368.368273534063
 11
1074.13672380336
 21
3368.368273534063
 97
        0
 75
     0
 76
     2
 52
0.0
 41
1.0
 77
     0
 78
    10
 53
0.0
 43
0.0
 44
0.0
 45
0.0
 46
6.0
 79
     0
 53
45.0
 43
0.0
 44
0.0
 45
-23.99991126025261
 46
23.99991126025261
 79
     2
 49
8.484999999999999
 49
-8.484999999999999
 53
45.0
 43
3.0
 44
0.0
 45
-23.99991126025261
 46
23.99991126025261
 79
     2
 49
8.484999999999999
 49
-8.484999999999999
 53
45.0
 43
6.0
 44
0.0
 45
-23.99991126025261
 46
23.99991126025261
 79
     2
 49
8.484999999999999
 49
-8.484999999999999
 53
135.0
 43
36.0
 44
6.0
 45
-23.99991126025261
 46
-23.99991126025261
 79
     2
 49
8.484999999999999
 49
-25.456
 53
135.0
 43
39.0
 44
6.0
 45
-23.99991126025261
 46
-23.99991126025261
 79
     2
 49
8.484999999999999
 49
-25.456
 53
135.0
 43
42.0
 44
6.0
 45
-23.99991126025261
 46
-23.99991126025261
 79
     2
 49
8.484999999999999
 49
-25.456
 53
135.0
 43
0.0
 44
18.0
 45
-23.99991126025261
 46
-23.99991126025261
 79
     2
 49
8.484999999999999
 49
-25.456
 53
135.0
 43
3.0
 44
18.0
 45
-23.99991126025261
 46
-23.99991126025261
 79
     2
 49
8.484999999999999
 49
-25.456
 53
135.0
 43
6.0
 44
18.0
 45
-23.99991126025261
 46
-23.99991126025261
 79
     2
 49
8.484999999999999
 49
-25.456
 98
        1
 10
0.0
 20
0.0
1001
REVIT
1002
{
1070
     1
1000
200372
1002
}
1002
{
1070
     5
1000
200407
1002
}
1002
{
1070
     2
1000
-2002000
1002
}
  0
LINE
  5
174
330
70
100
AcDbEntity
  8
A-DETL-THIN
100
AcDbLine
 10
915.8718802646921
 20
3368.36827353406
 30
0.0
 11
984.1367238033608
 21
3368.36827353406
 31
0.0
1001
REVIT
1002
{
1070
     1
1000
200372
1002
}
1002
{
1070
     5
1000
200407
1002
}
1002
{
1070
     2
1000
-2000051
1002
}
1002
{
1070
     3
1000
-2000042
1002
}
  0
LINE
  5
175
330
70
100
AcDbEntity
  8
A-DETL-THIN
100
AcDbLine
 10
1074.136723803359
 20
3368.36827353406
 30
0.0
 11
1074.136723803359
 21
3388.368273534061
 31
0.0
1001
REVIT
1002
{
1070
     1
1000
200372
1002
}
1002
{
1070
     5
1000
200407
1002
}
1002
{
1070
     2
1000
-2000051
1002
}
1002
{
1070
     3
1000
-2000042
1002
}
  0
LINE
  5
176
330
70
100
AcDbEntity
  8
A-DETL-THIN
100
AcDbLine
 10
1074.136723803359
 20
3388.368273534061
 30
0.0
 11
915.8718802646921
 21
3388.368273534061
 31
0.0
1001
REVIT
1002
{
1070
     1
1000
200372
1002
}
1002
{
1070
     5
1000
200407
1002
}
1002
{
1070
     2
1000
-2000051
1002
}
1002
{
1070
     3
1000
-2000042
1002
}
  0
LINE
  5
177
330
70
100
AcDbEntity
  8
A-DETL-THIN
100
AcDbLine
 10
1117.156706555366
 20
3417.166089769825
 30
0.0
 11
1144.156706555366
 21
3417.166089769825
 31
0.0
1001
REVIT
1002
{
1070
     1
1000
200056
1002
}
1002
{
1070
     5
1000
17873
1002
}
1002
{
1070
     2
1000
-2000051
1002
}
1002
{
1070
     3
1000
-2000042
1002
}
  0
LINE
  5
178
330
70
100
AcDbEntity
  8
A-DETL-THIN
100
AcDbLine
 10
1144.156706555366
 20
3417.166089769825
 30
0.0
 11
1144.156706555366
 21
3781.493273534061
 31
0.0
1001
REVIT
1002
{
1070
     1
1000
200056
1002
}
1002
{
1070
     5
1000
17873
1002
}
1002
{
1070
     2
1000
-2000051
1002
}
1002
{
1070
     3
1000
-2000042
1002
}
  0
LINE
  5
179
330
70
100
AcDbEntity
  8
A-DETL-THIN
100
AcDbLine
 10
1117.156706555366
 20
3781.493273534061
 30
0.0
 11
1117.156706555366
 21
3417.166089769825
 31
0.0
1001
REVIT
1002
{
1070
     1
1000
200056
1002
}
1002
{
1070
     5
1000
17873
1002
}
1002
{
1070
     2
1000
-2000051
1002
}
1002
{
1070
     3
1000
-2000042
1002
}
  0
LINE
  5
17A
330
70
100
AcDbEntity
  8
A-DETL
100
AcDbLine
 10
1111.987690374795
 20
3350.890502478988
 30
0.0
 11
1359.458349361462
 21
3346.570886058547
 31
0.0
1001
REVIT
1002
{
1070
     1
1000
200067
1002
}
1002
{
1070
     2
1000
-2000051
1002
}
1002
{
1070
     3
1000
15811
1002
}
  0
LINE
  5
17B
330
70
100
AcDbEntity
  8
A-DETL
100
AcDbLine
 10
1113.251941666159
 20
3353.868891874744
 30
0.0
 11
1359.458349361463
 21
3349.571343042678
 31
0.0
1001
REVIT
1002
{
1070
     1
1000
200068
1002
}
1002
{
1070
     2
1000
-2000051
1002
}
1002
{
1070
     3
1000
15811
1002
}
  0
LINE
  5
17C
330
70
100
AcDbEntity
  8
A-DETL
100
AcDbLine
 10
1077.13672380336
 20
3533.413827669229
 30
0.0
 11
1077.13672380336
 21
3385.741469050424
 31
0.0
1001
REVIT
1002
{
1070
     1
1000
200069
1002
}
1002
{
1070
     2
1000
-2000051
1002
}
1002
{
1070
     3
1000
15811
1002
}
  0
LINE
  5
17D
330
70
100
AcDbEntity
  8
A-DETL
100
AcDbLine
 10
1080.13672380336
 20
3533.413827669229
 30
0.0
 11
1080.13672380336
 21
3386.984109737543
 31
0.0
1001
REVIT
1002
{
1070
     1
1000
200070
1002
}
1002
{
1070
     2
1000
-2000051
1002
}
1002
{
1070
     3
1000
15811
1002
}
  0
INSERT
  5
186
330
70
100
AcDbEntity
  8
A-DETL-GENF
100
AcDbBlockReference
  2
breakline with fill detail1to5 - breakline with fill detail1to5-200687-W-TRSIL-14A - Membrane Deck to Wall Junction Detail
 10
1359.458349361463
 20
3317.723990345105
 30
0.0
 50
90.00000000000035
1001
REVIT
1002
{
1070
     1
1000
200017
1002
}
1002
{
1070
     5
1000
10664
1002
}
1002
{
1070
     2
1000
-2002000
1002
}
  0
INSERT
  5
18B
330
70
100
AcDbEntity
  8
A-DETL-GENF
100
AcDbBlockReference
  2
rs_building wrap - Building wrap-109703-W-TRSIL-14A - Membrane Deck to Wall Junction Detail
 10
1082.717241702889
 20
3447.291946853538
 30
0.0
 50
90.00000000000014
1001
REVIT
1002
{
1070
     1
1000
200081
1002
}
1002
{
1070
     5
1000
10675
1002
}
1002
{
1070
     2
1000
-2002000
1002
}
  0
INSERT
  5
190
330
70
100
AcDbEntity
  8
A-DETL-GENF
100
AcDbBlockReference
  2
rs_building wrap - Building wrap-109646-W-TRSIL-14A - Membrane Deck to Wall Junction Detail
 10
1082.717241702889
 20
3534.166946853539
 30
0.0
 50
119.6460661181295
1001
REVIT
1002
{
1070
     1
1000
200082
1002
}
1002
{
1070
     5
1000
10675
1002
}
1002
{
1070
     2
1000
-2002000
1002
}
  0
INSERT
  5
198
330
70
100
AcDbEntity
  8
A-DETL-GENF
100
AcDbBlockReference
  2
FP Timber Nog Packer - Variable-200217-W-TRSIL-14A - Membrane Deck to Wall Junction Detail
 10
1049.136723803361
 20
3368.36827353406
 30
0.0
 50
270.0000000000002
1001
REVIT
1002
{
1070
     1
1000
200179
1002
}
1002
{
1070
     5
1000
33622
1002
}
1002
{
1070
     2
1000
-2002000
1002
}
  0
INSERT
  5
1A1
330
70
100
AcDbEntity
  8
A-DETL-GENF
100
AcDbBlockReference
  2
FP Timber Nog Packer - Variable-V1-W-TRSIL-14A - Membrane Deck to Wall Junction Detail
 10
1004.13672380336
 20
3368.36827353406
 30
0.0
 50
270.0000000000002
1001
REVIT
1002
{
1070
     1
1000
200267
1002
}
1002
{
1070
     5
1000
33622
1002
}
1002
{
1070
     2
1000
-2002000
1002
}
  0
LINE
  5
1A2
330
70
100
AcDbEntity
  8
A-DETL
100
AcDbLine
 10
1077.13672380336
 20
3385.741469050424
 30
0.0
 11
1111.987690374795
 21
3350.890502478988
 31
0.0
1001
REVIT
1002
{
1070
     1
1000
200079
1002
}
1002
{
1070
     2
1000
-2000051
1002
}
1002
{
1070
     3
1000
15811
1002
}
  0
LINE
  5
1A3
330
70
100
AcDbEntity
  8
A-DETL
100
AcDbLine
 10
1080.13672380336
 20
3386.984109737543
 30
0.0
 11
1113.251941666159
 21
3353.868891874744
 31
0.0
1001
REVIT
1002
{
1070
     1
1000
200080
1002
}
1002
{
1070
     2
1000
-2000051
1002
}
1002
{
1070
     3
1000
15811
1002
}
  0
INSERT
  5
1AC
330
70
100
AcDbEntity
  8
A-DETL-GENF
100
AcDbBlockReference
  2
breakline with fill detail1to5 - breakline with fill detail1to5-200769-W-TRSIL-14A - Membrane Deck to Wall Junction Detail
 10
1038.90492240801
 20
3278.502320837641
 30
0.0
1001
REVIT
1002
{
1070
     1
1000
200015
1002
}
1002
{
1070
     5
1000
10664
1002
}
1002
{
1070
     2
1000
-2002000
1002
}
  0
INSERT
  5
1B1
330
70
100
AcDbEntity
  8
A-DETL-GENF
100
AcDbBlockReference
  2
rs_building wrap - Building wrap-200996-W-TRSIL-14A - Membrane Deck to Wall Junction Detail
 10
1110.196952149952
 20
3519.332403383442
 30
0.0
 50
90.00000000000014
1001
REVIT
1002
{
1070
     1
1000
200843
1002
}
1002
{
1070
     5
1000
10675
1002
}
1002
{
1070
     2
1000
-2002000
1002
}
  0
INSERT
  5
1B6
330
70
100
AcDbEntity
  8
A-DETL-GENF
100
AcDbBlockReference
  2
rs_building wrap - Building wrap-200961-W-TRSIL-14A - Membrane Deck to Wall Junction Detail
 10
1112.652470049482
 20
3443.660806926809
 30
0.0
 50
90.00000000000014
1001
REVIT
1002
{
1070
     1
1000
200844
1002
}
1002
{
1070
     5
1000
10675
1002
}
1002
{
1070
     2
1000
-2002000
1002
}
  0
INSERT
  5
1BB
330
70
100
AcDbEntity
  8
A-DETL-GENF
100
AcDbBlockReference
  2
rs_building wrap - Building wrap-200906-W-TRSIL-14A - Membrane Deck to Wall Junction Detail
 10
1112.670156077501
 20
3514.986915800584
 30
0.0
 50
119.6460661181295
1001
REVIT
1002
{
1070
     1
1000
200845
1002
}
1002
{
1070
     5
1000
10675
1002
}
1002
{
1070
     2
1000
-2002000
1002
}
  0
INSERT
  5
1C4
330
70
100
AcDbEntity
  8
A-DETL-GENF
100
AcDbBlockReference
  2
breakline with fill detail1to5 - breakline with fill detail1to5-38694-W-TRSIL-14A - Membrane Deck to Wall Junction Detail
 10
1049.136723803361
 20
3781.493273534061
 30
0.0
 50
180.0
1001
REVIT
1002
{
1070
     1
1000
200016
1002
}
1002
{
1070
     5
1000
10664
1002
}
1002
{
1070
     2
1000
-2002000
1002
}
  0
LINE
  5
1C6
330
70
100
AcDbEntity
  8
G-ANNO-TEXT
100
AcDbLine
 10
848.8322057232467
 20
3694.884286763289
 30
0.0
 11
848.5082994732467
 21
3694.884286763289
 31
0.0
1001
REVIT
1002
{
1070
     1
1000
200040
1002
}
1002
{
1070
     5
1000
16489
1002
}
1002
{
1070
     2
1000
-2000300
1002
}
  0
LINE
  5
1C7
330
70
100
AcDbEntity
  8
G-ANNO-TEXT
100
AcDbLine
 10
975.0919783625937
 20
3694.884286763289
 30
0.0
 11
960.0919783625936
 21
3696.859074227101
 31
0.0
1001
REVIT
1002
{
1070
     1
1000
200040
1002
}
1002
{
1070
     5
1000
16489
1002
}
1002
{
1070
     2
1000
-2000300
1002
}
  0
LINE
  5
1C8
330
70
100
AcDbEntity
  8
G-ANNO-TEXT
100
AcDbLine
 10
960.0919783625936
 20
3696.859074227101
 30
0.0
 11
960.0919783625936
 21
3692.909499299478
 31
0.0
1001
REVIT
1002
{
1070
     1
1000
200040
1002
}
1002
{
1070
     5
1000
16489
1002
}
1002
{
1070
     2
1000
-2000300
1002
}
  0
LINE
  5
1C9
330
70
100
AcDbEntity
  8
G-ANNO-TEXT
100
AcDbLine
 10
960.0919783625936
 20
3692.909499299478
 30
0.0
 11
975.0919783625937
 21
3694.884286763289
 31
0.0
1001
REVIT
1002
{
1070
     1
1000
200040
1002
}
1002
{
1070
     5
1000
16489
1002
}
1002
{
1070
     2
1000
-2000300
1002
}
  0
HATCH
  5
1CA
330
70
100
AcDbEntity
  8
G-ANNO-TEXT
100
AcDbHatch
 10
0.0
 20
0.0
 30
0.0
210
0.0
220
0.0
230
1.0
  2
SOLID
 70
     1
 71
     0
 91
        1
 92
        0
 93
        3
 72
     1
 10
975.0919783625937
 20
3694.884286763289
 11
960.0919783625936
 21
3696.859074227101
 72
     1
 10
960.0919783625936
 20
3696.859074227101
 11
960.0919783625936
 21
3692.909499299478
 72
     1
 10
960.0919783625936
 20
3692.909499299478
 11
975.0919783625937
 21
3694.884286763289
 97
        0
 75
     0
 76
     1
 98
        1
 10
0.0
 20
0.0
450
        0
451
        0
460
0.0
461
0.0
452
        0
462
0.0
453
        0
470

1001
REVIT
1002
{
1070
     1
1000
200040
1002
}
1002
{
1070
     5
1000
16489
1002
}
1002
{
1070
     2
1000
-2000300
1002
}
  0
LINE
  5
1CB
330
70
100
AcDbEntity
  8
G-ANNO-TEXT
100
AcDbLine
 10
975.0919783625937
 20
3694.884286763289
 30
0.0
 11
848.8322057232467
 21
3694.884286763289
 31
0.0
1001
REVIT
1002
{
1070
     1
1000
200040
1002
}
1002
{
1070
     5
1000
16489
1002
}
1002
{
1070
     2
1000
-2000300
1002
}
  0
MTEXT
  5
1CD
330
70
100
AcDbEntity
  8
G-ANNO-TEXT
100
AcDbMText
 10
741.4122057232466
 20
3701.13428676329
 30
0.0
 40
12.5
 41
123.740465625
 46
0.0
 71
     1
 72
     1
  1
Internal lining
  7
Century Gothic
 73
     2
 44
1.0
1001
REVIT
1002
{
1070
     1
1000
200040
1002
}
1002
{
1070
     5
1000
16489
1002
}
1002
{
1070
     2
1000
-2000300
1002
}
  0
LINE
  5
1CE
330
70
100
AcDbEntity
  8
G-ANNO-TEXT
100
AcDbLine
 10
842.8472057232466
 20
3645.246453491906
 30
0.0
 11
842.5551744732468
 21
3645.246453491906
 31
0.0
1001
REVIT
1002
{
1070
     1
1000
200041
1002
}
1002
{
1070
     5
1000
16489
1002
}
1002
{
1070
     2
1000
-2000300
1002
}
  0
LINE
  5
1CF
330
70
100
AcDbEntity
  8
G-ANNO-TEXT
100
AcDbLine
 10
985.8344690083988
 20
3645.246453491906
 30
0.0
 11
970.8344690083988
 21
3647.221240955716
 31
0.0
1001
REVIT
1002
{
1070
     1
1000
200041
1002
}
1002
{
1070
     5
1000
16489
1002
}
1002
{
1070
     2
1000
-2000300
1002
}
  0
LINE
  5
1D0
330
70
100
AcDbEntity
  8
G-ANNO-TEXT
100
AcDbLine
 10
970.8344690083988
 20
3647.221240955716
 30
0.0
 11
970.8344690083988
 21
3643.271666028094
 31
0.0
1001
REVIT
1002
{
1070
     1
1000
200041
1002
}
1002
{
1070
     5
1000
16489
1002
}
1002
{
1070
     2
1000
-2000300
1002
}
  0
LINE
  5
1D1
330
70
100
AcDbEntity
  8
G-ANNO-TEXT
100
AcDbLine
 10
970.8344690083988
 20
3643.271666028094
 30
0.0
 11
985.8344690083988
 21
3645.246453491906
 31
0.0
1001
REVIT
1002
{
1070
     1
1000
200041
1002
}
1002
{
1070
     5
1000
16489
1002
}
1002
{
1070
     2
1000
-2000300
1002
}
  0
HATCH
  5
1D2
330
70
100
AcDbEntity
  8
G-ANNO-TEXT
100
AcDbHatch
 10
0.0
 20
0.0
 30
0.0
210
0.0
220
0.0
230
1.0
  2
SOLID
 70
     1
 71
     0
 91
        1
 92
        0
 93
        3
 72
     1
 10
985.8344690083988
 20
3645.246453491906
 11
970.8344690083988
 21
3647.221240955716
 72
     1
 10
970.8344690083988
 20
3647.221240955716
 11
970.8344690083988
 21
3643.271666028094
 72
     1
 10
970.8344690083988
 20
3643.271666028094
 11
985.8344690083988
 21
3645.246453491906
 97
        0
 75
     0
 76
     1
 98
        1
 10
0.0
 20
0.0
450
        0
451
        0
460
0.0
461
0.0
452
        0
462
0.0
453
        0
470

1001
REVIT
1002
{
1070
     1
1000
200041
1002
}
1002
{
1070
     5
1000
16489
1002
}
1002
{
1070
     2
1000
-2000300
1002
}
  0
LINE
  5
1D3
330
70
100
AcDbEntity
  8
G-ANNO-TEXT
100
AcDbLine
 10
985.8344690083988
 20
3645.246453491906
 30
0.0
 11
842.8472057232466
 21
3645.246453491906
 31
0.0
1001
REVIT
1002
{
1070
     1
1000
200041
1002
}
1002
{
1070
     5
1000
16489
1002
}
1002
{
1070
     2
1000
-2000300
1002
}
  0
MTEXT
  5
1D4
330
70
100
AcDbEntity
  8
G-ANNO-TEXT
100
AcDbMText
 10
741.4122057232466
 20
3651.496453491905
 30
0.0
 40
12.5
 41
116.525278125
 46
0.0
 71
     1
 72
     1
  1
Wall framing
  7
Century Gothic
 73
     2
 44
1.0
1001
REVIT
1002
{
1070
     1
1000
200041
1002
}
1002
{
1070
     5
1000
16489
1002
}
1002
{
1070
     2
1000
-2000300
1002
}
  0
LINE
  5
1D5
330
70
100
AcDbEntity
  8
G-ANNO-TEXT
100
AcDbLine
 10
850.9022057232467
 20
3742.266619300143
 30
0.0
 11
850.5918932232468
 21
3742.266619300143
 31
0.0
1001
REVIT
1002
{
1070
     1
1000
200042
1002
}
1002
{
1070
     5
1000
16489
1002
}
1002
{
1070
     2
1000
-2000300
1002
}
  0
LINE
  5
1D6
330
70
100
AcDbEntity
  8
G-ANNO-TEXT
100
AcDbLine
 10
1077.02497390852
 20
3742.266619300143
 30
0.0
 11
1062.02497390852
 21
3744.241406763953
 31
0.0
1001
REVIT
1002
{
1070
     1
1000
200042
1002
}
1002
{
1070
     5
1000
16489
1002
}
1002
{
1070
     2
1000
-2000300
1002
}
  0
LINE
  5
1D7
330
70
100
AcDbEntity
  8
G-ANNO-TEXT
100
AcDbLine
 10
1062.02497390852
 20
3744.241406763953
 30
0.0
 11
1062.02497390852
 21
3740.291831836331
 31
0.0
1001
REVIT
1002
{
1070
     1
1000
200042
1002
}
1002
{
1070
     5
1000
16489
1002
}
1002
{
1070
     2
1000
-2000300
1002
}
  0
LINE
  5
1D8
330
70
100
AcDbEntity
  8
G-ANNO-TEXT
100
AcDbLine
 10
1062.02497390852
 20
3740.291831836331
 30
0.0
 11
1077.02497390852
 21
3742.266619300143
 31
0.0
1001
REVIT
1002
{
1070
     1
1000
200042
1002
}
1002
{
1070
     5
1000
16489
1002
}
1002
{
1070
     2
1000
-2000300
1002
}
  0
HATCH
  5
1D9
330
70
100
AcDbEntity
  8
G-ANNO-TEXT
100
AcDbHatch
 10
0.0
 20
0.0
 30
0.0
210
0.0
220
0.0
230
1.0
  2
SOLID
 70
     1
 71
     0
 91
        1
 92
        0
 93
        3
 72
     1
 10
1077.02497390852
 20
3742.266619300143
 11
1062.02497390852
 21
3744.241406763953
 72
     1
 10
1062.02497390852
 20
3744.241406763953
 11
1062.02497390852
 21
3740.291831836331
 72
     1
 10
1062.02497390852
 20
3740.291831836331
 11
1077.02497390852
 21
3742.266619300143
 97
        0
 75
     0
 76
     1
 98
        1
 10
0.0
 20
0.0
450
        0
451
        0
460
0.0
461
0.0
452
        0
462
0.0
453
        0
470

1001
REVIT
1002
{
1070
     1
1000
200042
1002
}
1002
{
1070
     5
1000
16489
1002
}
1002
{
1070
     2
1000
-2000300
1002
}
  0
LINE
  5
1DA
330
70
100
AcDbEntity
  8
G-ANNO-TEXT
100
AcDbLine
 10
1077.02497390852
 20
3742.266619300143
 30
0.0
 11
850.9022057232467
 21
3742.266619300143
 31
0.0
1001
REVIT
1002
{
1070
     1
1000
200042
1002
}
1002
{
1070
     5
1000
16489
1002
}
1002
{
1070
     2
1000
-2000300
1002
}
  0
MTEXT
  5
1DB
330
70
100
AcDbEntity
  8
G-ANNO-TEXT
100
AcDbMText
 10
741.4122057232466
 20
3748.516619300141
 30
0.0
 40
12.5
 41
126.26578125
 46
0.0
 71
     1
 72
     1
  1
Wall underlay
  7
Century Gothic
 73
     2
 44
1.0
1001
REVIT
1002
{
1070
     1
1000
200042
1002
}
1002
{
1070
     5
1000
16489
1002
}
1002
{
1070
     2
1000
-2000300
1002
}
  0
LINE
  5
1DC
330
70
100
AcDbEntity
  8
G-ANNO-TEXT
100
AcDbLine
 10
1100.922694966743
 20
3483.692066331151
 30
0.0
 11
1114.839793013097
 21
3489.626218966143
 31
0.0
1001
REVIT
1002
{
1070
     1
1000
200043
1002
}
1002
{
1070
     5
1000
16489
1002
}
1002
{
1070
     2
1000
-2000300
1002
}
  0
LINE
  5
1DD
330
70
100
AcDbEntity
  8
G-ANNO-TEXT
100
AcDbLine
 10
1114.839793013097
 20
3489.626218966143
 30
0.0
 11
1112.829707678232
 21
3493.026027645387
 31
0.0
1001
REVIT
1002
{
1070
     1
1000
200043
1002
}
1002
{
1070
     5
1000
16489
1002
}
1002
{
1070
     2
1000
-2000300
1002
}
  0
LINE
  5
1DE
330
70
100
AcDbEntity
  8
G-ANNO-TEXT
100
AcDbLine
 10
1112.829707678232
 20
3493.026027645387
 30
0.0
 11
1100.922694966743
 21
3483.692066331151
 31
0.0
1001
REVIT
1002
{
1070
     1
1000
200043
1002
}
1002
{
1070
     5
1000
16489
1002
}
1002
{
1070
     2
1000
-2000300
1002
}
  0
HATCH
  5
1DF
330
70
100
AcDbEntity
  8
G-ANNO-TEXT
100
AcDbHatch
 10
0.0
 20
0.0
 30
0.0
210
0.0
220
0.0
230
1.0
  2
SOLID
 70
     1
 71
     0
 91
        1
 92
        0
 93
        3
 72
     1
 10
1100.922694966743
 20
3483.692066331151
 11
1114.839793013097
 21
3489.626218966143
 72
     1
 10
1114.839793013097
 20
3489.626218966143
 11
1112.829707678232
 21
3493.026027645387
 72
     1
 10
1112.829707678232
 20
3493.026027645387
 11
1100.922694966743
 21
3483.692066331151
 97
        0
 75
     0
 76
     1
 98
        1
 10
0.0
 20
0.0
450
        0
451
        0
460
0.0
461
0.0
452
        0
462
0.0
453
        0
470

1001
REVIT
1002
{
1070
     1
1000
200043
1002
}
1002
{
1070
     5
1000
16489
1002
}
1002
{
1070
     2
1000
-2000300
1002
}
  0
LINE
  5
1E0
330
70
100
AcDbEntity
  8
G-ANNO-TEXT
100
AcDbLine
 10
1206.11761299913
 20
3545.886966688382
 30
0.0
 11
1259.715731311878
 21
3545.88696668838
 31
0.0
1001
REVIT
1002
{
1070
     1
1000
200043
1002
}
1002
{
1070
     5
1000
16489
1002
}
1002
{
1070
     2
1000
-2000300
1002
}
  0
LINE
  5
1E1
330
70
100
AcDbEntity
  8
G-ANNO-TEXT
100
AcDbLine
 10
1100.922694966743
 20
3483.692066331151
 30
0.0
 11
1206.11761299913
 21
3545.886966688382
 31
0.0
1001
REVIT
1002
{
1070
     1
1000
200043
1002
}
1002
{
1070
     5
1000
16489
1002
}
1002
{
1070
     2
1000
-2000300
1002
}
  0
MTEXT
  5
1E2
330
70
100
AcDbEntity
  8
G-ANNO-TEXT
100
AcDbMText
 10
1264.715731311878
 20
3552.136966688379
 30
0.0
 40
12.5
 41
263.7151031250001
 46
0.0
 71
     1
 72
     1
  1
'Cavibat' or similar @600mm 
  7
Century Gothic
 73
     2
 44
1.0
1001
REVIT
1002
{
1070
     1
1000
200043
1002
}
1002
{
1070
     5
1000
16489
1002
}
1002
{
1070
     2
1000
-2000300
1002
}
  0
MTEXT
  5
1E3
330
70
100
AcDbEntity
  8
G-ANNO-TEXT
100
AcDbMText
 10
1264.715731311878
 20
3531.301029188379
 30
0.0
 40
12.5
 41
76.120228125
 46
0.0
 71
     1
 72
     1
  1
crs max.
  7
Century Gothic
 73
     2
 44
1.0
1001
REVIT
1002
{
1070
     1
1000
200043
1002
}
1002
{
1070
     5
1000
16489
1002
}
1002
{
1070
     2
1000
-2000300
1002
}
  0
LINE
  5
1E4
330
70
100
AcDbEntity
  8
G-ANNO-TEXT
100
AcDbLine
 10
1109.950269960285
 20
3476.055537158295
 30
0.0
 11
1124.950269960285
 21
3474.080749694484
 31
0.0
1001
REVIT
1002
{
1070
     1
1000
200044
1002
}
1002
{
1070
     5
1000
16489
1002
}
1002
{
1070
     2
1000
-2000300
1002
}
  0
LINE
  5
1E5
330
70
100
AcDbEntity
  8
G-ANNO-TEXT
100
AcDbLine
 10
1124.950269960285
 20
3474.080749694484
 30
0.0
 11
1124.950269960285
 21
3478.030324622106
 31
0.0
1001
REVIT
1002
{
1070
     1
1000
200044
1002
}
1002
{
1070
     5
1000
16489
1002
}
1002
{
1070
     2
1000
-2000300
1002
}
  0
LINE
  5
1E6
330
70
100
AcDbEntity
  8
G-ANNO-TEXT
100
AcDbLine
 10
1124.950269960285
 20
3478.030324622106
 30
0.0
 11
1109.950269960285
 21
3476.055537158295
 31
0.0
1001
REVIT
1002
{
1070
     1
1000
200044
1002
}
1002
{
1070
     5
1000
16489
1002
}
1002
{
1070
     2
1000
-2000300
1002
}
  0
HATCH
  5
1E7
330
70
100
AcDbEntity
  8
G-ANNO-TEXT
100
AcDbHatch
 10
0.0
 20
0.0
 30
0.0
210
0.0
220
0.0
230
1.0
  2
SOLID
 70
     1
 71
     0
 91
        1
 92
        0
 93
        3
 72
     1
 10
1109.950269960285
 20
3476.055537158295
 11
1124.950269960285
 21
3474.080749694484
 72
     1
 10
1124.950269960285
 20
3474.080749694484
 11
1124.950269960285
 21
3478.030324622106
 72
     1
 10
1124.950269960285
 20
3478.030324622106
 11
1109.950269960285
 21
3476.055537158295
 97
        0
 75
     0
 76
     1
 98
        1
 10
0.0
 20
0.0
450
        0
451
        0
460
0.0
461
0.0
452
        0
462
0.0
453
        0
470

1001
REVIT
1002
{
1070
     1
1000
200044
1002
}
1002
{
1070
     5
1000
16489
1002
}
1002
{
1070
     2
1000
-2000300
1002
}
  0
LINE
  5
1E8
330
70
100
AcDbEntity
  8
G-ANNO-TEXT
100
AcDbLine
 10
1109.950269960285
 20
3476.055537158295
 30
0.0
 11
1259.715731311878
 21
3476.055537158295
 31
0.0
1001
REVIT
1002
{
1070
     1
1000
200044
1002
}
1002
{
1070
     5
1000
16489
1002
}
1002
{
1070
     2
1000
-2000300
1002
}
  0
MTEXT
  5
1E9
330
70
100
AcDbEntity
  8
G-ANNO-TEXT
100
AcDbMText
 10
1264.715731311878
 20
3482.305537158295
 30
0.0
 40
12.5
 41
120.132871875
 46
0.0
 71
     1
 72
     1
  1
Base flashing
  7
Century Gothic
 73
     2
 44
1.0
1001
REVIT
1002
{
1070
     1
1000
200044
1002
}
1002
{
1070
     5
1000
16489
1002
}
1002
{
1070
     2
1000
-2000300
1002
}
  0
LINE
  5
1EA
330
70
100
AcDbEntity
  8
G-ANNO-TEXT
100
AcDbLine
 10
1298.928841940261
 20
3351.346612005214
 30
0.0
 11
1307.763224675133
 21
3363.628853951253
 31
0.0
1001
REVIT
1002
{
1070
     1
1000
200045
1002
}
1002
{
1070
     5
1000
16489
1002
}
1002
{
1070
     2
1000
-2000300
1002
}
  0
LINE
  5
1EB
330
70
100
AcDbEntity
  8
G-ANNO-TEXT
100
AcDbLine
 10
1307.763224675133
 20
3363.628853951253
 30
0.0
 11
1304.283322251004
 21
3365.496853209133
 31
0.0
1001
REVIT
1002
{
1070
     1
1000
200045
1002
}
1002
{
1070
     5
1000
16489
1002
}
1002
{
1070
     2
1000
-2000300
1002
}
  0
LINE
  5
1EC
330
70
100
AcDbEntity
  8
G-ANNO-TEXT
100
AcDbLine
 10
1304.283322251004
 20
3365.496853209133
 30
0.0
 11
1298.928841940261
 21
3351.346612005214
 31
0.0
1001
REVIT
1002
{
1070
     1
1000
200045
1002
}
1002
{
1070
     5
1000
16489
1002
}
1002
{
1070
     2
1000
-2000300
1002
}
  0
HATCH
  5
1ED
330
70
100
AcDbEntity
  8
G-ANNO-TEXT
100
AcDbHatch
 10
0.0
 20
0.0
 30
0.0
210
0.0
220
0.0
230
1.0
  2
SOLID
 70
     1
 71
     0
 91
        1
 92
        0
 93
        3
 72
     1
 10
1298.928841940261
 20
3351.346612005214
 11
1307.763224675133
 21
3363.628853951253
 72
     1
 10
1307.763224675133
 20
3363.628853951253
 11
1304.283322251004
 21
3365.496853209133
 72
     1
 10
1304.283322251004
 20
3365.496853209133
 11
1298.928841940261
 21
3351.346612005214
 97
        0
 75
     0
 76
     1
 98
        1
 10
0.0
 20
0.0
450
        0
451
        0
460
0.0
461
0.0
452
        0
462
0.0
453
        0
470

1001
REVIT
1002
{
1070
     1
1000
200045
1002
}
1002
{
1070
     5
1000
16489
1002
}
1002
{
1070
     2
1000
-2000300
1002
}
  0
LINE
  5
1EE
330
70
100
AcDbEntity
  8
G-ANNO-TEXT
100
AcDbLine
 10
1341.875379715465
 20
3431.351869117256
 30
0.0
 11
1368.51150376341
 21
3431.351869117256
 31
0.0
1001
REVIT
1002
{
1070
     1
1000
200045
1002
}
1002
{
1070
     5
1000
16489
1002
}
1002
{
1070
     2
1000
-2000300
1002
}
  0
LINE
  5
1EF
330
70
100
AcDbEntity
  8
G-ANNO-TEXT
100
AcDbLine
 10
1298.928841940261
 20
3351.346612005214
 30
0.0
 11
1341.875379715465
 21
3431.351869117256
 31
0.0
1001
REVIT
1002
{
1070
     1
1000
200045
1002
}
1002
{
1070
     5
1000
16489
1002
}
1002
{
1070
     2
1000
-2000300
1002
}
  0
MTEXT
  5
1F0
330
70
100
AcDbEntity
  8
G-ANNO-TEXT
100
AcDbMText
 10
1373.51150376341
 20
3437.601869117255
 30
0.0
 40
12.5
 41
259.74675
 46
0.0
 71
     1
 72
     1
  1
Deck membrane up behind 
  7
Century Gothic
 73
     2
 44
1.0
1001
REVIT
1002
{
1070
     1
1000
200045
1002
}
1002
{
1070
     5
1000
16489
1002
}
1002
{
1070
     2
1000
-2000300
1002
}
  0
MTEXT
  5
1F1
330
70
100
AcDbEntity
  8
G-ANNO-TEXT
100
AcDbMText
 10
1373.51150376341
 20
3416.765931617255
 30
0.0
 40
12.5
 41
250.36700625
 46
0.0
 71
     1
 72
     1
  1
wall underlay against solid 
  7
Century Gothic
 73
     2
 44
1.0
1001
REVIT
1002
{
1070
     1
1000
200045
1002
}
1002
{
1070
     5
1000
16489
1002
}
1002
{
1070
     2
1000
-2000300
1002
}
  0
MTEXT
  5
1F2
330
70
100
AcDbEntity
  8
G-ANNO-TEXT
100
AcDbMText
 10
1373.51150376341
 20
3395.929994117255
 30
0.0
 40
12.5
 41
71.43035624999999
 46
0.0
 71
     1
 72
     1
  1
framing
  7
Century Gothic
 73
     2
 44
1.0
1001
REVIT
1002
{
1070
     1
1000
200045
1002
}
1002
{
1070
     5
1000
16489
1002
}
1002
{
1070
     2
1000
-2000300
1002
}
  0
LINE
  5
1F3
330
70
100
AcDbEntity
  8
G-ANNO-TEXT
100
AcDbLine
 10
900.5822057232467
 20
3584.430510036408
 30
0.0
 11
900.3004869732468
 21
3584.430510036408
 31
0.0
1001
REVIT
1002
{
1070
     1
1000
200046
1002
}
1002
{
1070
     5
1000
16489
1002
}
1002
{
1070
     2
1000
-2000300
1002
}
  0
LINE
  5
1F4
330
70
100
AcDbEntity
  8
G-ANNO-TEXT
100
AcDbLine
 10
1038.492932316157
 20
3476.055537158295
 30
0.0
 11
1030.408873825481
 21
3488.8441173706
 31
0.0
1001
REVIT
1002
{
1070
     1
1000
200046
1002
}
1002
{
1070
     5
1000
16489
1002
}
1002
{
1070
     2
1000
-2000300
1002
}
  0
LINE
  5
1F5
330
70
100
AcDbEntity
  8
G-ANNO-TEXT
100
AcDbLine
 10
1030.408873825481
 20
3488.8441173706
 30
0.0
 11
1027.374403320016
 21
3486.31604876782
 31
0.0
1001
REVIT
1002
{
1070
     1
1000
200046
1002
}
1002
{
1070
     5
1000
16489
1002
}
1002
{
1070
     2
1000
-2000300
1002
}
  0
LINE
  5
1F6
330
70
100
AcDbEntity
  8
G-ANNO-TEXT
100
AcDbLine
 10
1027.374403320016
 20
3486.31604876782
 30
0.0
 11
1038.492932316157
 21
3476.055537158295
 31
0.0
1001
REVIT
1002
{
1070
     1
1000
200046
1002
}
1002
{
1070
     5
1000
16489
1002
}
1002
{
1070
     2
1000
-2000300
1002
}
  0
HATCH
  5
1F7
330
70
100
AcDbEntity
  8
G-ANNO-TEXT
100
AcDbHatch
 10
0.0
 20
0.0
 30
0.0
210
0.0
220
0.0
230
1.0
  2
SOLID
 70
     1
 71
     0
 91
        1
 92
        0
 93
        3
 72
     1
 10
1038.492932316157
 20
3476.055537158295
 11
1030.408873825481
 21
3488.8441173706
 72
     1
 10
1030.408873825481
 20
3488.8441173706
 11
1027.374403320016
 21
3486.31604876782
 72
     1
 10
1027.374403320016
 20
3486.31604876782
 11
1038.492932316157
 21
3476.055537158295
 97
        0
 75
     0
 76
     1
 98
        1
 10
0.0
 20
0.0
450
        0
451
        0
460
0.0
461
0.0
452
        0
462
0.0
453
        0
470

1001
REVIT
1002
{
1070
     1
1000
200046
1002
}
1002
{
1070
     5
1000
16489
1002
}
1002
{
1070
     2
1000
-2000300
1002
}
  0
LINE
  5
1F8
330
70
100
AcDbEntity
  8
G-ANNO-TEXT
100
AcDbLine
 10
948.2039129413331
 20
3584.430510036408
 30
0.0
 11
900.5822057232467
 21
3584.430510036408
 31
0.0
1001
REVIT
1002
{
1070
     1
1000
200046
1002
}
1002
{
1070
     5
1000
16489
1002
}
1002
{
1070
     2
1000
-2000300
1002
}
  0
LINE
  5
1F9
330
70
100
AcDbEntity
  8
G-ANNO-TEXT
100
AcDbLine
 10
1038.492932316157
 20
3476.055537158295
 30
0.0
 11
948.2039129413331
 21
3584.430510036408
 31
0.0
1001
REVIT
1002
{
1070
     1
1000
200046
1002
}
1002
{
1070
     5
1000
16489
1002
}
1002
{
1070
     2
1000
-2000300
1002
}
  0
MTEXT
  5
1FA
330
70
100
AcDbEntity
  8
G-ANNO-TEXT
100
AcDbMText
 10
741.4122057232466
 20
3590.680510036408
 30
0.0
 40
12.5
 41
186.5125968749999
 46
0.0
 71
     1
 72
     1
  1
Timber nog for fixing
  7
Century Gothic
 73
     2
 44
1.0
1001
REVIT
1002
{
1070
     1
1000
200046
1002
}
1002
{
1070
     5
1000
16489
1002
}
1002
{
1070
     2
1000
-2000300
1002
}
  0
LINE
  5
1FB
330
70
100
AcDbEntity
  8
G-ANNO-TEXT
100
AcDbLine
 10
1135.442547279433
 20
3646.975812755732
 30
0.0
 11
1150.442547279433
 21
3645.00102529192
 31
0.0
1001
REVIT
1002
{
1070
     1
1000
200061
1002
}
1002
{
1070
     5
1000
16489
1002
}
1002
{
1070
     2
1000
-2000300
1002
}
  0
LINE
  5
1FC
330
70
100
AcDbEntity
  8
G-ANNO-TEXT
100
AcDbLine
 10
1150.442547279433
 20
3645.00102529192
 30
0.0
 11
1150.442547279433
 21
3648.950600219542
 31
0.0
1001
REVIT
1002
{
1070
     1
1000
200061
1002
}
1002
{
1070
     5
1000
16489
1002
}
1002
{
1070
     2
1000
-2000300
1002
}
  0
LINE
  5
1FD
330
70
100
AcDbEntity
  8
G-ANNO-TEXT
100
AcDbLine
 10
1150.442547279433
 20
3648.950600219542
 30
0.0
 11
1135.442547279433
 21
3646.975812755732
 31
0.0
1001
REVIT
1002
{
1070
     1
1000
200061
1002
}
1002
{
1070
     5
1000
16489
1002
}
1002
{
1070
     2
1000
-2000300
1002
}
  0
HATCH
  5
1FE
330
70
100
AcDbEntity
  8
G-ANNO-TEXT
100
AcDbHatch
 10
0.0
 20
0.0
 30
0.0
210
0.0
220
0.0
230
1.0
  2
SOLID
 70
     1
 71
     0
 91
        1
 92
        0
 93
        3
 72
     1
 10
1135.442547279433
 20
3646.975812755732
 11
1150.442547279433
 21
3645.00102529192
 72
     1
 10
1150.442547279433
 20
3645.00102529192
 11
1150.442547279433
 21
3648.950600219542
 72
     1
 10
1150.442547279433
 20
3648.950600219542
 11
1135.442547279433
 21
3646.975812755732
 97
        0
 75
     0
 76
     1
 98
        1
 10
0.0
 20
0.0
450
        0
451
        0
460
0.0
461
0.0
452
        0
462
0.0
453
        0
470

1001
REVIT
1002
{
1070
     1
1000
200061
1002
}
1002
{
1070
     5
1000
16489
1002
}
1002
{
1070
     2
1000
-2000300
1002
}
  0
LINE
  5
1FF
330
70
100
AcDbEntity
  8
G-ANNO-TEXT
100
AcDbLine
 10
1135.442547279433
 20
3646.975812755732
 30
0.0
 11
1259.715731311878
 21
3646.975812755729
 31
0.0
1001
REVIT
1002
{
1070
     1
1000
200061
1002
}
1002
{
1070
     5
1000
16489
1002
}
1002
{
1070
     2
1000
-2000300
1002
}
  0
MTEXT
  5
200
330
70
100
AcDbEntity
  8
G-ANNO-TEXT
100
AcDbMText
 10
1264.715731311878
 20
3653.225812755728
 30
0.0
 40
12.5
 41
312.41761875
 46
0.0
 71
     1
 72
     1
  1
TRS Interlocking Vertical Cladding
  7
Century Gothic
 73
     2
 44
1.0
1001
REVIT
1002
{
1070
     1
1000
200061
1002
}
1002
{
1070
     5
1000
16489
1002
}
1002
{
1070
     2
1000
-2000300
1002
}
  0
LINE
  5
201
330
70
100
AcDbEntity
  8
G-ANNO-TEXT
100
AcDbLine
 10
1248.919045159914
 20
3306.650531995075
 30
0.0
 11
1260.11968351706
 21
3296.479716594152
 31
0.0
1001
REVIT
1002
{
1070
     1
1000
200083
1002
}
1002
{
1070
     5
1000
16489
1002
}
1002
{
1070
     2
1000
-2000300
1002
}
  0
LINE
  5
202
330
70
100
AcDbEntity
  8
G-ANNO-TEXT
100
AcDbLine
 10
1260.11968351706
 20
3296.479716594152
 30
0.0
 11
1262.370431749986
 21
3299.72521724904
 31
0.0
1001
REVIT
1002
{
1070
     1
1000
200083
1002
}
1002
{
1070
     5
1000
16489
1002
}
1002
{
1070
     2
1000
-2000300
1002
}
  0
LINE
  5
203
330
70
100
AcDbEntity
  8
G-ANNO-TEXT
100
AcDbLine
 10
1262.370431749986
 20
3299.72521724904
 30
0.0
 11
1248.919045159914
 21
3306.650531995075
 31
0.0
1001
REVIT
1002
{
1070
     1
1000
200083
1002
}
1002
{
1070
     5
1000
16489
1002
}
1002
{
1070
     2
1000
-2000300
1002
}
  0
HATCH
  5
204
330
70
100
AcDbEntity
  8
G-ANNO-TEXT
100
AcDbHatch
 10
0.0
 20
0.0
 30
0.0
210
0.0
220
0.0
230
1.0
  2
SOLID
 70
     1
 71
     0
 91
        1
 92
        0
 93
        3
 72
     1
 10
1248.919045159914
 20
3306.650531995075
 11
1260.11968351706
 21
3296.479716594152
 72
     1
 10
1260.11968351706
 20
3296.479716594152
 11
1262.370431749986
 21
3299.72521724904
 72
     1
 10
1262.370431749986
 20
3299.72521724904
 11
1248.919045159914
 21
3306.650531995075
 97
        0
 75
     0
 76
     1
 98
        1
 10
0.0
 20
0.0
450
        0
451
        0
460
0.0
461
0.0
452
        0
462
0.0
453
        0
470

1001
REVIT
1002
{
1070
     1
1000
200083
1002
}
1002
{
1070
     5
1000
16489
1002
}
1002
{
1070
     2
1000
-2000300
1002
}
  0
LINE
  5
205
330
70
100
AcDbEntity
  8
G-ANNO-TEXT
100
AcDbLine
 10
1352.809932889779
 20
3234.602408503575
 30
0.0
 11
1368.51150376341
 21
3234.602408503575
 31
0.0
1001
REVIT
1002
{
1070
     1
1000
200083
1002
}
1002
{
1070
     5
1000
16489
1002
}
1002
{
1070
     2
1000
-2000300
1002
}
  0
LINE
  5
206
330
70
100
AcDbEntity
  8
G-ANNO-TEXT
100
AcDbLine
 10
1248.919045159914
 20
3306.650531995075
 30
0.0
 11
1352.809932889779
 21
3234.602408503575
 31
0.0
1001
REVIT
1002
{
1070
     1
1000
200083
1002
}
1002
{
1070
     5
1000
16489
1002
}
1002
{
1070
     2
1000
-2000300
1002
}
  0
MTEXT
  5
207
330
70
100
AcDbEntity
  8
G-ANNO-TEXT
100
AcDbMText
 10
1373.51150376341
 20
3240.852408503575
 30
0.0
 40
12.5
 41
133.48096875
 46
0.0
 71
     1
 72
     1
  1
Deck structure
  7
Century Gothic
 73
     2
 44
1.0
1001
REVIT
1002
{
1070
     1
1000
200083
1002
}
1002
{
1070
     5
1000
16489
1002
}
1002
{
1070
     2
1000
-2000300
1002
}
  0
LINE
  5
208
330
70
100
AcDbEntity
  8
G-ANNO-TEXT
100
AcDbLine
 10
1087.094115546252
 20
3497.915685229776
 30
0.0
 11
1098.931608820086
 21
3507.337656282541
 31
0.0
1001
REVIT
1002
{
1070
     1
1000
200084
1002
}
1002
{
1070
     5
1000
16489
1002
}
1002
{
1070
     2
1000
-2000300
1002
}
  0
LINE
  5
209
330
70
100
AcDbEntity
  8
G-ANNO-TEXT
100
AcDbLine
 10
1098.931608820086
 20
3507.337656282541
 30
0.0
 11
1096.089670467111
 21
3510.080379109731
 31
0.0
1001
REVIT
1002
{
1070
     1
1000
200084
1002
}
1002
{
1070
     5
1000
16489
1002
}
1002
{
1070
     2
1000
-2000300
1002
}
  0
LINE
  5
20A
330
70
100
AcDbEntity
  8
G-ANNO-TEXT
100
AcDbLine
 10
1096.089670467111
 20
3510.080379109731
 30
0.0
 11
1087.094115546252
 21
3497.915685229776
 31
0.0
1001
REVIT
1002
{
1070
     1
1000
200084
1002
}
1002
{
1070
     5
1000
16489
1002
}
1002
{
1070
     2
1000
-2000300
1002
}
  0
HATCH
  5
20B
330
70
100
AcDbEntity
  8
G-ANNO-TEXT
100
AcDbHatch
 10
0.0
 20
0.0
 30
0.0
210
0.0
220
0.0
230
1.0
  2
SOLID
 70
     1
 71
     0
 91
        1
 92
        0
 93
        3
 72
     1
 10
1087.094115546252
 20
3497.915685229776
 11
1098.931608820086
 21
3507.337656282541
 72
     1
 10
1098.931608820086
 20
3507.337656282541
 11
1096.089670467111
 21
3510.080379109731
 72
     1
 10
1096.089670467111
 20
3510.080379109731
 11
1087.094115546252
 21
3497.915685229776
 97
        0
 75
     0
 76
     1
 98
        1
 10
0.0
 20
0.0
450
        0
451
        0
460
0.0
461
0.0
452
        0
462
0.0
453
        0
470

1001
REVIT
1002
{
1070
     1
1000
200084
1002
}
1002
{
1070
     5
1000
16489
1002
}
1002
{
1070
     2
1000
-2000300
1002
}
  0
LINE
  5
20C
330
70
100
AcDbEntity
  8
G-ANNO-TEXT
100
AcDbLine
 10
1182.433437492922
 20
3596.703821202107
 30
0.0
 11
1259.715731311878
 21
3596.703821202107
 31
0.0
1001
REVIT
1002
{
1070
     1
1000
200084
1002
}
1002
{
1070
     5
1000
16489
1002
}
1002
{
1070
     2
1000
-2000300
1002
}
  0
LINE
  5
20D
330
70
100
AcDbEntity
  8
G-ANNO-TEXT
100
AcDbLine
 10
1087.094115546252
 20
3497.915685229776
 30
0.0
 11
1182.433437492922
 21
3596.703821202107
 31
0.0
1001
REVIT
1002
{
1070
     1
1000
200084
1002
}
1002
{
1070
     5
1000
16489
1002
}
1002
{
1070
     2
1000
-2000300
1002
}
  0
MTEXT
  5
20E
330
70
100
AcDbEntity
  8
G-ANNO-TEXT
100
AcDbMText
 10
1264.715731311878
 20
3602.953821202107
 30
0.0
 40
12.5
 41
170.99994375
 46
0.0
 71
     1
 72
     1
  1
Cavity base closer
  7
Century Gothic
 73
     2
 44
1.0
1001
REVIT
1002
{
1070
     1
1000
200084
1002
}
1002
{
1070
     5
1000
16489
1002
}
1002
{
1070
     2
1000
-2000300
1002
}
  0
DIMENSION
  5
224
330
70
100
AcDbEntity
  8
A-ANNO-DIMS
100
AcDbDimension
280
     0
  2
DIMBLOCK1-W-TRSIL-14A - Membrane Deck to Wall Junction Detail
 10
1171.197859154633
 20
3406.139881201165
 30
0.0
 11
1219.462569451302
 21
3374.778747624501
 31
0.0
 70
   160
  1
35 min.
 72
     2
 41
0.9845015114479526
 42
57.58914462720667
 73
     0
 74
     0
 75
     0
  3
01_-_Diagonal_Horizontal
100
AcDbAlignedDimension
 13
1156.197859154632
 23
3348.550736573957
 33
0.0
 14
1156.197859154632
 24
3406.139881201163
 34
0.0
 50
89.99999999999991
100
AcDbRotatedDimension
1001
ACAD
1000
DSTYLE
1002
{
1070
    74
1070
     1
1070
    73
1070
     1
1070
    49
1040
57.58914462720667
1002
}
1001
REVIT
1002
{
1070
     1
1000
200085
1002
}
1002
{
1070
     5
1000
16493
1002
}
1002
{
1070
     2
1000
-2000260
1002
}
  0
DIMENSION
  5
23F
330
70
100
AcDbEntity
  8
A-ANNO-DIMS
100
AcDbDimension
280
     0
  2
DIMBLOCK2-W-TRSIL-14A - Membrane Deck to Wall Junction Detail
 10
1171.198145012023
 20
3428.260507488966
 30
0.0
 11
1258.206991708244
 21
3414.633633082005
 31
0.0
 70
   160
  1
10mm drip edge
 72
     2
 41
0.9845015114479526
 42
22.12062628780086
 73
     0
 74
     0
 75
     0
  3
01_-_Diagonal_Horizontal
100
AcDbAlignedDimension
 13
1156.198145012023
 23
3406.139881201163
 33
0.0
 14
1156.198145012023
 24
3428.260507488964
 34
0.0
 50
89.99999999999991
100
AcDbRotatedDimension
1001
ACAD
1000
DSTYLE
1002
{
1070
    74
1070
     1
1070
    73
1070
     1
1070
    49
1040
22.12062628780086
1002
}
1001
REVIT
1002
{
1070
     1
1000
200086
1002
}
1002
{
1070
     5
1000
16493
1002
}
1002
{
1070
     2
1000
-2000260
1002
}
  0
LINE
  5
24C
330
70
100
AcDbEntity
  8
G-ANNO-TEXT
100
AcDbLine
 10
832.4522057232467
 20
3330.488625822908
 30
0.0
 11
832.1372057232469
 21
3330.488625822908
 31
0.0
1001
REVIT
1002
{
1070
     1
1000
200087
1002
}
1002
{
1070
     5
1000
16489
1002
}
1002
{
1070
     2
1000
-2000300
1002
}
  0
LINE
  5
24D
330
70
100
AcDbEntity
  8
G-ANNO-TEXT
100
AcDbLine
 10
1082.896375211497
 20
3362.560304732551
 30
0.0
 11
1067.875432788824
 21
3360.75169359083
 31
0.0
1001
REVIT
1002
{
1070
     1
1000
200087
1002
}
1002
{
1070
     5
1000
16489
1002
}
1002
{
1070
     2
1000
-2000300
1002
}
  0
LINE
  5
24E
330
70
100
AcDbEntity
  8
G-ANNO-TEXT
100
AcDbLine
 10
1067.875432788824
 20
3360.75169359083
 30
0.0
 11
1068.855361998898
 21
3356.925614546673
 31
0.0
1001
REVIT
1002
{
1070
     1
1000
200087
1002
}
1002
{
1070
     5
1000
16489
1002
}
1002
{
1070
     2
1000
-2000300
1002
}
  0
LINE
  5
24F
330
70
100
AcDbEntity
  8
G-ANNO-TEXT
100
AcDbLine
 10
1068.855361998898
 20
3356.925614546673
 30
0.0
 11
1082.896375211497
 21
3362.560304732551
 31
0.0
1001
REVIT
1002
{
1070
     1
1000
200087
1002
}
1002
{
1070
     5
1000
16489
1002
}
1002
{
1070
     2
1000
-2000300
1002
}
  0
HATCH
  5
250
330
70
100
AcDbEntity
  8
G-ANNO-TEXT
100
AcDbHatch
 10
0.0
 20
0.0
 30
0.0
210
0.0
220
0.0
230
1.0
  2
SOLID
 70
     1
 71
     0
 91
        1
 92
        0
 93
        3
 72
     1
 10
1082.896375211497
 20
3362.560304732551
 11
1067.875432788824
 21
3360.75169359083
 72
     1
 10
1067.875432788824
 20
3360.75169359083
 11
1068.855361998898
 21
3356.925614546673
 72
     1
 10
1068.855361998898
 20
3356.925614546673
 11
1082.896375211497
 21
3362.560304732551
 97
        0
 75
     0
 76
     1
 98
        1
 10
0.0
 20
0.0
450
        0
451
        0
460
0.0
461
0.0
452
        0
462
0.0
453
        0
470

1001
REVIT
1002
{
1070
     1
1000
200087
1002
}
1002
{
1070
     5
1000
16489
1002
}
1002
{
1070
     2
1000
-2000300
1002
}
  0
LINE
  5
251
330
70
100
AcDbEntity
  8
G-ANNO-TEXT
100
AcDbLine
 10
957.674290467372
 20
3330.488625822908
 30
0.0
 11
832.4522057232467
 21
3330.488625822908
 31
0.0
1001
REVIT
1002
{
1070
     1
1000
200087
1002
}
1002
{
1070
     5
1000
16489
1002
}
1002
{
1070
     2
1000
-2000300
1002
}
  0
LINE
  5
252
330
70
100
AcDbEntity
  8
G-ANNO-TEXT
100
AcDbLine
 10
1082.896375211497
 20
3362.560304732551
 30
0.0
 11
957.674290467372
 21
3330.488625822908
 31
0.0
1001
REVIT
1002
{
1070
     1
1000
200087
1002
}
1002
{
1070
     5
1000
16489
1002
}
1002
{
1070
     2
1000
-2000300
1002
}
  0
MTEXT
  5
253
330
70
100
AcDbEntity
  8
G-ANNO-TEXT
100
AcDbMText
 10
741.4122057232466
 20
3336.738625822909
 30
0.0
 40
12.5
 41
103.8987
 46
0.0
 71
     1
 72
     1
  1
Timber fillet
  7
Century Gothic
 73
     2
 44
1.0
1001
REVIT
1002
{
1070
     1
1000
200087
1002
}
1002
{
1070
     5
1000
16489
1002
}
1002
{
1070
     2
1000
-2000300
1002
}
  0
DIMENSION
  5
262
330
70
100
AcDbEntity
  8
A-ANNO-DIMS
100
AcDbDimension
280
     0
  2
DIMBLOCK3-W-TRSIL-14A - Membrane Deck to Wall Junction Detail
 10
939.6949192474259
 20
3533.41382766923
 30
0.0
 11
928.0115405440438
 21
3440.982282121594
 31
0.0
 70
    32
  1
150mm min.
 71
     5
 42
184.8630910952715
 73
     0
 74
     0
 75
     0
  3
01_-_Diagonal
100
AcDbAlignedDimension
 13
964.214508842223
 23
3348.550736573957
 33
0.0
 14
964.214508842223
 24
3533.413827669229
 34
0.0
 50
89.99999999999991
100
AcDbRotatedDimension
1001
ACAD
1000
DSTYLE
1002
{
1070
    49
1040
184.8630910952715
1002
}
1001
REVIT
1002
{
1070
     1
1000
200088
1002
}
1002
{
1070
     5
1000
17724
1002
}
1002
{
1070
     2
1000
-2000260
1002
}
  0
LINE
  5
26F
330
70
100
AcDbEntity
  8
G-ANNO-TEXT
100
AcDbLine
 10
853.8722057232467
 20
3262.810378171578
 30
0.0
 11
853.5684557232469
 21
3262.810378171578
 31
0.0
1001
REVIT
1002
{
1070
     1
1000
200738
1002
}
1002
{
1070
     5
1000
16489
1002
}
1002
{
1070
     2
1000
-2000300
1002
}
  0
LINE
  5
270
330
70
100
AcDbEntity
  8
G-ANNO-TEXT
100
AcDbLine
 10
991.1538347212115
 20
3301.83050013813
 30
0.0
 11
976.6539132433388
 21
3297.511696754929
 31
0.0
1001
REVIT
1002
{
1070
     1
1000
200738
1002
}
1002
{
1070
     5
1000
16489
1002
}
1002
{
1070
     2
1000
-2000300
1002
}
  0
LINE
  5
271
330
70
100
AcDbEntity
  8
G-ANNO-TEXT
100
AcDbLine
 10
976.6539132433388
 20
3297.511696754929
 30
0.0
 11
978.2657746541962
 21
3293.906000580667
 31
0.0
1001
REVIT
1002
{
1070
     1
1000
200738
1002
}
1002
{
1070
     5
1000
16489
1002
}
1002
{
1070
     2
1000
-2000300
1002
}
  0
LINE
  5
272
330
70
100
AcDbEntity
  8
G-ANNO-TEXT
100
AcDbLine
 10
978.2657746541962
 20
3293.906000580667
 30
0.0
 11
991.1538347212115
 21
3301.83050013813
 31
0.0
1001
REVIT
1002
{
1070
     1
1000
200738
1002
}
1002
{
1070
     5
1000
16489
1002
}
1002
{
1070
     2
1000
-2000300
1002
}
  0
HATCH
  5
273
330
70
100
AcDbEntity
  8
G-ANNO-TEXT
100
AcDbHatch
 10
0.0
 20
0.0
 30
0.0
210
0.0
220
0.0
230
1.0
  2
SOLID
 70
     1
 71
     0
 91
        1
 92
        0
 93
        3
 72
     1
 10
991.1538347212115
 20
3301.83050013813
 11
976.6539132433388
 21
3297.511696754929
 72
     1
 10
976.6539132433388
 20
3297.511696754929
 11
978.2657746541962
 21
3293.906000580667
 72
     1
 10
978.2657746541962
 20
3293.906000580667
 11
991.1538347212115
 21
3301.83050013813
 97
        0
 75
     0
 76
     1
 98
        1
 10
0.0
 20
0.0
450
        0
451
        0
460
0.0
461
0.0
452
        0
462
0.0
453
        0
470

1001
REVIT
1002
{
1070
     1
1000
200738
1002
}
1002
{
1070
     5
1000
16489
1002
}
1002
{
1070
     2
1000
-2000300
1002
}
  0
LINE
  5
274
330
70
100
AcDbEntity
  8
G-ANNO-TEXT
100
AcDbLine
 10
903.8667369928914
 20
3262.810378171578
 30
0.0
 11
853.8722057232467
 21
3262.810378171578
 31
0.0
1001
REVIT
1002
{
1070
     1
1000
200738
1002
}
1002
{
1070
     5
1000
16489
1002
}
1002
{
1070
     2
1000
-2000300
1002
}
  0
LINE
  5
275
330
70
100
AcDbEntity
  8
G-ANNO-TEXT
100
AcDbLine
 10
991.1538347212115
 20
3301.83050013813
 30
0.0
 11
903.8667369928914
 21
3262.810378171578
 31
0.0
1001
REVIT
1002
{
1070
     1
1000
200738
1002
}
1002
{
1070
     5
1000
16489
1002
}
1002
{
1070
     2
1000
-2000300
1002
}
  0
MTEXT
  5
276
330
70
100
AcDbEntity
  8
G-ANNO-TEXT
100
AcDbMText
 10
741.4122057232466
 20
3269.060378171577
 30
0.0
 40
12.5
 41
129.873375
 46
0.0
 71
     1
 72
     1
  1
Floor structure
  7
Century Gothic
 73
     2
 44
1.0
1001
REVIT
1002
{
1070
     1
1000
200738
1002
}
1002
{
1070
     5
1000
16489
1002
}
1002
{
1070
     2
1000
-2000300
1002
}
  0
LINE
  5
277
330
70
100
AcDbEntity
  8
G-ANNO-TEXT
100
AcDbLine
 10
1109.661926912107
 20
3721.607829068115
 30
0.0
 11
1124.661926912106
 21
3719.633041604303
 31
0.0
1001
REVIT
1002
{
1070
     1
1000
200969
1002
}
1002
{
1070
     5
1000
16489
1002
}
1002
{
1070
     2
1000
-2000300
1002
}
  0
LINE
  5
278
330
70
100
AcDbEntity
  8
G-ANNO-TEXT
100
AcDbLine
 10
1124.661926912106
 20
3719.633041604303
 30
0.0
 11
1124.661926912106
 21
3723.582616531925
 31
0.0
1001
REVIT
1002
{
1070
     1
1000
200969
1002
}
1002
{
1070
     5
1000
16489
1002
}
1002
{
1070
     2
1000
-2000300
1002
}
  0
LINE
  5
279
330
70
100
AcDbEntity
  8
G-ANNO-TEXT
100
AcDbLine
 10
1124.661926912106
 20
3723.582616531925
 30
0.0
 11
1109.661926912107
 21
3721.607829068115
 31
0.0
1001
REVIT
1002
{
1070
     1
1000
200969
1002
}
1002
{
1070
     5
1000
16489
1002
}
1002
{
1070
     2
1000
-2000300
1002
}
  0
HATCH
  5
27A
330
70
100
AcDbEntity
  8
G-ANNO-TEXT
100
AcDbHatch
 10
0.0
 20
0.0
 30
0.0
210
0.0
220
0.0
230
1.0
  2
SOLID
 70
     1
 71
     0
 91
        1
 92
        0
 93
        3
 72
     1
 10
1109.661926912107
 20
3721.607829068115
 11
1124.661926912106
 21
3719.633041604303
 72
     1
 10
1124.661926912106
 20
3719.633041604303
 11
1124.661926912106
 21
3723.582616531925
 72
     1
 10
1124.661926912106
 20
3723.582616531925
 11
1109.661926912107
 21
3721.607829068115
 97
        0
 75
     0
 76
     1
 98
        1
 10
0.0
 20
0.0
450
        0
451
        0
460
0.0
461
0.0
452
        0
462
0.0
453
        0
470

1001
REVIT
1002
{
1070
     1
1000
200969
1002
}
1002
{
1070
     5
1000
16489
1002
}
1002
{
1070
     2
1000
-2000300
1002
}
  0
LINE
  5
27B
330
70
100
AcDbEntity
  8
G-ANNO-TEXT
100
AcDbLine
 10
1109.661926912107
 20
3721.607829068115
 30
0.0
 11
1259.715731311878
 21
3721.607829068114
 31
0.0
1001
REVIT
1002
{
1070
     1
1000
200969
1002
}
1002
{
1070
     5
1000
16489
1002
}
1002
{
1070
     2
1000
-2000300
1002
}
  0
MTEXT
  5
27C
330
70
100
AcDbEntity
  8
G-ANNO-TEXT
100
AcDbMText
 10
1264.715731311878
 20
3727.857829068113
 30
0.0
 40
12.5
 41
304.4809125
 46
0.0
 71
     1
 72
     1
  1
Wall underlay to separate metal 
  7
Century Gothic
 73
     2
 44
1.0
1001
REVIT
1002
{
1070
     1
1000
200969
1002
}
1002
{
1070
     5
1000
16489
1002
}
1002
{
1070
     2
1000
-2000300
1002
}
  0
MTEXT
  5
27D
330
70
100
AcDbEntity
  8
G-ANNO-TEXT
100
AcDbMText
 10
1264.715731311878
 20
3707.021891568113
 30
0.0
 40
12.5
 41
314.942934375
 46
0.0
 71
     1
 72
     1
  1
flashing and cladding with batten
  7
Century Gothic
 73
     2
 44
1.0
1001
REVIT
1002
{
1070
     1
1000
200969
1002
}
1002
{
1070
     5
1000
16489
1002
}
1002
{
1070
     2
1000
-2000300
1002
}
  0
VIEWPORT
  5
27F
330
6C
100
AcDbEntity
 67
     1
  8
G-ANNO-NPLT
100
AcDbViewport
 10
149.3619431713141
 20
114.4897884568993
 30
0.0
 40
171.2679522902086
 41
143.0648582961735
 68
    -1
 69
     2
 12
1164.582086448768
 22
3505.399349981607
 13
0.0
 23
0.0
 14
0.0
 24
0.0
 15
0.0
 25
0.0
 16
0.0
 26
0.0
 36
1.0
 17
0.0
 27
0.0
 37
0.0
 42
0.0
 43
0.0
 44
0.0
 45
715.3242914808677
 50
0.0
 51
0.0
 72
  1000
 90
    32768
  1

281
     0
 71
     1
 74
     1
110
0.0
120
0.0
130
0.0
111
1.0
121
0.0
131
0.0
112
0.0
122
1.0
132
0.0
 79
     0
146
0.0
170
     0
 61
     5
292
     1
282
     1
141
0.0
142
0.0
 63
   250
421
  3355443
  0
VIEWPORT
  5
281
330
6C
100
AcDbEntity
 67
     1
  8
0
100
AcDbViewport
 10
6.0
 20
4.5
 30
0.0
 40
12.0
 41
9.0
 68
    -1
 69
     1
 12
6.0
 22
4.5
 13
0.0
 23
0.0
 14
0.0
 24
0.0
 15
0.0
 25
0.0
 16
0.0
 26
0.0
 36
1.0
 17
0.0
 27
0.0
 37
0.0
 42
50.0
 43
0.0
 44
0.0
 45
12.0
 50
0.0
 51
0.0
 72
   100
 90
    32800
  1

281
     0
 71
     1
 74
     1
110
0.0
120
0.0
130
0.0
111
1.0
121
0.0
131
0.0
112
0.0
122
1.0
132
0.0
 79
     0
146
0.0
170
     0
 61
     5
292
     1
282
     1
141
0.0
142
0.0
 63
   250
421
  3355443
  0
INSERT
  5
2B2
330
6C
100
AcDbEntity
 67
     1
  8
G-ANNO-TTLB
100
AcDbBlockReference
  2
Titleblock A4 The roofing store - Titleblock A4 The roofing store-2694-Membrane Deck _ Wall Jnc_ Detail
 10
0.0
 20
0.0
 30
0.0
1001
REVIT
1002
{
1070
     1
1000
201018
1002
}
1002
{
1070
     5
1000
2694
1002
}
1002
{
1070
     2
1000
-2000280
1002
}
  0
MTEXT
  5
2B4
330
6C
100
AcDbEntity
 67
     1
  8
G-ANNO-TTLB
100
AcDbMText
 10
254.9545146630469
 20
12.52446433240663
 30
0.0
 40
4.0
 41
40.98226499999999
 46
0.0
 71
     1
 72
     1
  1
W-TRSIL-14A-V
  7
Century Gothic_2
 73
     2
 44
1.0
1001
REVIT
1002
{
1070
     1
1000
201018
1002
}
1002
{
1070
     5
1000
2694
1002
}
1002
{
1070
     2
1000
-2000280
1002
}
  0
MTEXT
  5
2B6
330
6C
100
AcDbEntity
 67
     1
  8
G-ANNO-TTLB
100
AcDbMText
 10
76.05126760874208
 20
10.95227683240663
 30
0.0
 40
3.5
 41
91.92148875
 46
0.0
 71
     1
 72
     1
  1
Membrane Deck & Wall Jnc. Detail
  7
Century Gothic_3
 73
     2
 44
1.0
1001
REVIT
1002
{
1070
     1
1000
201018
1002
}
1002
{
1070
     5
1000
2694
1002
}
1002
{
1070
     2
1000
-2000280
1002
}
  0
MTEXT
  5
2B7
330
6C
100
AcDbEntity
 67
     1
  8
G-ANNO-TTLB
100
AcDbMText
 10
271.6845146630469
 20
20.51531106318182
 30
0.0
 40
1.8
 41
22.2227775
 46
0.0
 71
     1
 72
     1
  1
Date: 10/11/2020
  7
Century Gothic_1
 73
     2
 44
1.0
1001
REVIT
1002
{
1070
     1
1000
201018
1002
}
1002
{
1070
     5
1000
2694
1002
}
1002
{
1070
     2
1000
-2000280
1002
}
  0
MTEXT
  5
2B9
330
6C
100
AcDbEntity
 67
     1
  8
G-ANNO-TTLB
100
AcDbMText
 10
75.81756651341409
 20
19.95645689651516
 30
0.0
 40
4.999999999999999
 41
63.814325
 46
0.0
 71
     1
 72
     1
  1
TRS Interlocking
  7
Century Gothic_4
 73
     2
 44
1.0
1001
REVIT
1002
{
1070
     1
1000
201018
1002
}
1002
{
1070
     5
1000
2694
1002
}
1002
{
1070
     2
1000
-2000280
1002
}
  0
ENDSEC
  0
SECTION
  2
OBJECTS
  0
DICTIONARY
  5
C
330
0
100
AcDbDictionary
281
     1
  3
ACAD_CIP_PREVIOUS_PRODUCT_INFO
350
79
  3
ACAD_COLOR
350
63
  3
ACAD_DETAILVIEWSTYLE
350
6A
  3
ACAD_GROUP
350
D
  3
ACAD_IMAGE_DICT
350
286
  3
ACAD_IMAGE_VARS
350
7A
  3
ACAD_LAYOUT
350
62
  3
ACAD_MATERIAL
350
10
  3
ACAD_MLEADERSTYLE
350
66
  3
ACAD_MLINESTYLE
350
5F
  3
ACAD_PLOTSETTINGS
350
61
  3
ACAD_PLOTSTYLENAME
350
E
  3
ACAD_SCALELIST
350
42
  3
ACAD_SECTIONVIEWSTYLE
350
68
  3
ACAD_TABLESTYLE
350
64
  3
ACAD_VISUALSTYLE
350
29
  3
ACDB_RECOMPOSE_DATA
350
2C3
  3
AcDbVariableDictionary
350
7B
  3
REVIT_DICTIONARY
350
2BA
  0
DICTIONARY
  5
2BF
330
70
100
AcDbDictionary
280
     1
281
     1
  3
ACAD_SORTENTS
360
2C0
  0
IMAGEDEF_REACTOR
  5
289
330
288
100
AcDbRasterImageDefReactor
 90
        2
330
288
  0
XRECORD
  5
79
102
{ACAD_REACTORS
330
C
102
}
330
C
100
AcDbXrecord
280
     1
300
RVT
300
2019
300
RVT2019
  0
DICTIONARY
  5
63
102
{ACAD_REACTORS
330
C
102
}
330
C
100
AcDbDictionary
281
     1
  0
DICTIONARY
  5
6A
102
{ACAD_REACTORS
330
C
102
}
330
C
100
AcDbDictionary
281
     1
  3
Imperial24
350
6B
  0
DICTIONARY
  5
D
102
{ACAD_REACTORS
330
C
102
}
330
C
100
AcDbDictionary
281
     1
  0
DICTIONARY
  5
286
102
{ACAD_REACTORS
330
C
102
}
330
C
100
AcDbDictionary
281
     1
  3
TRSInterlockingCladdingDetails-TheRoofingStore_w-107754
350
287
  0
RASTERVARIABLES
  5
7A
102
{ACAD_REACTORS
330
C
102
}
330
C
100
AcDbRasterVariables
 90
        0
 70
     0
 71
     1
 72
     1
  0
DICTIONARY
  5
62
102
{ACAD_REACTORS
330
C
102
}
330
C
100
AcDbDictionary
281
     1
  3
Layout1
350
6F
  3
Layout2
350
77
  3
Model
350
73
  0
DICTIONARY
  5
10
102
{ACAD_REACTORS
330
C
102
}
330
C
100
AcDbDictionary
281
     1
  3
ByBlock
350
19
  3
ByLayer
350
11
  3
Global
350
21
  0
DICTIONARY
  5
66
102
{ACAD_REACTORS
330
C
102
}
330
C
100
AcDbDictionary
281
     1
  3
Standard
350
67
  0
DICTIONARY
  5
5F
102
{ACAD_REACTORS
330
C
102
}
330
C
100
AcDbDictionary
281
     1
  3
Standard
350
60
  0
DICTIONARY
  5
61
102
{ACAD_REACTORS
330
C
102
}
330
C
100
AcDbDictionary
281
     1
  0
ACDBDICTIONARYWDFLT
  5
E
102
{ACAD_REACTORS
330
C
102
}
330
C
100
AcDbDictionary
281
     1
  3
Normal
350
F
100
AcDbDictionaryWithDefault
340
F
  0
DICTIONARY
  5
42
102
{ACAD_REACTORS
330
C
102
}
330
C
100
AcDbDictionary
281
     1
  3
A0
350
43
  3
A1
350
44
  3
A2
350
45
  3
A3
350
46
  3
A4
350
47
  3
A5
350
48
  3
A6
350
49
  3
A7
350
4A
  3
A8
350
4B
  3
A9
350
4C
  3
B0
350
4D
  3
B1
350
4E
  3
B2
350
4F
  3
B3
350
50
  3
B4
350
51
  3
B5
350
52
  3
B6
350
53
  0
DICTIONARY
  5
68
102
{ACAD_REACTORS
330
C
102
}
330
C
100
AcDbDictionary
281
     1
  3
Imperial24
350
69
  0
DICTIONARY
  5
64
102
{ACAD_REACTORS
330
C
102
}
330
C
100
AcDbDictionary
281
     1
  3
Standard
350
65
  0
DICTIONARY
  5
29
102
{ACAD_REACTORS
330
C
102
}
330
C
100
AcDbDictionary
281
     1
  3
2dWireframe
350
2F
  3
Basic
350
2E
  3
Brighten
350
35
  3
ColorChange
350
39
  3
Conceptual
350
32
  3
Dim
350
34
  3
EdgeColorOff
350
41
  3
Facepattern
350
38
  3
Flat
350
2A
  3
FlatWithEdges
350
2B
  3
Gouraud
350
2C
  3
GouraudWithEdges
350
2D
  3
Hidden
350
31
  3
JitterOff
350
3F
  3
Linepattern
350
37
  3
OverhangOff
350
40
  3
Realistic
350
33
  3
Shaded
350
3E
  3
Shaded with edges
350
3D
  3
Shades of Gray
350
3A
  3
Sketchy
350
3B
  3
Thicken
350
36
  3
Wireframe
350
30
  3
X-Ray
350
3C
  0
XRECORD
  5
2C3
102
{ACAD_REACTORS
330
C
102
}
330
C
100
AcDbXrecord
280
     1
 90
        1
330
65
  0
DICTIONARY
  5
7B
102
{ACAD_REACTORS
330
C
102
}
330
C
100
AcDbDictionary
281
     1
  3
CANNOSCALE
350
80
  3
CMLEADERSTYLE
350
7D
  3
CTABLESTYLE
350
7C
  3
CVIEWDETAILSTYLE
350
7E
  3
CVIEWSECTIONSTYLE
350
7F
  0
DICTIONARY
  5
2BA
102
{ACAD_REACTORS
330
C
102
}
330
C
100
AcDbDictionary
281
     1
  3
DRAWING_TOOL
350
2BE
  3
REVIT_CATEGORY_MAPPING
350
2BC
  3
REVIT_SUB_CATEGORY_MAPPING
350
2BD
  3
REVIT_TYPE_MAPPING
350
2BB
  0
SORTENTSTABLE
  5
2C0
102
{ACAD_REACTORS
330
2BF
102
}
330
2BF
100
AcDbSortentsTable
330
70
  0
ACDBDETAILVIEWSTYLE
  5
6B
102
{ACAD_XDICTIONARY
360
2F8
102
}
102
{ACAD_REACTORS
330
6A
102
}
330
6A
100
AcDbModelDocViewStyle
 70
     0
  3
Imperial24
290
     0
100
AcDbDetailViewStyle
 70
     0
 71
     0
 90
        3
 71
     1
340
55
 62
   256
 40
0.24
340
0
 62
   256
 40
0.24
300

 40
0.36
280
     3
 71
     2
340
5D
 90
       25
 62
   256
 71
     3
340
55
 62
   256
 40
0.24
 90
        1
 40
0.75
 90
        1
300
%<\AcVar ViewType \f "%tc1">% %<\AcVar ViewDetailId>%\PSCALE %<\AcVar ViewScale \f "%sn">%
 71
     4
340
5D
 90
       25
 62
   256
340
5D
 90
       25
 62
   256
280
     0
  0
IMAGEDEF
  5
287
102
{ACAD_REACTORS
330
286
330
289
102
}
330
286
100
AcDbRasterImageDef
 90
        0
  1
E:\CAD Files\TRS Interlocking Panel\Custom Detail with TRS Weatherboard 20201110\TRSInterlockingCladdingDetails-TheRoofingStore_w-107754.jpg
 10
2863.0
 20
400.0
 11
0.0846666666666667
 21
0.0846666666666667
280
     1
281
     5
  0
LAYOUT
  5
6F
102
{ACAD_REACTORS
330
62
102
}
330
62
100
AcDbPlotSettings
  1

  2

  4

  6

 40
0.0
 41
0.0
 42
0.0
 43
0.0
 44
0.0
 45
0.0
 46
0.0
 47
0.0
 48
0.0
 49
0.0
140
0.0
141
0.0
142
1.0
143
1.0
 70
   688
 72
     0
 73
     0
 74
     5
  7

 75
    16
147
1.0
 76
     0
 77
     2
 78
   300
148
0.0
149
0.0
100
AcDbLayout
  1
Layout1
 70
     1
 71
     1
 10
0.0
 20
0.0
 11
12.0
 21
9.0
 12
0.0
 22
0.0
 32
0.0
 14
0.0
 24
0.0
 34
0.0
 15
0.0
 25
0.0
 35
0.0
146
0.0
 13
0.0
 23
0.0
 33
0.0
 16
1.0
 26
0.0
 36
0.0
 17
0.0
 27
1.0
 37
0.0
 76
     0
330
6C
  0
LAYOUT
  5
77
102
{ACAD_REACTORS
330
62
102
}
330
62
100
AcDbPlotSettings
  1

  2

  4

  6

 40
0.0
 41
0.0
 42
0.0
 43
0.0
 44
0.0
 45
0.0
 46
0.0
 47
0.0
 48
0.0
 49
0.0
140
0.0
141
0.0
142
1.0
143
1.0
 70
   688
 72
     0
 73
     0
 74
     5
  7

 75
    16
147
1.0
 76
     0
 77
     2
 78
   300
148
0.0
149
0.0
100
AcDbLayout
  1
Layout2
 70
     1
 71
     2
 10
0.0
 20
0.0
 11
12.0
 21
9.0
 12
0.0
 22
0.0
 32
0.0
 14
0.0
 24
0.0
 34
0.0
 15
0.0
 25
0.0
 35
0.0
146
0.0
 13
0.0
 23
0.0
 33
0.0
 16
1.0
 26
0.0
 36
0.0
 17
0.0
 27
1.0
 37
0.0
 76
     0
330
74
  0
LAYOUT
  5
73
102
{ACAD_REACTORS
330
62
102
}
330
62
100
AcDbPlotSettings
  1

  2

  4

  6

 40
0.0
 41
0.0
 42
0.0
 43
0.0
 44
0.0
 45
0.0
 46
0.0
 47
0.0
 48
0.0
 49
0.0
140
0.0
141
0.0
142
1.0
143
1.0
 70
  1712
 72
     0
 73
     0
 74
     0
  7

 75
     0
147
1.0
 76
     0
 77
     2
 78
   300
148
0.0
149
0.0
100
AcDbLayout
  1
Model
 70
     1
 71
     0
 10
0.0
 20
0.0
 11
12.0
 21
9.0
 12
0.0
 22
0.0
 32
0.0
 14
0.0
 24
0.0
 34
0.0
 15
0.0
 25
0.0
 35
0.0
146
0.0
 13
0.0
 23
0.0
 33
0.0
 16
1.0
 26
0.0
 36
0.0
 17
0.0
 27
1.0
 37
0.0
 76
     0
330
70
  0
MATERIAL
  5
19
102
{ACAD_XDICTIONARY
360
1A
102
}
102
{ACAD_REACTORS
330
10
102
}
330
10
100
AcDbMaterial
  1
ByBlock
 72
     0
 43
0.0208333333333333
 43
0.0
 43
0.0
 43
0.0
 43
0.0
 43
0.0208333333333333
 43
0.0
 43
0.0
 43
0.0
 43
0.0
 43
1.0
 43
0.0
 43
0.0
 43
0.0
 43
0.0
 43
1.0
 77
     0
 47
0.0208333333333333
 47
0.0
 47
0.0
 47
0.0
 47
0.0
 47
0.0208333333333333
 47
0.0
 47
0.0
 47
0.0
 47
0.0
 47
1.0
 47
0.0
 47
0.0
 47
0.0
 47
0.0
 47
1.0
171
     0
 49
0.0208333333333333
 49
0.0
 49
0.0
 49
0.0
 49
0.0
 49
0.0208333333333333
 49
0.0
 49
0.0
 49
0.0
 49
0.0
 49
1.0
 49
0.0
 49
0.0
 49
0.0
 49
0.0
 49
1.0
175
     0
142
0.0208333333333333
142
0.0
142
0.0
142
0.0
142
0.0
142
0.0208333333333333
142
0.0
142
0.0
142
0.0
142
0.0
142
1.0
142
0.0
142
0.0
142
0.0
142
0.0
142
1.0
179
     0
144
0.0208333333333333
144
0.0
144
0.0
144
0.0
144
0.0
144
0.0208333333333333
144
0.0
144
0.0
144
0.0
144
0.0
144
1.0
144
0.0
144
0.0
144
0.0
144
0.0
144
1.0
147
0.0208333333333333
147
0.0
147
0.0
147
0.0
147
0.0
147
0.0208333333333333
147
0.0
147
0.0
147
0.0
147
0.0
147
1.0
147
0.0
147
0.0
147
0.0
147
0.0
147
1.0
  0
MATERIAL
  5
11
102
{ACAD_XDICTIONARY
360
12
102
}
102
{ACAD_REACTORS
330
10
102
}
330
10
100
AcDbMaterial
  1
ByLayer
 72
     0
 43
0.0208333333333333
 43
0.0
 43
0.0
 43
0.0
 43
0.0
 43
0.0208333333333333
 43
0.0
 43
0.0
 43
0.0
 43
0.0
 43
1.0
 43
0.0
 43
0.0
 43
0.0
 43
0.0
 43
1.0
 77
     0
 47
0.0208333333333333
 47
0.0
 47
0.0
 47
0.0
 47
0.0
 47
0.0208333333333333
 47
0.0
 47
0.0
 47
0.0
 47
0.0
 47
1.0
 47
0.0
 47
0.0
 47
0.0
 47
0.0
 47
1.0
171
     0
 49
0.0208333333333333
 49
0.0
 49
0.0
 49
0.0
 49
0.0
 49
0.0208333333333333
 49
0.0
 49
0.0
 49
0.0
 49
0.0
 49
1.0
 49
0.0
 49
0.0
 49
0.0
 49
0.0
 49
1.0
175
     0
142
0.0208333333333333
142
0.0
142
0.0
142
0.0
142
0.0
142
0.0208333333333333
142
0.0
142
0.0
142
0.0
142
0.0
142
1.0
142
0.0
142
0.0
142
0.0
142
0.0
142
1.0
179
     0
144
0.0208333333333333
144
0.0
144
0.0
144
0.0
144
0.0
144
0.0208333333333333
144
0.0
144
0.0
144
0.0
144
0.0
144
1.0
144
0.0
144
0.0
144
0.0
144
0.0
144
1.0
147
0.0208333333333333
147
0.0
147
0.0
147
0.0
147
0.0
147
0.0208333333333333
147
0.0
147
0.0
147
0.0
147
0.0
147
1.0
147
0.0
147
0.0
147
0.0
147
0.0
147
1.0
  0
MATERIAL
  5
21
102
{ACAD_XDICTIONARY
360
22
102
}
102
{ACAD_REACTORS
330
10
102
}
330
10
100
AcDbMaterial
  1
Global
 72
     0
 43
0.0208333333333333
 43
0.0
 43
0.0
 43
0.0
 43
0.0
 43
0.0208333333333333
 43
0.0
 43
0.0
 43
0.0
 43
0.0
 43
1.0
 43
0.0
 43
0.0
 43
0.0
 43
0.0
 43
1.0
 77
     0
 47
0.0208333333333333
 47
0.0
 47
0.0
 47
0.0
 47
0.0
 47
0.0208333333333333
 47
0.0
 47
0.0
 47
0.0
 47
0.0
 47
1.0
 47
0.0
 47
0.0
 47
0.0
 47
0.0
 47
1.0
171
     0
 49
0.0208333333333333
 49
0.0
 49
0.0
 49
0.0
 49
0.0
 49
0.0208333333333333
 49
0.0
 49
0.0
 49
0.0
 49
0.0
 49
1.0
 49
0.0
 49
0.0
 49
0.0
 49
0.0
 49
1.0
175
     0
142
0.0208333333333333
142
0.0
142
0.0
142
0.0
142
0.0
142
0.0208333333333333
142
0.0
142
0.0
142
0.0
142
0.0
142
1.0
142
0.0
142
0.0
142
0.0
142
0.0
142
1.0
179
     0
144
0.0208333333333333
144
0.0
144
0.0
144
0.0
144
0.0
144
0.0208333333333333
144
0.0
144
0.0
144
0.0
144
0.0
144
1.0
144
0.0
144
0.0
144
0.0
144
0.0
144
1.0
147
0.0208333333333333
147
0.0
147
0.0
147
0.0
147
0.0
147
0.0208333333333333
147
0.0
147
0.0
147
0.0
147
0.0
147
1.0
147
0.0
147
0.0
147
0.0
147
0.0
147
1.0
  0
MLEADERSTYLE
  5
67
102
{ACAD_XDICTIONARY
360
2F4
102
}
102
{ACAD_REACTORS
330
66
102
}
330
66
100
AcDbMLeaderStyle
179
     2
170
     2
171
     1
172
     0
 90
        2
 40
0.0
 41
0.0
173
     1
 91
-1056964608
340
5B
 92
       -2
290
     1
 42
0.09
291
     1
 43
0.36
  3
Standard
 44
0.18
300

342
55
174
     1
178
     6
175
     1
176
     0
 93
-1056964608
 45
0.18
292
     0
297
     0
 46
0.18
 94
-1056964608
 47
1.0
 49
1.0
140
1.0
293
     1
141
0.0
294
     1
177
     0
142
1.0
295
     0
296
     0
143
0.125
271
     0
272
     9
273
     9
  0
MLINESTYLE
  5
60
102
{ACAD_REACTORS
330
5F
102
}
330
5F
100
AcDbMlineStyle
  2
STANDARD
 70
     0
  3

 62
   256
 51
90.0
 52
90.0
 71
     2
 49
0.5
 62
   256
  6
BYLAYER
 49
-0.5
 62
   256
  6
BYLAYER
  0
ACDBPLACEHOLDER
  5
F
102
{ACAD_REACTORS
330
E
102
}
330
E
  0
SCALE
  5
43
102
{ACAD_REACTORS
330
42
102
}
330
42
100
AcDbScale
 70
     0
300
1:1
140
1.0
141
1.0
290
     1
  0
SCALE
  5
44
102
{ACAD_REACTORS
330
42
102
}
330
42
100
AcDbScale
 70
     0
300
1/128" = 1'-0"
140
0.0078125
141
12.0
290
     0
  0
SCALE
  5
45
102
{ACAD_REACTORS
330
42
102
}
330
42
100
AcDbScale
 70
     0
300
1/64" = 1'-0"
140
0.015625
141
12.0
290
     0
  0
SCALE
  5
46
102
{ACAD_REACTORS
330
42
102
}
330
42
100
AcDbScale
 70
     0
300
1/32" = 1'-0"
140
0.03125
141
12.0
290
     0
  0
SCALE
  5
47
102
{ACAD_REACTORS
330
42
102
}
330
42
100
AcDbScale
 70
     0
300
1/16" = 1'-0"
140
0.0625
141
12.0
290
     0
  0
SCALE
  5
48
102
{ACAD_REACTORS
330
42
102
}
330
42
100
AcDbScale
 70
     0
300
3/32" = 1'-0"
140
0.09375
141
12.0
290
     0
  0
SCALE
  5
49
102
{ACAD_REACTORS
330
42
102
}
330
42
100
AcDbScale
 70
     0
300
1/8" = 1'-0"
140
0.125
141
12.0
290
     0
  0
SCALE
  5
4A
102
{ACAD_REACTORS
330
42
102
}
330
42
100
AcDbScale
 70
     0
300
3/16" = 1'-0"
140
0.1875
141
12.0
290
     0
  0
SCALE
  5
4B
102
{ACAD_REACTORS
330
42
102
}
330
42
100
AcDbScale
 70
     0
300
1/4" = 1'-0"
140
0.25
141
12.0
290
     0
  0
SCALE
  5
4C
102
{ACAD_REACTORS
330
42
102
}
330
42
100
AcDbScale
 70
     0
300
3/8" = 1'-0"
140
0.375
141
12.0
290
     0
  0
SCALE
  5
4D
102
{ACAD_REACTORS
330
42
102
}
330
42
100
AcDbScale
 70
     0
300
1/2" = 1'-0"
140
0.5
141
12.0
290
     0
  0
SCALE
  5
4E
102
{ACAD_REACTORS
330
42
102
}
330
42
100
AcDbScale
 70
     0
300
3/4" = 1'-0"
140
0.75
141
12.0
290
     0
  0
SCALE
  5
4F
102
{ACAD_REACTORS
330
42
102
}
330
42
100
AcDbScale
 70
     0
300
1" = 1'-0"
140
1.0
141
12.0
290
     0
  0
SCALE
  5
50
102
{ACAD_REACTORS
330
42
102
}
330
42
100
AcDbScale
 70
     0
300
1-1/2" = 1'-0"
140
1.5
141
12.0
290
     0
  0
SCALE
  5
51
102
{ACAD_REACTORS
330
42
102
}
330
42
100
AcDbScale
 70
     0
300
3" = 1'-0"
140
3.0
141
12.0
290
     0
  0
SCALE
  5
52
102
{ACAD_REACTORS
330
42
102
}
330
42
100
AcDbScale
 70
     0
300
6" = 1'-0"
140
6.0
141
12.0
290
     0
  0
SCALE
  5
53
102
{ACAD_REACTORS
330
42
102
}
330
42
100
AcDbScale
 70
     0
300
1'-0" = 1'-0"
140
12.0
141
12.0
290
     0
  0
ACDBSECTIONVIEWSTYLE
  5
69
102
{ACAD_XDICTIONARY
360
2F6
102
}
102
{ACAD_REACTORS
330
68
102
}
330
68
100
AcDbModelDocViewStyle
 70
     0
  3
Imperial24
290
     0
100
AcDbSectionViewStyle
 70
     0
 71
     0
 90
       78
 71
     1
340
55
 62
   256
 40
0.24
340
0
340
0
 62
   256
 40
0.24
300
I, O, Q, S, X, Z
 40
0.48
 90
        3
 40
0.18
 90
        1
 71
     2
340
5D
 90
       25
 62
   256
340
5D
 90
       50
 62
   256
 40
0.24
 40
0.0
 40
0.24
 71
     3
340
55
 62
   256
 40
0.24
 90
        1
 40
0.75
 90
        1
300
%<\AcVar ViewType \f "%tc1">% %<\AcVar ViewSectionStartId>%-%<\AcVar ViewSectionEndId>%\PSCALE %<\AcVar ViewScale \f "%sn">%
 71
     4
 62
   256
 62
   257
300
ANSI31
 40
1.0
 90
        0
290
     0
290
     0
 90
        6
 40
0.0
 40
1.570796326794896
 40
0.2617993877991494
 40
1.308996938995747
 40
-0.2617993877991494
 40
1.832595714594046
  0
TABLESTYLE
  5
65
102
{ACAD_XDICTIONARY
360
2C1
102
}
102
{ACAD_REACTORS
330
64
102
}
330
64
100
AcDbTableStyle
280
     0
  3
Standard
 70
     0
 71
     0
 40
0.06
 41
0.06
280
     0
281
     0
  7
Standard
140
0.18
170
     2
 62
     0
 63
     7
283
     0
 90
      512
 91
        0
  1

274
    -2
284
     1
 64
     0
275
    -2
285
     1
 65
     0
276
    -2
286
     1
 66
     0
277
    -2
287
     1
 67
     0
278
    -2
288
     1
 68
     0
279
    -2
289
     1
 69
     0
  7
Standard
140
0.25
170
     5
 62
     0
 63
     7
283
     0
 90
      512
 91
        0
  1

274
    -2
284
     1
 64
     0
275
    -2
285
     1
 65
     0
276
    -2
286
     1
 66
     0
277
    -2
287
     1
 67
     0
278
    -2
288
     1
 68
     0
279
    -2
289
     1
 69
     0
  7
Standard
140
0.18
170
     5
 62
     0
 63
     7
283
     0
 90
      512
 91
        0
  1

274
    -2
284
     1
 64
     0
275
    -2
285
     1
 65
     0
276
    -2
286
     1
 66
     0
277
    -2
287
     1
 67
     0
278
    -2
288
     1
 68
     0
279
    -2
289
     1
 69
     0
  0
VISUALSTYLE
  5
2F
102
{ACAD_XDICTIONARY
360
2CE
102
}
102
{ACAD_REACTORS
330
29
102
}
330
29
100
AcDbVisualStyle
  2
2dWireframe
 70
     4
177
     2
291
     0
 71
     0
176
     1
 72
     2
176
     1
 73
     0
176
     1
 90
        0
176
     1
 40
0.6
176
     1
 41
30.0
176
     1
 63
     7
421
 16777215
176
     1
 74
     1
176
     1
 91
        4
176
     1
 64
     7
176
     1
 65
   257
176
     1
 75
     1
176
     1
175
     1
176
     1
 42
1.0
176
     1
 92
        0
176
     1
 66
   257
176
     1
 43
1.0
176
     1
 76
     1
176
     1
 77
     6
176
     1
 78
     2
176
     1
 67
     7
176
     1
 79
     5
176
     1
170
     0
176
     1
171
     0
176
     1
290
     0
176
     1
 93
        1
176
     1
 44
0.0
176
     1
173
     0
176
     1
1001
ACAD
1000
AcDbSavedByObjectVersion
1070
     0
  0
VISUALSTYLE
  5
2E
102
{ACAD_XDICTIONARY
360
2CC
102
}
102
{ACAD_REACTORS
330
29
102
}
330
29
100
AcDbVisualStyle
  2
Basic
 70
     7
177
     2
291
     1
 71
     1
176
     1
 72
     0
176
     1
 73
     1
176
     1
 90
        0
176
     1
 40
0.6
176
     1
 41
30.0
176
     1
 63
     7
421
 16777215
176
     1
 74
     0
176
     1
 91
        4
176
     1
 64
     7
176
     1
 65
   257
176
     1
 75
     1
176
     1
175
     1
176
     1
 42
1.0
176
     1
 92
        8
176
     1
 66
     7
176
     1
 43
1.0
176
     1
 76
     1
176
     1
 77
     6
176
     1
 78
     2
176
     1
 67
     7
176
     1
 79
     5
176
     1
170
     0
176
     1
171
     0
176
     1
290
     0
176
     1
 93
        1
176
     1
 44
0.0
176
     1
173
     0
176
     1
1001
ACAD
1000
AcDbSavedByObjectVersion
1070
     0
  0
VISUALSTYLE
  5
35
102
{ACAD_XDICTIONARY
360
2DA
102
}
102
{ACAD_REACTORS
330
29
102
}
330
29
100
AcDbVisualStyle
  2
Brighten
 70
    12
177
     2
291
     1
 71
     2
176
     1
 72
     2
176
     1
 73
     0
176
     1
 90
        0
176
     1
 40
0.6
176
     1
 41
30.0
176
     1
 63
     7
421
 16777215
176
     1
 74
     1
176
     1
 91
        4
176
     1
 64
     7
176
     1
 65
   257
176
     1
 75
     1
176
     1
175
     1
176
     1
 42
1.0
176
     1
 92
        8
176
     1
 66
     7
176
     1
 43
1.0
176
     1
 76
     1
176
     1
 77
     6
176
     1
 78
     2
176
     1
 67
     7
176
     1
 79
     5
176
     1
170
     0
176
     1
171
     0
176
     1
290
     0
176
     1
 93
        1
176
     1
 44
50.0
176
     1
173
     0
176
     1
1001
ACAD
1000
AcDbSavedByObjectVersion
1070
     0
  0
VISUALSTYLE
  5
39
102
{ACAD_XDICTIONARY
360
2E2
102
}
102
{ACAD_REACTORS
330
29
102
}
330
29
100
AcDbVisualStyle
  2
ColorChange
 70
    16
177
     2
291
     1
 71
     2
176
     1
 72
     2
176
     1
 73
     3
176
     1
 90
        0
176
     1
 40
0.6
176
     1
 41
30.0
176
     1
 63
     8
421
  8421504
176
     1
 74
     1
176
     1
 91
        4
176
     1
 64
     7
176
     1
 65
   257
176
     1
 75
     1
176
     1
175
     1
176
     1
 42
1.0
176
     1
 92
        8
176
     1
 66
     8
424
  8421504
176
     1
 43
1.0
176
     1
 76
     1
176
     1
 77
     6
176
     1
 78
     2
176
     1
 67
     7
176
     1
 79
     5
176
     1
170
     0
176
     1
171
     0
176
     1
290
     0
176
     1
 93
        1
176
     1
 44
0.0
176
     1
173
     0
176
     1
1001
ACAD
1000
AcDbSavedByObjectVersion
1070
     0
  0
VISUALSTYLE
  5
32
102
{ACAD_XDICTIONARY
360
2D4
102
}
102
{ACAD_REACTORS
330
29
102
}
330
29
100
AcDbVisualStyle
  2
Conceptual
 70
     9
177
     2
291
     0
 71
     3
176
     1
 72
     2
176
     1
 73
     0
176
     1
 90
        0
176
     1
 40
0.6
176
     1
 41
30.0
176
     1
 63
     7
421
 16777215
176
     1
 74
     2
176
     1
 91
        2
176
     1
 64
     7
176
     1
 65
   257
176
     1
 75
     1
176
     1
175
     1
176
     1
 42
179.0
176
     1
 92
        8
176
     1
 66
     7
176
     1
 43
1.0
176
     1
 76
     1
176
     1
 77
     6
176
     1
 78
     2
176
     1
 67
     7
176
     1
 79
     3
176
     1
170
     0
176
     1
171
     0
176
     1
290
     0
176
     1
 93
        1
176
     1
 44
0.0
176
     1
173
     0
176
     1
1001
ACAD
1000
AcDbSavedByObjectVersion
1070
     0
  0
VISUALSTYLE
  5
34
102
{ACAD_XDICTIONARY
360
2D8
102
}
102
{ACAD_REACTORS
330
29
102
}
330
29
100
AcDbVisualStyle
  2
Dim
 70
    11
177
     2
291
     1
 71
     2
176
     1
 72
     2
176
     1
 73
     0
176
     1
 90
        0
176
     1
 40
0.6
176
     1
 41
30.0
176
     1
 63
     7
421
 16777215
176
     1
 74
     1
176
     1
 91
        4
176
     1
 64
     7
176
     1
 65
   257
176
     1
 75
     1
176
     1
175
     1
176
     1
 42
1.0
176
     1
 92
        8
176
     1
 66
     7
176
     1
 43
1.0
176
     1
 76
     1
176
     1
 77
     6
176
     1
 78
     2
176
     1
 67
     7
176
     1
 79
     5
176
     1
170
     0
176
     1
171
     0
176
     1
290
     0
176
     1
 93
        1
176
     1
 44
-50.0
176
     1
173
     0
176
     1
1001
ACAD
1000
AcDbSavedByObjectVersion
1070
     0
  0
VISUALSTYLE
  5
41
102
{ACAD_XDICTIONARY
360
2F2
102
}
102
{ACAD_REACTORS
330
29
102
}
330
29
100
AcDbVisualStyle
  2
EdgeColorOff
 70
    22
177
     2
291
     1
 71
     2
176
     0
 72
     2
176
     0
 73
     0
176
     0
 90
        0
176
     0
 40
0.6
176
     0
 41
30.0
176
     0
 63
     7
421
 16777215
176
     0
 74
     1
176
     0
 91
        4
176
     0
 64
     7
176
     0
 65
   257
176
     0
 75
     1
176
     0
175
     1
176
     0
 42
1.0
176
     0
 92
        8
176
     2
 66
     7
176
     0
 43
1.0
176
     0
 76
     1
176
     0
 77
     6
176
     0
 78
     2
176
     0
 67
     7
176
     0
 79
     5
176
     0
170
     0
176
     0
171
     0
176
     0
290
     0
176
     0
 93
        1
176
     0
 44
0.0
176
     0
173
     0
176
     0
1001
ACAD
1000
AcDbSavedByObjectVersion
1070
     0
  0
VISUALSTYLE
  5
38
102
{ACAD_XDICTIONARY
360
2E0
102
}
102
{ACAD_REACTORS
330
29
102
}
330
29
100
AcDbVisualStyle
  2
Facepattern
 70
    15
177
     2
291
     1
 71
     2
176
     1
 72
     2
176
     1
 73
     0
176
     1
 90
        0
176
     1
 40
0.6
176
     1
 41
30.0
176
     1
 63
     7
421
 16777215
176
     1
 74
     1
176
     1
 91
        4
176
     1
 64
     7
176
     1
 65
   257
176
     1
 75
     1
176
     1
175
     1
176
     1
 42
1.0
176
     1
 92
        8
176
     1
 66
     7
176
     1
 43
1.0
176
     1
 76
     1
176
     1
 77
     6
176
     1
 78
     2
176
     1
 67
     7
176
     1
 79
     5
176
     1
170
     0
176
     1
171
     0
176
     1
290
     0
176
     1
 93
        1
176
     1
 44
0.0
176
     1
173
     0
176
     1
1001
ACAD
1000
AcDbSavedByObjectVersion
1070
     0
  0
VISUALSTYLE
  5
2A
102
{ACAD_XDICTIONARY
360
2C4
102
}
102
{ACAD_REACTORS
330
29
102
}
330
29
100
AcDbVisualStyle
  2
Flat
 70
     0
177
     2
291
     1
 71
     2
176
     1
 72
     1
176
     1
 73
     1
176
     1
 90
        2
176
     1
 40
0.6
176
     1
 41
30.0
176
     1
 63
     7
421
 16777215
176
     1
 74
     0
176
     1
 91
        0
176
     1
 64
     7
176
     1
 65
   257
176
     1
 75
     1
176
     1
175
     1
176
     1
 42
1.0
176
     1
 92
        8
176
     1
 66
     7
176
     1
 43
1.0
176
     1
 76
     1
176
     1
 77
     6
176
     1
 78
     2
176
     1
 67
     7
176
     1
 79
     5
176
     1
170
     0
176
     1
171
     0
176
     1
290
     0
176
     1
 93
       13
176
     1
 44
0.0
176
     1
173
     0
176
     1
1001
ACAD
1000
AcDbSavedByObjectVersion
1070
     0
  0
VISUALSTYLE
  5
2B
102
{ACAD_XDICTIONARY
360
2C6
102
}
102
{ACAD_REACTORS
330
29
102
}
330
29
100
AcDbVisualStyle
  2
FlatWithEdges
 70
     1
177
     2
291
     1
 71
     2
176
     1
 72
     1
176
     1
 73
     1
176
     1
 90
        2
176
     1
 40
0.6
176
     1
 41
30.0
176
     1
 63
     7
421
 16777215
176
     1
 74
     1
176
     1
 91
        0
176
     1
 64
     7
176
     1
 65
   257
176
     1
 75
     1
176
     1
175
     1
176
     1
 42
1.0
176
     1
 92
        0
176
     1
 66
   257
176
     1
 43
1.0
176
     1
 76
     1
176
     1
 77
     6
176
     1
 78
     2
176
     1
 67
     7
176
     1
 79
     5
176
     1
170
     0
176
     1
171
     0
176
     1
290
     0
176
     1
 93
       13
176
     1
 44
0.0
176
     1
173
     0
176
     1
1001
ACAD
1000
AcDbSavedByObjectVersion
1070
     0
  0
VISUALSTYLE
  5
2C
102
{ACAD_XDICTIONARY
360
2C8
102
}
102
{ACAD_REACTORS
330
29
102
}
330
29
100
AcDbVisualStyle
  2
Gouraud
 70
     2
177
     2
291
     1
 71
     2
176
     1
 72
     2
176
     1
 73
     1
176
     1
 90
        2
176
     1
 40
0.6
176
     1
 41
30.0
176
     1
 63
     7
421
 16777215
176
     1
 74
     0
176
     1
 91
        0
176
     1
 64
     7
176
     1
 65
   257
176
     1
 75
     1
176
     1
175
     1
176
     1
 42
1.0
176
     1
 92
        0
176
     1
 66
     7
176
     1
 43
1.0
176
     1
 76
     1
176
     1
 77
     6
176
     1
 78
     2
176
     1
 67
     7
176
     1
 79
     5
176
     1
170
     0
176
     1
171
     0
176
     1
290
     0
176
     1
 93
       13
176
     1
 44
0.0
176
     1
173
     0
176
     1
1001
ACAD
1000
AcDbSavedByObjectVersion
1070
     0
  0
VISUALSTYLE
  5
2D
102
{ACAD_XDICTIONARY
360
2CA
102
}
102
{ACAD_REACTORS
330
29
102
}
330
29
100
AcDbVisualStyle
  2
GouraudWithEdges
 70
     3
177
     2
291
     1
 71
     2
176
     1
 72
     2
176
     1
 73
     1
176
     1
 90
        2
176
     1
 40
0.6
176
     1
 41
30.0
176
     1
 63
     7
421
 16777215
176
     1
 74
     1
176
     1
 91
        0
176
     1
 64
     7
176
     1
 65
   257
176
     1
 75
     1
176
     1
175
     1
176
     1
 42
1.0
176
     1
 92
        0
176
     1
 66
   257
176
     1
 43
1.0
176
     1
 76
     1
176
     1
 77
     6
176
     1
 78
     2
176
     1
 67
     7
176
     1
 79
     5
176
     1
170
     0
176
     1
171
     0
176
     1
290
     0
176
     1
 93
       13
176
     1
 44
0.0
176
     1
173
     0
176
     1
1001
ACAD
1000
AcDbSavedByObjectVersion
1070
     0
  0
VISUALSTYLE
  5
31
102
{ACAD_XDICTIONARY
360
2D2
102
}
102
{ACAD_REACTORS
330
29
102
}
330
29
100
AcDbVisualStyle
  2
Hidden
 70
     6
177
     2
291
     0
 71
     1
176
     1
 72
     2
176
     1
 73
     2
176
     1
 90
        0
176
     1
 40
0.6
176
     1
 41
30.0
176
     1
 63
     7
421
 16777215
176
     1
 74
     2
176
     1
 91
        2
176
     1
 64
     7
176
     1
 65
   257
176
     1
 75
     2
176
     1
175
     1
176
     1
 42
40.0
176
     1
 92
        0
176
     1
 66
   257
176
     1
 43
1.0
176
     1
 76
     1
176
     1
 77
     6
176
     1
 78
     2
176
     1
 67
     7
176
     1
 79
     3
176
     1
170
     0
176
     1
171
     0
176
     1
290
     0
176
     1
 93
        1
176
     1
 44
0.0
176
     1
173
     0
176
     1
1001
ACAD
1000
AcDbSavedByObjectVersion
1070
     0
  0
VISUALSTYLE
  5
3F
102
{ACAD_XDICTIONARY
360
2EE
102
}
102
{ACAD_REACTORS
330
29
102
}
330
29
100
AcDbVisualStyle
  2
JitterOff
 70
    20
177
     2
291
     1
 71
     2
176
     0
 72
     2
176
     0
 73
     0
176
     0
 90
        0
176
     0
 40
0.6
176
     0
 41
30.0
176
     0
 63
     7
421
 16777215
176
     0
 74
     1
176
     0
 91
        4
176
     0
 64
     7
176
     0
 65
   257
176
     0
 75
     1
176
     0
175
     1
176
     0
 42
1.0
176
     0
 92
       10
176
     2
 66
     7
176
     0
 43
1.0
176
     0
 76
     1
176
     0
 77
     6
176
     0
 78
     2
176
     0
 67
     7
176
     0
 79
     5
176
     0
170
     0
176
     0
171
     0
176
     0
290
     0
176
     0
 93
        1
176
     0
 44
0.0
176
     0
173
     0
176
     0
1001
ACAD
1000
AcDbSavedByObjectVersion
1070
     0
  0
VISUALSTYLE
  5
37
102
{ACAD_XDICTIONARY
360
2DE
102
}
102
{ACAD_REACTORS
330
29
102
}
330
29
100
AcDbVisualStyle
  2
Linepattern
 70
    14
177
     2
291
     1
 71
     2
176
     1
 72
     2
176
     1
 73
     0
176
     1
 90
        0
176
     1
 40
0.6
176
     1
 41
30.0
176
     1
 63
     7
421
 16777215
176
     1
 74
     1
176
     1
 91
        4
176
     1
 64
     7
176
     1
 65
   257
176
     1
 75
     7
176
     1
175
     7
176
     1
 42
1.0
176
     1
 92
        8
176
     1
 66
     7
176
     1
 43
1.0
176
     1
 76
     1
176
     1
 77
     6
176
     1
 78
     2
176
     1
 67
     7
176
     1
 79
     5
176
     1
170
     0
176
     1
171
     0
176
     1
290
     0
176
     1
 93
        1
176
     1
 44
0.0
176
     1
173
     0
176
     1
1001
ACAD
1000
AcDbSavedByObjectVersion
1070
     0
  0
VISUALSTYLE
  5
40
102
{ACAD_XDICTIONARY
360
2F0
102
}
102
{ACAD_REACTORS
330
29
102
}
330
29
100
AcDbVisualStyle
  2
OverhangOff
 70
    21
177
     2
291
     1
 71
     2
176
     0
 72
     2
176
     0
 73
     0
176
     0
 90
        0
176
     0
 40
0.6
176
     0
 41
30.0
176
     0
 63
     7
421
 16777215
176
     0
 74
     1
176
     0
 91
        4
176
     0
 64
     7
176
     0
 65
   257
176
     0
 75
     1
176
     0
175
     1
176
     0
 42
1.0
176
     0
 92
        9
176
     2
 66
     7
176
     0
 43
1.0
176
     0
 76
     1
176
     0
 77
     6
176
     0
 78
     2
176
     0
 67
     7
176
     0
 79
     5
176
     0
170
     0
176
     0
171
     0
176
     0
290
     0
176
     0
 93
        1
176
     0
 44
0.0
176
     0
173
     0
176
     0
1001
ACAD
1000
AcDbSavedByObjectVersion
1070
     0
  0
VISUALSTYLE
  5
33
102
{ACAD_XDICTIONARY
360
2D6
102
}
102
{ACAD_REACTORS
330
29
102
}
330
29
100
AcDbVisualStyle
  2
Realistic
 70
     8
177
     2
291
     0
 71
     2
176
     1
 72
     3
176
     1
 73
     0
176
     1
 90
        2
176
     1
 40
0.6
176
     1
 41
30.0
176
     1
 63
     7
421
 16777215
176
     1
 74
     0
176
     1
 91
        0
176
     1
 64
     7
176
     1
 65
   257
176
     1
 75
     1
176
     1
175
     1
176
     1
 42
1.0
176
     1
 92
        8
176
     1
 66
   257
176
     1
 43
1.0
176
     1
 76
     1
176
     1
 77
     6
176
     1
 78
     2
176
     1
 67
     7
176
     1
 79
     3
176
     1
170
     0
176
     1
171
     0
176
     1
290
     0
176
     1
 93
       13
176
     1
 44
0.0
176
     1
173
     0
176
     1
1001
ACAD
1000
AcDbSavedByObjectVersion
1070
     0
  0
VISUALSTYLE
  5
3E
102
{ACAD_XDICTIONARY
360
2EC
102
}
102
{ACAD_REACTORS
330
29
102
}
330
29
100
AcDbVisualStyle
  2
Shaded
 70
    27
177
     2
291
     0
 71
     2
176
     1
 72
     2
176
     1
 73
     1
176
     1
 90
        2
176
     1
 40
0.6
176
     1
 41
30.0
176
     1
 63
     7
421
 16777215
176
     1
 74
     0
176
     1
 91
        4
176
     1
 64
     7
176
     1
 65
   257
176
     1
 75
     1
176
     1
175
     1
176
     1
 42
1.0
176
     1
 92
        8
176
     1
 66
   257
176
     1
 43
1.0
176
     1
 76
     1
176
     1
 77
     6
176
     1
 78
     2
176
     1
 67
     8
425
  7895160
176
     1
 79
     3
176
     1
170
     0
176
     1
171
     0
176
     1
290
     0
176
     1
 93
        5
176
     1
 44
0.0
176
     1
173
     0
176
     1
1001
ACAD
1000
AcDbSavedByObjectVersion
1070
     0
  0
VISUALSTYLE
  5
3D
102
{ACAD_XDICTIONARY
360
2EA
102
}
102
{ACAD_REACTORS
330
29
102
}
330
29
100
AcDbVisualStyle
  2
Shaded with edges
 70
    26
177
     2
291
     0
 71
     2
176
     1
 72
     2
176
     1
 73
     1
176
     1
 90
        2
176
     1
 40
0.6
176
     1
 41
30.0
176
     1
 63
     7
421
 16777215
176
     1
 74
     1
176
     1
 91
        2
176
     1
 64
     7
176
     1
 65
   257
176
     1
 75
     2
176
     1
175
     1
176
     1
 42
1.0
176
     1
 92
        8
176
     1
 66
   257
176
     1
 43
1.0
176
     1
 76
     1
176
     1
 77
     6
176
     1
 78
     2
176
     1
 67
     7
176
     1
 79
     3
176
     1
170
     0
176
     1
171
     0
176
     1
290
     0
176
     1
 93
        5
176
     1
 44
0.0
176
     1
173
     0
176
     1
1001
ACAD
1000
AcDbSavedByObjectVersion
1070
     0
  0
VISUALSTYLE
  5
3A
102
{ACAD_XDICTIONARY
360
2E4
102
}
102
{ACAD_REACTORS
330
29
102
}
330
29
100
AcDbVisualStyle
  2
Shades of Gray
 70
    23
177
     2
291
     0
 71
     2
176
     1
 72
     2
176
     1
 73
     3
176
     1
 90
        0
176
     1
 40
0.6
176
     1
 41
30.0
176
     1
 63
     7
421
 16777215
176
     1
 74
     2
176
     1
 91
        2
176
     1
 64
     7
176
     1
 65
     7
176
     1
 75
     1
176
     1
175
     1
176
     1
 42
40.0
176
     1
 92
        8
176
     1
 66
     7
176
     1
 43
1.0
176
     1
 76
     1
176
     1
 77
     6
176
     1
 78
     2
176
     1
 67
     7
176
     1
 79
     3
176
     1
170
     0
176
     1
171
     0
176
     1
290
     0
176
     1
 93
        1
176
     1
 44
0.0
176
     1
173
     0
176
     1
1001
ACAD
1000
AcDbSavedByObjectVersion
1070
     0
  0
VISUALSTYLE
  5
3B
102
{ACAD_XDICTIONARY
360
2E6
102
}
102
{ACAD_REACTORS
330
29
102
}
330
29
100
AcDbVisualStyle
  2
Sketchy
 70
    24
177
     2
291
     0
 71
     1
176
     1
 72
     2
176
     1
 73
     2
176
     1
 90
        0
176
     1
 40
0.6
176
     1
 41
30.0
176
     1
 63
     7
421
 16777215
176
     1
 74
     2
176
     1
 91
        2
176
     1
 64
     7
176
     1
 65
     7
176
     1
 75
     1
176
     1
175
     1
176
     1
 42
40.0
176
     1
 92
       11
176
     1
 66
     7
176
     1
 43
1.0
176
     1
 76
     1
176
     1
 77
     6
176
     1
 78
     2
176
     1
 67
     7
176
     1
 79
     6
176
     1
170
     0
176
     1
171
     0
176
     1
290
     0
176
     1
 93
        1
176
     1
 44
0.0
176
     1
173
     0
176
     1
1001
ACAD
1000
AcDbSavedByObjectVersion
1070
     0
  0
VISUALSTYLE
  5
36
102
{ACAD_XDICTIONARY
360
2DC
102
}
102
{ACAD_REACTORS
330
29
102
}
330
29
100
AcDbVisualStyle
  2
Thicken
 70
    13
177
     2
291
     1
 71
     2
176
     1
 72
     2
176
     1
 73
     0
176
     1
 90
        0
176
     1
 40
0.6
176
     1
 41
30.0
176
     1
 63
     7
421
 16777215
176
     1
 74
     1
176
     1
 91
        4
176
     1
 64
     7
176
     1
 65
   257
176
     1
 75
     1
176
     1
175
     1
176
     1
 42
1.0
176
     1
 92
       12
176
     1
 66
     7
176
     1
 43
1.0
176
     1
 76
     1
176
     1
 77
     6
176
     1
 78
     2
176
     1
 67
     7
176
     1
 79
     5
176
     1
170
     0
176
     1
171
     0
176
     1
290
     0
176
     1
 93
        1
176
     1
 44
0.0
176
     1
173
     0
176
     1
1001
ACAD
1000
AcDbSavedByObjectVersion
1070
     0
  0
VISUALSTYLE
  5
30
102
{ACAD_XDICTIONARY
360
2D0
102
}
102
{ACAD_REACTORS
330
29
102
}
330
29
100
AcDbVisualStyle
  2
Wireframe
 70
     5
177
     2
291
     0
 71
     0
176
     1
 72
     2
176
     1
 73
     0
176
     1
 90
        0
176
     1
 40
0.6
176
     1
 41
30.0
176
     1
 63
     7
421
 16777215
176
     1
 74
     1
176
     1
 91
        4
176
     1
 64
     7
176
     1
 65
   257
176
     1
 75
     1
176
     1
175
     1
176
     1
 42
1.0
176
     1
 92
        0
176
     1
 66
   257
176
     1
 43
1.0
176
     1
 76
     1
176
     1
 77
     6
176
     1
 78
     2
176
     1
 67
     7
176
     1
 79
     3
176
     1
170
     0
176
     1
171
     0
176
     1
290
     0
176
     1
 93
        1
176
     1
 44
0.0
176
     1
173
     0
176
     1
1001
ACAD
1000
AcDbSavedByObjectVersion
1070
     0
  0
VISUALSTYLE
  5
3C
102
{ACAD_XDICTIONARY
360
2E8
102
}
102
{ACAD_REACTORS
330
29
102
}
330
29
100
AcDbVisualStyle
  2
X-Ray
 70
    25
177
     2
291
     0
 71
     2
176
     1
 72
     2
176
     1
 73
     1
176
     1
 90
        1
176
     1
 40
0.5
176
     1
 41
30.0
176
     1
 63
     7
421
 16777215
176
     1
 74
     1
176
     1
 91
        0
176
     1
 64
     7
176
     1
 65
   257
176
     1
 75
     1
176
     1
175
     1
176
     1
 42
1.0
176
     1
 92
        8
176
     1
 66
     7
176
     1
 43
1.0
176
     1
 76
     1
176
     1
 77
     6
176
     1
 78
     2
176
     1
 67
     7
176
     1
 79
     3
176
     1
170
     0
176
     1
171
     0
176
     1
290
     0
176
     1
 93
       13
176
     1
 44
0.0
176
     1
173
     0
176
     1
1001
ACAD
1000
AcDbSavedByObjectVersion
1070
     0
  0
DICTIONARYVAR
  5
80
102
{ACAD_REACTORS
330
7B
102
}
330
7B
100
DictionaryVariables
280
     0
  1
1:1
  0
DICTIONARYVAR
  5
7D
102
{ACAD_REACTORS
330
7B
102
}
330
7B
100
DictionaryVariables
280
     0
  1
STANDARD
  0
DICTIONARYVAR
  5
7C
102
{ACAD_REACTORS
330
7B
102
}
330
7B
100
DictionaryVariables
280
     0
  1
STANDARD
  0
DICTIONARYVAR
  5
7E
102
{ACAD_REACTORS
330
7B
102
}
330
7B
100
DictionaryVariables
280
     0
  1
Imperial24
  0
DICTIONARYVAR
  5
7F
102
{ACAD_REACTORS
330
7B
102
}
330
7B
100
DictionaryVariables
280
     0
  1
Imperial24
  0
XRECORD
  5
2BE
102
{ACAD_REACTORS
330
2BA
102
}
330
2BA
100
AcDbXrecord
280
     1
  1
BUILDING_ID
  1
TRS Interlocking Cladding Details
  1
FLOOR_ID
  1
201013
  0
XRECORD
  5
2BC
102
{ACAD_REACTORS
330
2BA
102
}
330
2BA
100
AcDbXrecord
280
     1
  1
-2000051
  1
Lines
  1
-2000260
  1
Dimensions
  1
-2000280
  1
Title Blocks
  1
-2000300
  1
Text Notes
  1
-2002000
  1
Detail Items
  0
XRECORD
  5
2BD
102
{ACAD_REACTORS
330
2BA
102
}
330
2BA
100
AcDbXrecord
280
     1
  1
-2000042
  1
Thin Lines
  1
-2000077
  1
Insulation Batting Lines
  1
-2000281
  1
Thin Lines
  1
-2000282
  1
Medium Lines
  1
10657
  1
mpt_underlay
  1
15811
  1
Medium Lines Dashed
  1
16210
  1
01 - Black 1
  1
16362
  1
Thin Lines
  1
19820
  1
FPA_Sect_Aluminium
  1
19830
  1
FPA_Elev_Aluminium
  1
2656
  1
Flashing profile
  0
XRECORD
  5
2BB
102
{ACAD_REACTORS
330
2BA
102
}
330
2BA
100
AcDbXrecord
280
     1
  1
10664
  1
breakline with fill detail1to5 : breakline with fill detail1to5
  1
10675
  1
rs_building wrap : Building wrap
  1
10681
  1
rs_base flashing 95 : Base flashing
  1
108656
  1
Filled region : Wood
  1
14996
  1
Filled region : Crosshatch 3mm
  1
16489
  1
Text : Century Gothic 2.5mm
  1
16493
  1
Linear Dimension Style : 01 - Diagonal Horizontal
  1
17724
  1
Linear Dimension Style : 01 - Diagonal
  1
17867
  1
Filled region : Grey LT - Solid
  1
17873
  1
Filled region : White- Solid
  1
17941
  1
Filled region : Plasterboard
  1
200407
  1
Filled region : plywood
  1
2694
  1
Titleblock A4 The roofing store : Titleblock A4 The roofing store
  1
33622
  1
FP Timber Nog Packer : Variable
  1
36099
  1
4821_Cavity Closure : 4821_Cavity Closure
  0
DICTIONARY
  5
2F8
330
6B
100
AcDbDictionary
280
     1
281
     1
  3
ACAD_XREC_ROUNDTRIP
360
2F9
  0
DICTIONARY
  5
1A
330
19
100
AcDbDictionary
280
     1
281
     1
  3
BUMPTILE
360
1C
  3
DIFFUSETILE
360
1B
  3
OPACITYTILE
360
1F
  3
REFLECTIONTILE
360
1E
  3
REFRACTIONTILE
360
20
  3
SPECULARTILE
360
1D
  0
DICTIONARY
  5
12
330
11
100
AcDbDictionary
280
     1
281
     1
  3
BUMPTILE
360
14
  3
DIFFUSETILE
360
13
  3
OPACITYTILE
360
17
  3
REFLECTIONTILE
360
16
  3
REFRACTIONTILE
360
18
  3
SPECULARTILE
360
15
  0
DICTIONARY
  5
22
330
21
100
AcDbDictionary
280
     1
281
     1
  3
BUMPTILE
360
24
  3
DIFFUSETILE
360
23
  3
OPACITYTILE
360
27
  3
REFLECTIONTILE
360
26
  3
REFRACTIONTILE
360
28
  3
SPECULARTILE
360
25
  0
DICTIONARY
  5
2F4
330
67
100
AcDbDictionary
280
     1
281
     1
  3
ACAD_XREC_ROUNDTRIP
360
2F5
  0
DICTIONARY
  5
2F6
330
69
100
AcDbDictionary
280
     1
281
     1
  3
ACAD_XREC_ROUNDTRIP
360
2F7
  0
DICTIONARY
  5
2C1
330
65
100
AcDbDictionary
280
     1
281
     1
  3
ACAD_ROUNDTRIP_2008_TABLESTYLE_CELLSTYLEMAP
360
2C2
  0
DICTIONARY
  5
2CE
330
2F
100
AcDbDictionary
280
     1
281
     1
  3
ACAD_XREC_ROUNDTRIP
360
2CF
  0
DICTIONARY
  5
2CC
330
2E
100
AcDbDictionary
280
     1
281
     1
  3
ACAD_XREC_ROUNDTRIP
360
2CD
  0
DICTIONARY
  5
2DA
330
35
100
AcDbDictionary
280
     1
281
     1
  3
ACAD_XREC_ROUNDTRIP
360
2DB
  0
DICTIONARY
  5
2E2
330
39
100
AcDbDictionary
280
     1
281
     1
  3
ACAD_XREC_ROUNDTRIP
360
2E3
  0
DICTIONARY
  5
2D4
330
32
100
AcDbDictionary
280
     1
281
     1
  3
ACAD_XREC_ROUNDTRIP
360
2D5
  0
DICTIONARY
  5
2D8
330
34
100
AcDbDictionary
280
     1
281
     1
  3
ACAD_XREC_ROUNDTRIP
360
2D9
  0
DICTIONARY
  5
2F2
330
41
100
AcDbDictionary
280
     1
281
     1
  3
ACAD_XREC_ROUNDTRIP
360
2F3
  0
DICTIONARY
  5
2E0
330
38
100
AcDbDictionary
280
     1
281
     1
  3
ACAD_XREC_ROUNDTRIP
360
2E1
  0
DICTIONARY
  5
2C4
330
2A
100
AcDbDictionary
280
     1
281
     1
  3
ACAD_XREC_ROUNDTRIP
360
2C5
  0
DICTIONARY
  5
2C6
330
2B
100
AcDbDictionary
280
     1
281
     1
  3
ACAD_XREC_ROUNDTRIP
360
2C7
  0
DICTIONARY
  5
2C8
330
2C
100
AcDbDictionary
280
     1
281
     1
  3
ACAD_XREC_ROUNDTRIP
360
2C9
  0
DICTIONARY
  5
2CA
330
2D
100
AcDbDictionary
280
     1
281
     1
  3
ACAD_XREC_ROUNDTRIP
360
2CB
  0
DICTIONARY
  5
2D2
330
31
100
AcDbDictionary
280
     1
281
     1
  3
ACAD_XREC_ROUNDTRIP
360
2D3
  0
DICTIONARY
  5
2EE
330
3F
100
AcDbDictionary
280
     1
281
     1
  3
ACAD_XREC_ROUNDTRIP
360
2EF
  0
DICTIONARY
  5
2DE
330
37
100
AcDbDictionary
280
     1
281
     1
  3
ACAD_XREC_ROUNDTRIP
360
2DF
  0
DICTIONARY
  5
2F0
330
40
100
AcDbDictionary
280
     1
281
     1
  3
ACAD_XREC_ROUNDTRIP
360
2F1
  0
DICTIONARY
  5
2D6
330
33
100
AcDbDictionary
280
     1
281
     1
  3
ACAD_XREC_ROUNDTRIP
360
2D7
  0
DICTIONARY
  5
2EC
330
3E
100
AcDbDictionary
280
     1
281
     1
  3
ACAD_XREC_ROUNDTRIP
360
2ED
  0
DICTIONARY
  5
2EA
330
3D
100
AcDbDictionary
280
     1
281
     1
  3
ACAD_XREC_ROUNDTRIP
360
2EB
  0
DICTIONARY
  5
2E4
330
3A
100
AcDbDictionary
280
     1
281
     1
  3
ACAD_XREC_ROUNDTRIP
360
2E5
  0
DICTIONARY
  5
2E6
330
3B
100
AcDbDictionary
280
     1
281
     1
  3
ACAD_XREC_ROUNDTRIP
360
2E7
  0
DICTIONARY
  5
2DC
330
36
100
AcDbDictionary
280
     1
281
     1
  3
ACAD_XREC_ROUNDTRIP
360
2DD
  0
DICTIONARY
  5
2D0
330
30
100
AcDbDictionary
280
     1
281
     1
  3
ACAD_XREC_ROUNDTRIP
360
2D1
  0
DICTIONARY
  5
2E8
330
3C
100
AcDbDictionary
280
     1
281
     1
  3
ACAD_XREC_ROUNDTRIP
360
2E9
  0
XRECORD
  5
2F9
102
{ACAD_REACTORS
330
2F8
102
}
330
2F8
100
AcDbXrecord
280
     1
102
DISPLAYNAME
  1
Imperial24
102
FLAGS
 90
        0
  0
XRECORD
  5
1C
102
{ACAD_REACTORS
330
1A
102
}
330
1A
100
AcDbXrecord
280
     1
270
     1
271
     1
  0
XRECORD
  5
1B
102
{ACAD_REACTORS
330
1A
102
}
330
1A
100
AcDbXrecord
280
     1
270
     1
271
     1
  0
XRECORD
  5
1F
102
{ACAD_REACTORS
330
1A
102
}
330
1A
100
AcDbXrecord
280
     1
270
     1
271
     1
  0
XRECORD
  5
1E
102
{ACAD_REACTORS
330
1A
102
}
330
1A
100
AcDbXrecord
280
     1
270
     1
271
     1
  0
XRECORD
  5
20
102
{ACAD_REACTORS
330
1A
102
}
330
1A
100
AcDbXrecord
280
     1
270
     1
271
     1
  0
XRECORD
  5
1D
102
{ACAD_REACTORS
330
1A
102
}
330
1A
100
AcDbXrecord
280
     1
270
     1
271
     1
  0
XRECORD
  5
14
102
{ACAD_REACTORS
330
12
102
}
330
12
100
AcDbXrecord
280
     1
270
     1
271
     1
  0
XRECORD
  5
13
102
{ACAD_REACTORS
330
12
102
}
330
12
100
AcDbXrecord
280
     1
270
     1
271
     1
  0
XRECORD
  5
17
102
{ACAD_REACTORS
330
12
102
}
330
12
100
AcDbXrecord
280
     1
270
     1
271
     1
  0
XRECORD
  5
16
102
{ACAD_REACTORS
330
12
102
}
330
12
100
AcDbXrecord
280
     1
270
     1
271
     1
  0
XRECORD
  5
18
102
{ACAD_REACTORS
330
12
102
}
330
12
100
AcDbXrecord
280
     1
270
     1
271
     1
  0
XRECORD
  5
15
102
{ACAD_REACTORS
330
12
102
}
330
12
100
AcDbXrecord
280
     1
270
     1
271
     1
  0
XRECORD
  5
24
102
{ACAD_REACTORS
330
22
102
}
330
22
100
AcDbXrecord
280
     1
270
     1
271
     1
  0
XRECORD
  5
23
102
{ACAD_REACTORS
330
22
102
}
330
22
100
AcDbXrecord
280
     1
270
     1
271
     1
  0
XRECORD
  5
27
102
{ACAD_REACTORS
330
22
102
}
330
22
100
AcDbXrecord
280
     1
270
     1
271
     1
  0
XRECORD
  5
26
102
{ACAD_REACTORS
330
22
102
}
330
22
100
AcDbXrecord
280
     1
270
     1
271
     1
  0
XRECORD
  5
28
102
{ACAD_REACTORS
330
22
102
}
330
22
100
AcDbXrecord
280
     1
270
     1
271
     1
  0
XRECORD
  5
25
102
{ACAD_REACTORS
330
22
102
}
330
22
100
AcDbXrecord
280
     1
270
     1
271
     1
  0
XRECORD
  5
2F5
102
{ACAD_REACTORS
330
2F4
102
}
330
2F4
100
AcDbXrecord
280
     1
102
ACAD_ROUNDTRIP_2012_MLEADER_STYLE
298
     1
  0
XRECORD
  5
2F7
102
{ACAD_REACTORS
330
2F6
102
}
330
2F6
100
AcDbXrecord
280
     1
102
DISPLAYNAME
  1
Imperial24
102
FLAGS
 90
        0
  0
CELLSTYLEMAP
  5
2C2
102
{ACAD_REACTORS
330
2C1
102
}
330
2C1
100
AcDbCellStyleMap
 90
        3
300
CELLSTYLE
  1
TABLEFORMAT_BEGIN
 90
        5
170
     1
 91
        0
 92
    32768
 62
   257
 93
        1
300
CONTENTFORMAT
  1
CONTENTFORMAT_BEGIN
 90
        0
 91
        0
 92
      512
 93
        0
300

 40
0.0
140
1.0
 94
        5
 62
     0
340
55
144
0.25
309
CONTENTFORMAT_END
171
     0
 94
        0
309
TABLEFORMAT_END
  1
CELLSTYLE_BEGIN
 90
        1
 91
        1
300
_TITLE
309
CELLSTYLE_END
300
CELLSTYLE
  1
TABLEFORMAT_BEGIN
 90
        5
170
     1
 91
        0
 92
        0
 62
   257
 93
        1
300
CONTENTFORMAT
  1
CONTENTFORMAT_BEGIN
 90
        0
 91
        0
 92
      512
 93
        0
300

 40
0.0
140
1.0
 94
        5
 62
     0
340
55
144
0.18
309
CONTENTFORMAT_END
171
     0
 94
        0
309
TABLEFORMAT_END
  1
CELLSTYLE_BEGIN
 90
        2
 91
        1
300
_HEADER
309
CELLSTYLE_END
300
CELLSTYLE
  1
TABLEFORMAT_BEGIN
 90
        5
170
     1
 91
        0
 92
        0
 62
   257
 93
        1
300
CONTENTFORMAT
  1
CONTENTFORMAT_BEGIN
 90
        0
 91
        0
 92
      512
 93
        0
300

 40
0.0
140
1.0
 94
        2
 62
     0
340
55
144
0.18
309
CONTENTFORMAT_END
171
     0
 94
        0
309
TABLEFORMAT_END
  1
CELLSTYLE_BEGIN
 90
        3
 91
        2
300
_DATA
309
CELLSTYLE_END
  0
XRECORD
  5
2CF
102
{ACAD_REACTORS
330
2CE
102
}
330
2CE
100
AcDbXrecord
280
     1
102
RTVSPost2010Prop28
280
     1
102
RTVSPost2010PropOp28
 70
     1
102
RTVSPost2010Prop29
280
     1
102
RTVSPost2010PropOp29
 70
     1
102
RTVSPost2010Prop30
280
     0
102
RTVSPost2010PropOp30
 70
     1
102
RTVSPost2010Prop31
280
     0
102
RTVSPost2010PropOp31
 70
     1
102
RTVSPost2010Prop32
280
     0
102
RTVSPost2010PropOp32
 70
     1
102
RTVSPost2010Prop33
280
     0
102
RTVSPost2010PropOp33
 70
     1
102
RTVSPost2010Prop34
280
     0
102
RTVSPost2010PropOp34
 70
     1
102
RTVSPost2010Prop35
280
     0
102
RTVSPost2010PropOp35
 70
     1
102
RTVSPost2010Prop36
280
     0
102
RTVSPost2010PropOp36
 70
     1
102
RTVSPost2010Prop37
 90
       50
102
RTVSPost2010PropOp37
 70
     1
102
RTVSPost2010Prop38
140
0.0
102
RTVSPost2010PropOp38
 70
     1
102
RTVSPost2010Prop39
140
1.0
102
RTVSPost2010PropOp39
 70
     1
102
RTVSPost2010Prop40
 90
        0
102
RTVSPost2010PropOp40
 70
     1
102
RTVSPost2010Prop41ColorIndex
 90
       18
102
RTVSPost2010Prop41ColorRGB
 90
        0
102
RTVSPost2010PropOp41
 70
     1
102
RTVSPost2010Prop42
 90
       50
102
RTVSPost2010PropOp42
 70
     1
102
RTVSPost2010Prop43
 90
        3
102
RTVSPost2010PropOp43
 70
     1
102
RTVSPost2010Prop44ColorIndex
 90
        5
102
RTVSPost2010Prop44ColorRGB
 90
      255
102
RTVSPost2010PropOp44
 70
     1
102
RTVSPost2010Prop45
280
     0
102
RTVSPost2010PropOp45
 70
     1
102
RTVSPost2010Prop46
 90
       50
102
RTVSPost2010PropOp46
 70
     1
102
RTVSPost2010Prop47
 90
       50
102
RTVSPost2010PropOp47
 70
     1
102
RTVSPost2010Prop48
 90
       50
102
RTVSPost2010PropOp48
 70
     1
102
RTVSPost2010Prop49
280
     0
102
RTVSPost2010PropOp49
 70
     1
102
RTVSPost2010Prop50
 90
       50
102
RTVSPost2010PropOp50
 70
     1
102
RTVSPost2010Prop51ColorIndex
 90
      256
102
RTVSPost2010Prop51ColorRGB
 90
-16777216
102
RTVSPost2010PropOp51
 70
     0
102
RTVSPost2010Prop52
140
1.0
102
RTVSPost2010PropOp52
 70
     0
102
RTVSPost2010Prop53
 90
        2
102
RTVSPost2010PropOp53
 70
     1
102
RTVSPost2010Prop54
  1
strokes_ogs.tif
102
RTVSPost2010PropOp54
 70
     1
102
RTVSPost2010Prop55
280
     0
102
RTVSPost2010PropOp55
 70
     1
102
RTVSPost2010Prop56
140
1.0
102
RTVSPost2010PropOp56
 70
     1
102
RTVSPost2010Prop57
140
1.0
102
RTVSPost2010PropOp57
 70
     1
  0
XRECORD
  5
2CD
102
{ACAD_REACTORS
330
2CC
102
}
330
2CC
100
AcDbXrecord
280
     1
102
RTVSPost2010Prop28
280
     0
102
RTVSPost2010PropOp28
 70
     1
102
RTVSPost2010Prop29
280
     1
102
RTVSPost2010PropOp29
 70
     1
102
RTVSPost2010Prop30
280
     1
102
RTVSPost2010PropOp30
 70
     1
102
RTVSPost2010Prop31
280
     0
102
RTVSPost2010PropOp31
 70
     1
102
RTVSPost2010Prop32
280
     0
102
RTVSPost2010PropOp32
 70
     1
102
RTVSPost2010Prop33
280
     0
102
RTVSPost2010PropOp33
 70
     1
102
RTVSPost2010Prop34
280
     0
102
RTVSPost2010PropOp34
 70
     1
102
RTVSPost2010Prop35
280
     0
102
RTVSPost2010PropOp35
 70
     1
102
RTVSPost2010Prop36
280
     0
102
RTVSPost2010PropOp36
 70
     1
102
RTVSPost2010Prop37
 90
       50
102
RTVSPost2010PropOp37
 70
     1
102
RTVSPost2010Prop38
140
0.0
102
RTVSPost2010PropOp38
 70
     1
102
RTVSPost2010Prop39
140
1.0
102
RTVSPost2010PropOp39
 70
     1
102
RTVSPost2010Prop40
 90
        0
102
RTVSPost2010PropOp40
 70
     1
102
RTVSPost2010Prop41ColorIndex
 90
       18
102
RTVSPost2010Prop41ColorRGB
 90
        0
102
RTVSPost2010PropOp41
 70
     1
102
RTVSPost2010Prop42
 90
       50
102
RTVSPost2010PropOp42
 70
     1
102
RTVSPost2010Prop43
 90
        3
102
RTVSPost2010PropOp43
 70
     1
102
RTVSPost2010Prop44ColorIndex
 90
        5
102
RTVSPost2010Prop44ColorRGB
 90
      255
102
RTVSPost2010PropOp44
 70
     1
102
RTVSPost2010Prop45
280
     0
102
RTVSPost2010PropOp45
 70
     1
102
RTVSPost2010Prop46
 90
       50
102
RTVSPost2010PropOp46
 70
     1
102
RTVSPost2010Prop47
 90
       50
102
RTVSPost2010PropOp47
 70
     1
102
RTVSPost2010Prop48
 90
       50
102
RTVSPost2010PropOp48
 70
     1
102
RTVSPost2010Prop49
280
     0
102
RTVSPost2010PropOp49
 70
     1
102
RTVSPost2010Prop50
 90
       50
102
RTVSPost2010PropOp50
 70
     1
102
RTVSPost2010Prop51ColorIndex
 90
      256
102
RTVSPost2010Prop51ColorRGB
 90
-16777216
102
RTVSPost2010PropOp51
 70
     0
102
RTVSPost2010Prop52
140
1.0
102
RTVSPost2010PropOp52
 70
     0
102
RTVSPost2010Prop53
 90
        2
102
RTVSPost2010PropOp53
 70
     1
102
RTVSPost2010Prop54
  1
strokes_ogs.tif
102
RTVSPost2010PropOp54
 70
     1
102
RTVSPost2010Prop55
280
     0
102
RTVSPost2010PropOp55
 70
     1
102
RTVSPost2010Prop56
140
1.0
102
RTVSPost2010PropOp56
 70
     1
102
RTVSPost2010Prop57
140
1.0
102
RTVSPost2010PropOp57
 70
     1
  0
XRECORD
  5
2DB
102
{ACAD_REACTORS
330
2DA
102
}
330
2DA
100
AcDbXrecord
280
     1
102
RTVSPost2010Prop28
280
     0
102
RTVSPost2010PropOp28
 70
     1
102
RTVSPost2010Prop29
280
     1
102
RTVSPost2010PropOp29
 70
     1
102
RTVSPost2010Prop30
280
     1
102
RTVSPost2010PropOp30
 70
     1
102
RTVSPost2010Prop31
280
     0
102
RTVSPost2010PropOp31
 70
     1
102
RTVSPost2010Prop32
280
     0
102
RTVSPost2010PropOp32
 70
     1
102
RTVSPost2010Prop33
280
     0
102
RTVSPost2010PropOp33
 70
     1
102
RTVSPost2010Prop34
280
     0
102
RTVSPost2010PropOp34
 70
     1
102
RTVSPost2010Prop35
280
     0
102
RTVSPost2010PropOp35
 70
     1
102
RTVSPost2010Prop36
280
     0
102
RTVSPost2010PropOp36
 70
     1
102
RTVSPost2010Prop37
 90
       50
102
RTVSPost2010PropOp37
 70
     1
102
RTVSPost2010Prop38
140
0.0
102
RTVSPost2010PropOp38
 70
     1
102
RTVSPost2010Prop39
140
1.0
102
RTVSPost2010PropOp39
 70
     1
102
RTVSPost2010Prop40
 90
        0
102
RTVSPost2010PropOp40
 70
     1
102
RTVSPost2010Prop41ColorIndex
 90
       18
102
RTVSPost2010Prop41ColorRGB
 90
        0
102
RTVSPost2010PropOp41
 70
     1
102
RTVSPost2010Prop42
 90
       50
102
RTVSPost2010PropOp42
 70
     1
102
RTVSPost2010Prop43
 90
        3
102
RTVSPost2010PropOp43
 70
     1
102
RTVSPost2010Prop44ColorIndex
 90
        5
102
RTVSPost2010Prop44ColorRGB
 90
      255
102
RTVSPost2010PropOp44
 70
     1
102
RTVSPost2010Prop45
280
     0
102
RTVSPost2010PropOp45
 70
     1
102
RTVSPost2010Prop46
 90
       50
102
RTVSPost2010PropOp46
 70
     1
102
RTVSPost2010Prop47
 90
       50
102
RTVSPost2010PropOp47
 70
     1
102
RTVSPost2010Prop48
 90
       50
102
RTVSPost2010PropOp48
 70
     1
102
RTVSPost2010Prop49
280
     0
102
RTVSPost2010PropOp49
 70
     1
102
RTVSPost2010Prop50
 90
       50
102
RTVSPost2010PropOp50
 70
     1
102
RTVSPost2010Prop51ColorIndex
 90
      256
102
RTVSPost2010Prop51ColorRGB
 90
-16777216
102
RTVSPost2010PropOp51
 70
     0
102
RTVSPost2010Prop52
140
1.0
102
RTVSPost2010PropOp52
 70
     0
102
RTVSPost2010Prop53
 90
        2
102
RTVSPost2010PropOp53
 70
     1
102
RTVSPost2010Prop54
  1
strokes_ogs.tif
102
RTVSPost2010PropOp54
 70
     1
102
RTVSPost2010Prop55
280
     0
102
RTVSPost2010PropOp55
 70
     1
102
RTVSPost2010Prop56
140
1.0
102
RTVSPost2010PropOp56
 70
     1
102
RTVSPost2010Prop57
140
1.0
102
RTVSPost2010PropOp57
 70
     1
  0
XRECORD
  5
2E3
102
{ACAD_REACTORS
330
2E2
102
}
330
2E2
100
AcDbXrecord
280
     1
102
RTVSPost2010Prop28
280
     0
102
RTVSPost2010PropOp28
 70
     1
102
RTVSPost2010Prop29
280
     1
102
RTVSPost2010PropOp29
 70
     1
102
RTVSPost2010Prop30
280
     1
102
RTVSPost2010PropOp30
 70
     1
102
RTVSPost2010Prop31
280
     0
102
RTVSPost2010PropOp31
 70
     1
102
RTVSPost2010Prop32
280
     0
102
RTVSPost2010PropOp32
 70
     1
102
RTVSPost2010Prop33
280
     0
102
RTVSPost2010PropOp33
 70
     1
102
RTVSPost2010Prop34
280
     0
102
RTVSPost2010PropOp34
 70
     1
102
RTVSPost2010Prop35
280
     0
102
RTVSPost2010PropOp35
 70
     1
102
RTVSPost2010Prop36
280
     0
102
RTVSPost2010PropOp36
 70
     1
102
RTVSPost2010Prop37
 90
       50
102
RTVSPost2010PropOp37
 70
     1
102
RTVSPost2010Prop38
140
0.0
102
RTVSPost2010PropOp38
 70
     1
102
RTVSPost2010Prop39
140
1.0
102
RTVSPost2010PropOp39
 70
     1
102
RTVSPost2010Prop40
 90
        0
102
RTVSPost2010PropOp40
 70
     1
102
RTVSPost2010Prop41ColorIndex
 90
       18
102
RTVSPost2010Prop41ColorRGB
 90
        0
102
RTVSPost2010PropOp41
 70
     1
102
RTVSPost2010Prop42
 90
       50
102
RTVSPost2010PropOp42
 70
     1
102
RTVSPost2010Prop43
 90
        3
102
RTVSPost2010PropOp43
 70
     1
102
RTVSPost2010Prop44ColorIndex
 90
        5
102
RTVSPost2010Prop44ColorRGB
 90
      255
102
RTVSPost2010PropOp44
 70
     1
102
RTVSPost2010Prop45
280
     0
102
RTVSPost2010PropOp45
 70
     1
102
RTVSPost2010Prop46
 90
       50
102
RTVSPost2010PropOp46
 70
     1
102
RTVSPost2010Prop47
 90
       50
102
RTVSPost2010PropOp47
 70
     1
102
RTVSPost2010Prop48
 90
       50
102
RTVSPost2010PropOp48
 70
     1
102
RTVSPost2010Prop49
280
     0
102
RTVSPost2010PropOp49
 70
     1
102
RTVSPost2010Prop50
 90
       50
102
RTVSPost2010PropOp50
 70
     1
102
RTVSPost2010Prop51ColorIndex
 90
      256
102
RTVSPost2010Prop51ColorRGB
 90
-16777216
102
RTVSPost2010PropOp51
 70
     0
102
RTVSPost2010Prop52
140
1.0
102
RTVSPost2010PropOp52
 70
     0
102
RTVSPost2010Prop53
 90
        2
102
RTVSPost2010PropOp53
 70
     1
102
RTVSPost2010Prop54
  1
strokes_ogs.tif
102
RTVSPost2010PropOp54
 70
     1
102
RTVSPost2010Prop55
280
     0
102
RTVSPost2010PropOp55
 70
     1
102
RTVSPost2010Prop56
140
1.0
102
RTVSPost2010PropOp56
 70
     1
102
RTVSPost2010Prop57
140
1.0
102
RTVSPost2010PropOp57
 70
     1
  0
XRECORD
  5
2D5
102
{ACAD_REACTORS
330
2D4
102
}
330
2D4
100
AcDbXrecord
280
     1
102
RTVSPost2010Prop28
280
     0
102
RTVSPost2010PropOp28
 70
     1
102
RTVSPost2010Prop29
280
     1
102
RTVSPost2010PropOp29
 70
     1
102
RTVSPost2010Prop30
280
     1
102
RTVSPost2010PropOp30
 70
     1
102
RTVSPost2010Prop31
280
     0
102
RTVSPost2010PropOp31
 70
     1
102
RTVSPost2010Prop32
280
     0
102
RTVSPost2010PropOp32
 70
     1
102
RTVSPost2010Prop33
280
     0
102
RTVSPost2010PropOp33
 70
     1
102
RTVSPost2010Prop34
280
     0
102
RTVSPost2010PropOp34
 70
     1
102
RTVSPost2010Prop35
280
     0
102
RTVSPost2010PropOp35
 70
     1
102
RTVSPost2010Prop36
280
     0
102
RTVSPost2010PropOp36
 70
     1
102
RTVSPost2010Prop37
 90
       50
102
RTVSPost2010PropOp37
 70
     1
102
RTVSPost2010Prop38
140
0.0
102
RTVSPost2010PropOp38
 70
     1
102
RTVSPost2010Prop39
140
1.0
102
RTVSPost2010PropOp39
 70
     1
102
RTVSPost2010Prop40
 90
        0
102
RTVSPost2010PropOp40
 70
     1
102
RTVSPost2010Prop41ColorIndex
 90
       18
102
RTVSPost2010Prop41ColorRGB
 90
        0
102
RTVSPost2010PropOp41
 70
     1
102
RTVSPost2010Prop42
 90
       50
102
RTVSPost2010PropOp42
 70
     1
102
RTVSPost2010Prop43
 90
        3
102
RTVSPost2010PropOp43
 70
     1
102
RTVSPost2010Prop44ColorIndex
 90
        5
102
RTVSPost2010Prop44ColorRGB
 90
      255
102
RTVSPost2010PropOp44
 70
     1
102
RTVSPost2010Prop45
280
     0
102
RTVSPost2010PropOp45
 70
     1
102
RTVSPost2010Prop46
 90
       50
102
RTVSPost2010PropOp46
 70
     1
102
RTVSPost2010Prop47
 90
       50
102
RTVSPost2010PropOp47
 70
     1
102
RTVSPost2010Prop48
 90
       50
102
RTVSPost2010PropOp48
 70
     1
102
RTVSPost2010Prop49
280
     0
102
RTVSPost2010PropOp49
 70
     1
102
RTVSPost2010Prop50
 90
       50
102
RTVSPost2010PropOp50
 70
     1
102
RTVSPost2010Prop51ColorIndex
 90
      256
102
RTVSPost2010Prop51ColorRGB
 90
-16777216
102
RTVSPost2010PropOp51
 70
     0
102
RTVSPost2010Prop52
140
1.0
102
RTVSPost2010PropOp52
 70
     0
102
RTVSPost2010Prop53
 90
        2
102
RTVSPost2010PropOp53
 70
     1
102
RTVSPost2010Prop54
  1
strokes_ogs.tif
102
RTVSPost2010PropOp54
 70
     1
102
RTVSPost2010Prop55
280
     0
102
RTVSPost2010PropOp55
 70
     1
102
RTVSPost2010Prop56
140
1.0
102
RTVSPost2010PropOp56
 70
     1
102
RTVSPost2010Prop57
140
1.0
102
RTVSPost2010PropOp57
 70
     1
  0
XRECORD
  5
2D9
102
{ACAD_REACTORS
330
2D8
102
}
330
2D8
100
AcDbXrecord
280
     1
102
RTVSPost2010Prop28
280
     0
102
RTVSPost2010PropOp28
 70
     1
102
RTVSPost2010Prop29
280
     1
102
RTVSPost2010PropOp29
 70
     1
102
RTVSPost2010Prop30
280
     1
102
RTVSPost2010PropOp30
 70
     1
102
RTVSPost2010Prop31
280
     0
102
RTVSPost2010PropOp31
 70
     1
102
RTVSPost2010Prop32
280
     0
102
RTVSPost2010PropOp32
 70
     1
102
RTVSPost2010Prop33
280
     0
102
RTVSPost2010PropOp33
 70
     1
102
RTVSPost2010Prop34
280
     0
102
RTVSPost2010PropOp34
 70
     1
102
RTVSPost2010Prop35
280
     0
102
RTVSPost2010PropOp35
 70
     1
102
RTVSPost2010Prop36
280
     0
102
RTVSPost2010PropOp36
 70
     1
102
RTVSPost2010Prop37
 90
       50
102
RTVSPost2010PropOp37
 70
     1
102
RTVSPost2010Prop38
140
0.0
102
RTVSPost2010PropOp38
 70
     1
102
RTVSPost2010Prop39
140
1.0
102
RTVSPost2010PropOp39
 70
     1
102
RTVSPost2010Prop40
 90
        0
102
RTVSPost2010PropOp40
 70
     1
102
RTVSPost2010Prop41ColorIndex
 90
       18
102
RTVSPost2010Prop41ColorRGB
 90
        0
102
RTVSPost2010PropOp41
 70
     1
102
RTVSPost2010Prop42
 90
       50
102
RTVSPost2010PropOp42
 70
     1
102
RTVSPost2010Prop43
 90
        3
102
RTVSPost2010PropOp43
 70
     1
102
RTVSPost2010Prop44ColorIndex
 90
        5
102
RTVSPost2010Prop44ColorRGB
 90
      255
102
RTVSPost2010PropOp44
 70
     1
102
RTVSPost2010Prop45
280
     0
102
RTVSPost2010PropOp45
 70
     1
102
RTVSPost2010Prop46
 90
       50
102
RTVSPost2010PropOp46
 70
     1
102
RTVSPost2010Prop47
 90
       50
102
RTVSPost2010PropOp47
 70
     1
102
RTVSPost2010Prop48
 90
       50
102
RTVSPost2010PropOp48
 70
     1
102
RTVSPost2010Prop49
280
     0
102
RTVSPost2010PropOp49
 70
     1
102
RTVSPost2010Prop50
 90
       50
102
RTVSPost2010PropOp50
 70
     1
102
RTVSPost2010Prop51ColorIndex
 90
      256
102
RTVSPost2010Prop51ColorRGB
 90
-16777216
102
RTVSPost2010PropOp51
 70
     0
102
RTVSPost2010Prop52
140
1.0
102
RTVSPost2010PropOp52
 70
     0
102
RTVSPost2010Prop53
 90
        2
102
RTVSPost2010PropOp53
 70
     1
102
RTVSPost2010Prop54
  1
strokes_ogs.tif
102
RTVSPost2010PropOp54
 70
     1
102
RTVSPost2010Prop55
280
     0
102
RTVSPost2010PropOp55
 70
     1
102
RTVSPost2010Prop56
140
1.0
102
RTVSPost2010PropOp56
 70
     1
102
RTVSPost2010Prop57
140
1.0
102
RTVSPost2010PropOp57
 70
     1
  0
XRECORD
  5
2F3
102
{ACAD_REACTORS
330
2F2
102
}
330
2F2
100
AcDbXrecord
280
     1
102
RTVSPost2010Prop28
280
     0
102
RTVSPost2010PropOp28
 70
     0
102
RTVSPost2010Prop29
280
     1
102
RTVSPost2010PropOp29
 70
     0
102
RTVSPost2010Prop30
280
     1
102
RTVSPost2010PropOp30
 70
     0
102
RTVSPost2010Prop31
280
     0
102
RTVSPost2010PropOp31
 70
     0
102
RTVSPost2010Prop32
280
     0
102
RTVSPost2010PropOp32
 70
     0
102
RTVSPost2010Prop33
280
     0
102
RTVSPost2010PropOp33
 70
     0
102
RTVSPost2010Prop34
280
     0
102
RTVSPost2010PropOp34
 70
     0
102
RTVSPost2010Prop35
280
     0
102
RTVSPost2010PropOp35
 70
     0
102
RTVSPost2010Prop36
280
     0
102
RTVSPost2010PropOp36
 70
     0
102
RTVSPost2010Prop37
 90
       50
102
RTVSPost2010PropOp37
 70
     0
102
RTVSPost2010Prop38
140
0.0
102
RTVSPost2010PropOp38
 70
     0
102
RTVSPost2010Prop39
140
1.0
102
RTVSPost2010PropOp39
 70
     0
102
RTVSPost2010Prop40
 90
        0
102
RTVSPost2010PropOp40
 70
     0
102
RTVSPost2010Prop41ColorIndex
 90
       18
102
RTVSPost2010Prop41ColorRGB
 90
        0
102
RTVSPost2010PropOp41
 70
     0
102
RTVSPost2010Prop42
 90
       50
102
RTVSPost2010PropOp42
 70
     0
102
RTVSPost2010Prop43
 90
        3
102
RTVSPost2010PropOp43
 70
     0
102
RTVSPost2010Prop44ColorIndex
 90
        5
102
RTVSPost2010Prop44ColorRGB
 90
      255
102
RTVSPost2010PropOp44
 70
     0
102
RTVSPost2010Prop45
280
     0
102
RTVSPost2010PropOp45
 70
     0
102
RTVSPost2010Prop46
 90
       50
102
RTVSPost2010PropOp46
 70
     0
102
RTVSPost2010Prop47
 90
       50
102
RTVSPost2010PropOp47
 70
     0
102
RTVSPost2010Prop48
 90
       50
102
RTVSPost2010PropOp48
 70
     0
102
RTVSPost2010Prop49
280
     0
102
RTVSPost2010PropOp49
 70
     0
102
RTVSPost2010Prop50
 90
       50
102
RTVSPost2010PropOp50
 70
     0
102
RTVSPost2010Prop51ColorIndex
 90
      256
102
RTVSPost2010Prop51ColorRGB
 90
-16777216
102
RTVSPost2010PropOp51
 70
     0
102
RTVSPost2010Prop52
140
1.0
102
RTVSPost2010PropOp52
 70
     0
102
RTVSPost2010Prop53
 90
        2
102
RTVSPost2010PropOp53
 70
     0
102
RTVSPost2010Prop54
  1
strokes_ogs.tif
102
RTVSPost2010PropOp54
 70
     0
102
RTVSPost2010Prop55
280
     0
102
RTVSPost2010PropOp55
 70
     0
102
RTVSPost2010Prop56
140
1.0
102
RTVSPost2010PropOp56
 70
     0
102
RTVSPost2010Prop57
140
1.0
102
RTVSPost2010PropOp57
 70
     0
  0
XRECORD
  5
2E1
102
{ACAD_REACTORS
330
2E0
102
}
330
2E0
100
AcDbXrecord
280
     1
102
RTVSPost2010Prop28
280
     0
102
RTVSPost2010PropOp28
 70
     1
102
RTVSPost2010Prop29
280
     1
102
RTVSPost2010PropOp29
 70
     1
102
RTVSPost2010Prop30
280
     1
102
RTVSPost2010PropOp30
 70
     1
102
RTVSPost2010Prop31
280
     0
102
RTVSPost2010PropOp31
 70
     1
102
RTVSPost2010Prop32
280
     0
102
RTVSPost2010PropOp32
 70
     1
102
RTVSPost2010Prop33
280
     0
102
RTVSPost2010PropOp33
 70
     1
102
RTVSPost2010Prop34
280
     0
102
RTVSPost2010PropOp34
 70
     1
102
RTVSPost2010Prop35
280
     0
102
RTVSPost2010PropOp35
 70
     1
102
RTVSPost2010Prop36
280
     0
102
RTVSPost2010PropOp36
 70
     1
102
RTVSPost2010Prop37
 90
       50
102
RTVSPost2010PropOp37
 70
     1
102
RTVSPost2010Prop38
140
0.0
102
RTVSPost2010PropOp38
 70
     1
102
RTVSPost2010Prop39
140
1.0
102
RTVSPost2010PropOp39
 70
     1
102
RTVSPost2010Prop40
 90
        0
102
RTVSPost2010PropOp40
 70
     1
102
RTVSPost2010Prop41ColorIndex
 90
       18
102
RTVSPost2010Prop41ColorRGB
 90
        0
102
RTVSPost2010PropOp41
 70
     1
102
RTVSPost2010Prop42
 90
       50
102
RTVSPost2010PropOp42
 70
     1
102
RTVSPost2010Prop43
 90
        3
102
RTVSPost2010PropOp43
 70
     1
102
RTVSPost2010Prop44ColorIndex
 90
        5
102
RTVSPost2010Prop44ColorRGB
 90
      255
102
RTVSPost2010PropOp44
 70
     1
102
RTVSPost2010Prop45
280
     0
102
RTVSPost2010PropOp45
 70
     1
102
RTVSPost2010Prop46
 90
       50
102
RTVSPost2010PropOp46
 70
     1
102
RTVSPost2010Prop47
 90
       50
102
RTVSPost2010PropOp47
 70
     1
102
RTVSPost2010Prop48
 90
       50
102
RTVSPost2010PropOp48
 70
     1
102
RTVSPost2010Prop49
280
     0
102
RTVSPost2010PropOp49
 70
     1
102
RTVSPost2010Prop50
 90
       50
102
RTVSPost2010PropOp50
 70
     1
102
RTVSPost2010Prop51ColorIndex
 90
      256
102
RTVSPost2010Prop51ColorRGB
 90
-16777216
102
RTVSPost2010PropOp51
 70
     0
102
RTVSPost2010Prop52
140
1.0
102
RTVSPost2010PropOp52
 70
     0
102
RTVSPost2010Prop53
 90
        2
102
RTVSPost2010PropOp53
 70
     1
102
RTVSPost2010Prop54
  1
strokes_ogs.tif
102
RTVSPost2010PropOp54
 70
     1
102
RTVSPost2010Prop55
280
     0
102
RTVSPost2010PropOp55
 70
     1
102
RTVSPost2010Prop56
140
1.0
102
RTVSPost2010PropOp56
 70
     1
102
RTVSPost2010Prop57
140
1.0
102
RTVSPost2010PropOp57
 70
     1
  0
XRECORD
  5
2C5
102
{ACAD_REACTORS
330
2C4
102
}
330
2C4
100
AcDbXrecord
280
     1
102
RTVSPost2010Prop28
280
     0
102
RTVSPost2010PropOp28
 70
     1
102
RTVSPost2010Prop29
280
     1
102
RTVSPost2010PropOp29
 70
     1
102
RTVSPost2010Prop30
280
     1
102
RTVSPost2010PropOp30
 70
     1
102
RTVSPost2010Prop31
280
     0
102
RTVSPost2010PropOp31
 70
     1
102
RTVSPost2010Prop32
280
     0
102
RTVSPost2010PropOp32
 70
     1
102
RTVSPost2010Prop33
280
     0
102
RTVSPost2010PropOp33
 70
     1
102
RTVSPost2010Prop34
280
     0
102
RTVSPost2010PropOp34
 70
     1
102
RTVSPost2010Prop35
280
     0
102
RTVSPost2010PropOp35
 70
     1
102
RTVSPost2010Prop36
280
     0
102
RTVSPost2010PropOp36
 70
     1
102
RTVSPost2010Prop37
 90
       50
102
RTVSPost2010PropOp37
 70
     1
102
RTVSPost2010Prop38
140
0.0
102
RTVSPost2010PropOp38
 70
     1
102
RTVSPost2010Prop39
140
1.0
102
RTVSPost2010PropOp39
 70
     1
102
RTVSPost2010Prop40
 90
        0
102
RTVSPost2010PropOp40
 70
     1
102
RTVSPost2010Prop41ColorIndex
 90
       18
102
RTVSPost2010Prop41ColorRGB
 90
        0
102
RTVSPost2010PropOp41
 70
     1
102
RTVSPost2010Prop42
 90
       50
102
RTVSPost2010PropOp42
 70
     1
102
RTVSPost2010Prop43
 90
        3
102
RTVSPost2010PropOp43
 70
     1
102
RTVSPost2010Prop44ColorIndex
 90
        5
102
RTVSPost2010Prop44ColorRGB
 90
      255
102
RTVSPost2010PropOp44
 70
     1
102
RTVSPost2010Prop45
280
     0
102
RTVSPost2010PropOp45
 70
     1
102
RTVSPost2010Prop46
 90
       50
102
RTVSPost2010PropOp46
 70
     1
102
RTVSPost2010Prop47
 90
       50
102
RTVSPost2010PropOp47
 70
     1
102
RTVSPost2010Prop48
 90
       50
102
RTVSPost2010PropOp48
 70
     1
102
RTVSPost2010Prop49
280
     0
102
RTVSPost2010PropOp49
 70
     1
102
RTVSPost2010Prop50
 90
       50
102
RTVSPost2010PropOp50
 70
     1
102
RTVSPost2010Prop51ColorIndex
 90
      256
102
RTVSPost2010Prop51ColorRGB
 90
-16777216
102
RTVSPost2010PropOp51
 70
     0
102
RTVSPost2010Prop52
140
1.0
102
RTVSPost2010PropOp52
 70
     0
102
RTVSPost2010Prop53
 90
        2
102
RTVSPost2010PropOp53
 70
     1
102
RTVSPost2010Prop54
  1
strokes_ogs.tif
102
RTVSPost2010PropOp54
 70
     1
102
RTVSPost2010Prop55
280
     0
102
RTVSPost2010PropOp55
 70
     1
102
RTVSPost2010Prop56
140
1.0
102
RTVSPost2010PropOp56
 70
     1
102
RTVSPost2010Prop57
140
1.0
102
RTVSPost2010PropOp57
 70
     1
  0
XRECORD
  5
2C7
102
{ACAD_REACTORS
330
2C6
102
}
330
2C6
100
AcDbXrecord
280
     1
102
RTVSPost2010Prop28
280
     0
102
RTVSPost2010PropOp28
 70
     1
102
RTVSPost2010Prop29
280
     1
102
RTVSPost2010PropOp29
 70
     1
102
RTVSPost2010Prop30
280
     1
102
RTVSPost2010PropOp30
 70
     1
102
RTVSPost2010Prop31
280
     0
102
RTVSPost2010PropOp31
 70
     1
102
RTVSPost2010Prop32
280
     0
102
RTVSPost2010PropOp32
 70
     1
102
RTVSPost2010Prop33
280
     0
102
RTVSPost2010PropOp33
 70
     1
102
RTVSPost2010Prop34
280
     0
102
RTVSPost2010PropOp34
 70
     1
102
RTVSPost2010Prop35
280
     0
102
RTVSPost2010PropOp35
 70
     1
102
RTVSPost2010Prop36
280
     0
102
RTVSPost2010PropOp36
 70
     1
102
RTVSPost2010Prop37
 90
       50
102
RTVSPost2010PropOp37
 70
     1
102
RTVSPost2010Prop38
140
0.0
102
RTVSPost2010PropOp38
 70
     1
102
RTVSPost2010Prop39
140
1.0
102
RTVSPost2010PropOp39
 70
     1
102
RTVSPost2010Prop40
 90
        0
102
RTVSPost2010PropOp40
 70
     1
102
RTVSPost2010Prop41ColorIndex
 90
       18
102
RTVSPost2010Prop41ColorRGB
 90
        0
102
RTVSPost2010PropOp41
 70
     1
102
RTVSPost2010Prop42
 90
       50
102
RTVSPost2010PropOp42
 70
     1
102
RTVSPost2010Prop43
 90
        3
102
RTVSPost2010PropOp43
 70
     1
102
RTVSPost2010Prop44ColorIndex
 90
        5
102
RTVSPost2010Prop44ColorRGB
 90
      255
102
RTVSPost2010PropOp44
 70
     1
102
RTVSPost2010Prop45
280
     0
102
RTVSPost2010PropOp45
 70
     1
102
RTVSPost2010Prop46
 90
       50
102
RTVSPost2010PropOp46
 70
     1
102
RTVSPost2010Prop47
 90
       50
102
RTVSPost2010PropOp47
 70
     1
102
RTVSPost2010Prop48
 90
       50
102
RTVSPost2010PropOp48
 70
     1
102
RTVSPost2010Prop49
280
     0
102
RTVSPost2010PropOp49
 70
     1
102
RTVSPost2010Prop50
 90
       50
102
RTVSPost2010PropOp50
 70
     1
102
RTVSPost2010Prop51ColorIndex
 90
      256
102
RTVSPost2010Prop51ColorRGB
 90
-16777216
102
RTVSPost2010PropOp51
 70
     0
102
RTVSPost2010Prop52
140
1.0
102
RTVSPost2010PropOp52
 70
     0
102
RTVSPost2010Prop53
 90
        2
102
RTVSPost2010PropOp53
 70
     1
102
RTVSPost2010Prop54
  1
strokes_ogs.tif
102
RTVSPost2010PropOp54
 70
     1
102
RTVSPost2010Prop55
280
     0
102
RTVSPost2010PropOp55
 70
     1
102
RTVSPost2010Prop56
140
1.0
102
RTVSPost2010PropOp56
 70
     1
102
RTVSPost2010Prop57
140
1.0
102
RTVSPost2010PropOp57
 70
     1
  0
XRECORD
  5
2C9
102
{ACAD_REACTORS
330
2C8
102
}
330
2C8
100
AcDbXrecord
280
     1
102
RTVSPost2010Prop28
280
     0
102
RTVSPost2010PropOp28
 70
     1
102
RTVSPost2010Prop29
280
     1
102
RTVSPost2010PropOp29
 70
     1
102
RTVSPost2010Prop30
280
     1
102
RTVSPost2010PropOp30
 70
     1
102
RTVSPost2010Prop31
280
     0
102
RTVSPost2010PropOp31
 70
     1
102
RTVSPost2010Prop32
280
     0
102
RTVSPost2010PropOp32
 70
     1
102
RTVSPost2010Prop33
280
     0
102
RTVSPost2010PropOp33
 70
     1
102
RTVSPost2010Prop34
280
     0
102
RTVSPost2010PropOp34
 70
     1
102
RTVSPost2010Prop35
280
     0
102
RTVSPost2010PropOp35
 70
     1
102
RTVSPost2010Prop36
280
     0
102
RTVSPost2010PropOp36
 70
     1
102
RTVSPost2010Prop37
 90
       50
102
RTVSPost2010PropOp37
 70
     1
102
RTVSPost2010Prop38
140
0.0
102
RTVSPost2010PropOp38
 70
     1
102
RTVSPost2010Prop39
140
1.0
102
RTVSPost2010PropOp39
 70
     1
102
RTVSPost2010Prop40
 90
        0
102
RTVSPost2010PropOp40
 70
     1
102
RTVSPost2010Prop41ColorIndex
 90
       18
102
RTVSPost2010Prop41ColorRGB
 90
        0
102
RTVSPost2010PropOp41
 70
     1
102
RTVSPost2010Prop42
 90
       50
102
RTVSPost2010PropOp42
 70
     1
102
RTVSPost2010Prop43
 90
        3
102
RTVSPost2010PropOp43
 70
     1
102
RTVSPost2010Prop44ColorIndex
 90
        5
102
RTVSPost2010Prop44ColorRGB
 90
      255
102
RTVSPost2010PropOp44
 70
     1
102
RTVSPost2010Prop45
280
     0
102
RTVSPost2010PropOp45
 70
     1
102
RTVSPost2010Prop46
 90
       50
102
RTVSPost2010PropOp46
 70
     1
102
RTVSPost2010Prop47
 90
       50
102
RTVSPost2010PropOp47
 70
     1
102
RTVSPost2010Prop48
 90
       50
102
RTVSPost2010PropOp48
 70
     1
102
RTVSPost2010Prop49
280
     0
102
RTVSPost2010PropOp49
 70
     1
102
RTVSPost2010Prop50
 90
       50
102
RTVSPost2010PropOp50
 70
     1
102
RTVSPost2010Prop51ColorIndex
 90
      256
102
RTVSPost2010Prop51ColorRGB
 90
-16777216
102
RTVSPost2010PropOp51
 70
     0
102
RTVSPost2010Prop52
140
1.0
102
RTVSPost2010PropOp52
 70
     0
102
RTVSPost2010Prop53
 90
        2
102
RTVSPost2010PropOp53
 70
     1
102
RTVSPost2010Prop54
  1
strokes_ogs.tif
102
RTVSPost2010PropOp54
 70
     1
102
RTVSPost2010Prop55
280
     0
102
RTVSPost2010PropOp55
 70
     1
102
RTVSPost2010Prop56
140
1.0
102
RTVSPost2010PropOp56
 70
     1
102
RTVSPost2010Prop57
140
1.0
102
RTVSPost2010PropOp57
 70
     1
  0
XRECORD
  5
2CB
102
{ACAD_REACTORS
330
2CA
102
}
330
2CA
100
AcDbXrecord
280
     1
102
RTVSPost2010Prop28
280
     0
102
RTVSPost2010PropOp28
 70
     1
102
RTVSPost2010Prop29
280
     1
102
RTVSPost2010PropOp29
 70
     1
102
RTVSPost2010Prop30
280
     1
102
RTVSPost2010PropOp30
 70
     1
102
RTVSPost2010Prop31
280
     0
102
RTVSPost2010PropOp31
 70
     1
102
RTVSPost2010Prop32
280
     0
102
RTVSPost2010PropOp32
 70
     1
102
RTVSPost2010Prop33
280
     0
102
RTVSPost2010PropOp33
 70
     1
102
RTVSPost2010Prop34
280
     0
102
RTVSPost2010PropOp34
 70
     1
102
RTVSPost2010Prop35
280
     0
102
RTVSPost2010PropOp35
 70
     1
102
RTVSPost2010Prop36
280
     0
102
RTVSPost2010PropOp36
 70
     1
102
RTVSPost2010Prop37
 90
       50
102
RTVSPost2010PropOp37
 70
     1
102
RTVSPost2010Prop38
140
0.0
102
RTVSPost2010PropOp38
 70
     1
102
RTVSPost2010Prop39
140
1.0
102
RTVSPost2010PropOp39
 70
     1
102
RTVSPost2010Prop40
 90
        0
102
RTVSPost2010PropOp40
 70
     1
102
RTVSPost2010Prop41ColorIndex
 90
       18
102
RTVSPost2010Prop41ColorRGB
 90
        0
102
RTVSPost2010PropOp41
 70
     1
102
RTVSPost2010Prop42
 90
       50
102
RTVSPost2010PropOp42
 70
     1
102
RTVSPost2010Prop43
 90
        3
102
RTVSPost2010PropOp43
 70
     1
102
RTVSPost2010Prop44ColorIndex
 90
        5
102
RTVSPost2010Prop44ColorRGB
 90
      255
102
RTVSPost2010PropOp44
 70
     1
102
RTVSPost2010Prop45
280
     0
102
RTVSPost2010PropOp45
 70
     1
102
RTVSPost2010Prop46
 90
       50
102
RTVSPost2010PropOp46
 70
     1
102
RTVSPost2010Prop47
 90
       50
102
RTVSPost2010PropOp47
 70
     1
102
RTVSPost2010Prop48
 90
       50
102
RTVSPost2010PropOp48
 70
     1
102
RTVSPost2010Prop49
280
     0
102
RTVSPost2010PropOp49
 70
     1
102
RTVSPost2010Prop50
 90
       50
102
RTVSPost2010PropOp50
 70
     1
102
RTVSPost2010Prop51ColorIndex
 90
      256
102
RTVSPost2010Prop51ColorRGB
 90
-16777216
102
RTVSPost2010PropOp51
 70
     0
102
RTVSPost2010Prop52
140
1.0
102
RTVSPost2010PropOp52
 70
     0
102
RTVSPost2010Prop53
 90
        2
102
RTVSPost2010PropOp53
 70
     1
102
RTVSPost2010Prop54
  1
strokes_ogs.tif
102
RTVSPost2010PropOp54
 70
     1
102
RTVSPost2010Prop55
280
     0
102
RTVSPost2010PropOp55
 70
     1
102
RTVSPost2010Prop56
140
1.0
102
RTVSPost2010PropOp56
 70
     1
102
RTVSPost2010Prop57
140
1.0
102
RTVSPost2010PropOp57
 70
     1
  0
XRECORD
  5
2D3
102
{ACAD_REACTORS
330
2D2
102
}
330
2D2
100
AcDbXrecord
280
     1
102
RTVSPost2010Prop28
280
     0
102
RTVSPost2010PropOp28
 70
     1
102
RTVSPost2010Prop29
280
     1
102
RTVSPost2010PropOp29
 70
     1
102
RTVSPost2010Prop30
280
     1
102
RTVSPost2010PropOp30
 70
     1
102
RTVSPost2010Prop31
280
     0
102
RTVSPost2010PropOp31
 70
     1
102
RTVSPost2010Prop32
280
     0
102
RTVSPost2010PropOp32
 70
     1
102
RTVSPost2010Prop33
280
     0
102
RTVSPost2010PropOp33
 70
     1
102
RTVSPost2010Prop34
280
     0
102
RTVSPost2010PropOp34
 70
     1
102
RTVSPost2010Prop35
280
     0
102
RTVSPost2010PropOp35
 70
     1
102
RTVSPost2010Prop36
280
     0
102
RTVSPost2010PropOp36
 70
     1
102
RTVSPost2010Prop37
 90
       50
102
RTVSPost2010PropOp37
 70
     1
102
RTVSPost2010Prop38
140
0.0
102
RTVSPost2010PropOp38
 70
     1
102
RTVSPost2010Prop39
140
1.0
102
RTVSPost2010PropOp39
 70
     1
102
RTVSPost2010Prop40
 90
        0
102
RTVSPost2010PropOp40
 70
     1
102
RTVSPost2010Prop41ColorIndex
 90
       18
102
RTVSPost2010Prop41ColorRGB
 90
        0
102
RTVSPost2010PropOp41
 70
     1
102
RTVSPost2010Prop42
 90
       50
102
RTVSPost2010PropOp42
 70
     1
102
RTVSPost2010Prop43
 90
        3
102
RTVSPost2010PropOp43
 70
     1
102
RTVSPost2010Prop44ColorIndex
 90
        5
102
RTVSPost2010Prop44ColorRGB
 90
      255
102
RTVSPost2010PropOp44
 70
     1
102
RTVSPost2010Prop45
280
     0
102
RTVSPost2010PropOp45
 70
     1
102
RTVSPost2010Prop46
 90
       50
102
RTVSPost2010PropOp46
 70
     1
102
RTVSPost2010Prop47
 90
       50
102
RTVSPost2010PropOp47
 70
     1
102
RTVSPost2010Prop48
 90
       50
102
RTVSPost2010PropOp48
 70
     1
102
RTVSPost2010Prop49
280
     0
102
RTVSPost2010PropOp49
 70
     1
102
RTVSPost2010Prop50
 90
       50
102
RTVSPost2010PropOp50
 70
     1
102
RTVSPost2010Prop51ColorIndex
 90
      256
102
RTVSPost2010Prop51ColorRGB
 90
-16777216
102
RTVSPost2010PropOp51
 70
     0
102
RTVSPost2010Prop52
140
1.0
102
RTVSPost2010PropOp52
 70
     0
102
RTVSPost2010Prop53
 90
        2
102
RTVSPost2010PropOp53
 70
     1
102
RTVSPost2010Prop54
  1
strokes_ogs.tif
102
RTVSPost2010PropOp54
 70
     1
102
RTVSPost2010Prop55
280
     0
102
RTVSPost2010PropOp55
 70
     1
102
RTVSPost2010Prop56
140
1.0
102
RTVSPost2010PropOp56
 70
     1
102
RTVSPost2010Prop57
140
1.0
102
RTVSPost2010PropOp57
 70
     1
  0
XRECORD
  5
2EF
102
{ACAD_REACTORS
330
2EE
102
}
330
2EE
100
AcDbXrecord
280
     1
102
RTVSPost2010Prop28
280
     0
102
RTVSPost2010PropOp28
 70
     0
102
RTVSPost2010Prop29
280
     1
102
RTVSPost2010PropOp29
 70
     0
102
RTVSPost2010Prop30
280
     1
102
RTVSPost2010PropOp30
 70
     0
102
RTVSPost2010Prop31
280
     0
102
RTVSPost2010PropOp31
 70
     0
102
RTVSPost2010Prop32
280
     0
102
RTVSPost2010PropOp32
 70
     0
102
RTVSPost2010Prop33
280
     0
102
RTVSPost2010PropOp33
 70
     0
102
RTVSPost2010Prop34
280
     0
102
RTVSPost2010PropOp34
 70
     0
102
RTVSPost2010Prop35
280
     0
102
RTVSPost2010PropOp35
 70
     0
102
RTVSPost2010Prop36
280
     0
102
RTVSPost2010PropOp36
 70
     0
102
RTVSPost2010Prop37
 90
       50
102
RTVSPost2010PropOp37
 70
     0
102
RTVSPost2010Prop38
140
0.0
102
RTVSPost2010PropOp38
 70
     0
102
RTVSPost2010Prop39
140
1.0
102
RTVSPost2010PropOp39
 70
     0
102
RTVSPost2010Prop40
 90
        0
102
RTVSPost2010PropOp40
 70
     0
102
RTVSPost2010Prop41ColorIndex
 90
       18
102
RTVSPost2010Prop41ColorRGB
 90
        0
102
RTVSPost2010PropOp41
 70
     0
102
RTVSPost2010Prop42
 90
       50
102
RTVSPost2010PropOp42
 70
     0
102
RTVSPost2010Prop43
 90
        3
102
RTVSPost2010PropOp43
 70
     0
102
RTVSPost2010Prop44ColorIndex
 90
        5
102
RTVSPost2010Prop44ColorRGB
 90
      255
102
RTVSPost2010PropOp44
 70
     0
102
RTVSPost2010Prop45
280
     0
102
RTVSPost2010PropOp45
 70
     0
102
RTVSPost2010Prop46
 90
       50
102
RTVSPost2010PropOp46
 70
     0
102
RTVSPost2010Prop47
 90
       50
102
RTVSPost2010PropOp47
 70
     0
102
RTVSPost2010Prop48
 90
       50
102
RTVSPost2010PropOp48
 70
     0
102
RTVSPost2010Prop49
280
     0
102
RTVSPost2010PropOp49
 70
     0
102
RTVSPost2010Prop50
 90
       50
102
RTVSPost2010PropOp50
 70
     0
102
RTVSPost2010Prop51ColorIndex
 90
      256
102
RTVSPost2010Prop51ColorRGB
 90
-16777216
102
RTVSPost2010PropOp51
 70
     0
102
RTVSPost2010Prop52
140
1.0
102
RTVSPost2010PropOp52
 70
     0
102
RTVSPost2010Prop53
 90
        2
102
RTVSPost2010PropOp53
 70
     0
102
RTVSPost2010Prop54
  1
strokes_ogs.tif
102
RTVSPost2010PropOp54
 70
     0
102
RTVSPost2010Prop55
280
     0
102
RTVSPost2010PropOp55
 70
     0
102
RTVSPost2010Prop56
140
1.0
102
RTVSPost2010PropOp56
 70
     0
102
RTVSPost2010Prop57
140
1.0
102
RTVSPost2010PropOp57
 70
     0
  0
XRECORD
  5
2DF
102
{ACAD_REACTORS
330
2DE
102
}
330
2DE
100
AcDbXrecord
280
     1
102
RTVSPost2010Prop28
280
     0
102
RTVSPost2010PropOp28
 70
     1
102
RTVSPost2010Prop29
280
     1
102
RTVSPost2010PropOp29
 70
     1
102
RTVSPost2010Prop30
280
     1
102
RTVSPost2010PropOp30
 70
     1
102
RTVSPost2010Prop31
280
     0
102
RTVSPost2010PropOp31
 70
     1
102
RTVSPost2010Prop32
280
     0
102
RTVSPost2010PropOp32
 70
     1
102
RTVSPost2010Prop33
280
     0
102
RTVSPost2010PropOp33
 70
     1
102
RTVSPost2010Prop34
280
     0
102
RTVSPost2010PropOp34
 70
     1
102
RTVSPost2010Prop35
280
     0
102
RTVSPost2010PropOp35
 70
     1
102
RTVSPost2010Prop36
280
     0
102
RTVSPost2010PropOp36
 70
     1
102
RTVSPost2010Prop37
 90
       50
102
RTVSPost2010PropOp37
 70
     1
102
RTVSPost2010Prop38
140
0.0
102
RTVSPost2010PropOp38
 70
     1
102
RTVSPost2010Prop39
140
1.0
102
RTVSPost2010PropOp39
 70
     1
102
RTVSPost2010Prop40
 90
        0
102
RTVSPost2010PropOp40
 70
     1
102
RTVSPost2010Prop41ColorIndex
 90
       18
102
RTVSPost2010Prop41ColorRGB
 90
        0
102
RTVSPost2010PropOp41
 70
     1
102
RTVSPost2010Prop42
 90
       50
102
RTVSPost2010PropOp42
 70
     1
102
RTVSPost2010Prop43
 90
        3
102
RTVSPost2010PropOp43
 70
     1
102
RTVSPost2010Prop44ColorIndex
 90
        5
102
RTVSPost2010Prop44ColorRGB
 90
      255
102
RTVSPost2010PropOp44
 70
     1
102
RTVSPost2010Prop45
280
     0
102
RTVSPost2010PropOp45
 70
     1
102
RTVSPost2010Prop46
 90
       50
102
RTVSPost2010PropOp46
 70
     1
102
RTVSPost2010Prop47
 90
       50
102
RTVSPost2010PropOp47
 70
     1
102
RTVSPost2010Prop48
 90
       50
102
RTVSPost2010PropOp48
 70
     1
102
RTVSPost2010Prop49
280
     0
102
RTVSPost2010PropOp49
 70
     1
102
RTVSPost2010Prop50
 90
       50
102
RTVSPost2010PropOp50
 70
     1
102
RTVSPost2010Prop51ColorIndex
 90
      256
102
RTVSPost2010Prop51ColorRGB
 90
-16777216
102
RTVSPost2010PropOp51
 70
     0
102
RTVSPost2010Prop52
140
1.0
102
RTVSPost2010PropOp52
 70
     0
102
RTVSPost2010Prop53
 90
        2
102
RTVSPost2010PropOp53
 70
     1
102
RTVSPost2010Prop54
  1
strokes_ogs.tif
102
RTVSPost2010PropOp54
 70
     1
102
RTVSPost2010Prop55
280
     0
102
RTVSPost2010PropOp55
 70
     1
102
RTVSPost2010Prop56
140
1.0
102
RTVSPost2010PropOp56
 70
     1
102
RTVSPost2010Prop57
140
1.0
102
RTVSPost2010PropOp57
 70
     1
  0
XRECORD
  5
2F1
102
{ACAD_REACTORS
330
2F0
102
}
330
2F0
100
AcDbXrecord
280
     1
102
RTVSPost2010Prop28
280
     0
102
RTVSPost2010PropOp28
 70
     0
102
RTVSPost2010Prop29
280
     1
102
RTVSPost2010PropOp29
 70
     0
102
RTVSPost2010Prop30
280
     1
102
RTVSPost2010PropOp30
 70
     0
102
RTVSPost2010Prop31
280
     0
102
RTVSPost2010PropOp31
 70
     0
102
RTVSPost2010Prop32
280
     0
102
RTVSPost2010PropOp32
 70
     0
102
RTVSPost2010Prop33
280
     0
102
RTVSPost2010PropOp33
 70
     0
102
RTVSPost2010Prop34
280
     0
102
RTVSPost2010PropOp34
 70
     0
102
RTVSPost2010Prop35
280
     0
102
RTVSPost2010PropOp35
 70
     0
102
RTVSPost2010Prop36
280
     0
102
RTVSPost2010PropOp36
 70
     0
102
RTVSPost2010Prop37
 90
       50
102
RTVSPost2010PropOp37
 70
     0
102
RTVSPost2010Prop38
140
0.0
102
RTVSPost2010PropOp38
 70
     0
102
RTVSPost2010Prop39
140
1.0
102
RTVSPost2010PropOp39
 70
     0
102
RTVSPost2010Prop40
 90
        0
102
RTVSPost2010PropOp40
 70
     0
102
RTVSPost2010Prop41ColorIndex
 90
       18
102
RTVSPost2010Prop41ColorRGB
 90
        0
102
RTVSPost2010PropOp41
 70
     0
102
RTVSPost2010Prop42
 90
       50
102
RTVSPost2010PropOp42
 70
     0
102
RTVSPost2010Prop43
 90
        3
102
RTVSPost2010PropOp43
 70
     0
102
RTVSPost2010Prop44ColorIndex
 90
        5
102
RTVSPost2010Prop44ColorRGB
 90
      255
102
RTVSPost2010PropOp44
 70
     0
102
RTVSPost2010Prop45
280
     0
102
RTVSPost2010PropOp45
 70
     0
102
RTVSPost2010Prop46
 90
       50
102
RTVSPost2010PropOp46
 70
     0
102
RTVSPost2010Prop47
 90
       50
102
RTVSPost2010PropOp47
 70
     0
102
RTVSPost2010Prop48
 90
       50
102
RTVSPost2010PropOp48
 70
     0
102
RTVSPost2010Prop49
280
     0
102
RTVSPost2010PropOp49
 70
     0
102
RTVSPost2010Prop50
 90
       50
102
RTVSPost2010PropOp50
 70
     0
102
RTVSPost2010Prop51ColorIndex
 90
      256
102
RTVSPost2010Prop51ColorRGB
 90
-16777216
102
RTVSPost2010PropOp51
 70
     0
102
RTVSPost2010Prop52
140
1.0
102
RTVSPost2010PropOp52
 70
     0
102
RTVSPost2010Prop53
 90
        2
102
RTVSPost2010PropOp53
 70
     0
102
RTVSPost2010Prop54
  1
strokes_ogs.tif
102
RTVSPost2010PropOp54
 70
     0
102
RTVSPost2010Prop55
280
     0
102
RTVSPost2010PropOp55
 70
     0
102
RTVSPost2010Prop56
140
1.0
102
RTVSPost2010PropOp56
 70
     0
102
RTVSPost2010Prop57
140
1.0
102
RTVSPost2010PropOp57
 70
     0
  0
XRECORD
  5
2D7
102
{ACAD_REACTORS
330
2D6
102
}
330
2D6
100
AcDbXrecord
280
     1
102
RTVSPost2010Prop28
280
     0
102
RTVSPost2010PropOp28
 70
     1
102
RTVSPost2010Prop29
280
     1
102
RTVSPost2010PropOp29
 70
     1
102
RTVSPost2010Prop30
280
     1
102
RTVSPost2010PropOp30
 70
     1
102
RTVSPost2010Prop31
280
     0
102
RTVSPost2010PropOp31
 70
     1
102
RTVSPost2010Prop32
280
     0
102
RTVSPost2010PropOp32
 70
     1
102
RTVSPost2010Prop33
280
     0
102
RTVSPost2010PropOp33
 70
     1
102
RTVSPost2010Prop34
280
     0
102
RTVSPost2010PropOp34
 70
     1
102
RTVSPost2010Prop35
280
     0
102
RTVSPost2010PropOp35
 70
     1
102
RTVSPost2010Prop36
280
     0
102
RTVSPost2010PropOp36
 70
     1
102
RTVSPost2010Prop37
 90
       50
102
RTVSPost2010PropOp37
 70
     1
102
RTVSPost2010Prop38
140
0.0
102
RTVSPost2010PropOp38
 70
     1
102
RTVSPost2010Prop39
140
1.0
102
RTVSPost2010PropOp39
 70
     1
102
RTVSPost2010Prop40
 90
        0
102
RTVSPost2010PropOp40
 70
     1
102
RTVSPost2010Prop41ColorIndex
 90
       18
102
RTVSPost2010Prop41ColorRGB
 90
        0
102
RTVSPost2010PropOp41
 70
     1
102
RTVSPost2010Prop42
 90
       50
102
RTVSPost2010PropOp42
 70
     1
102
RTVSPost2010Prop43
 90
        3
102
RTVSPost2010PropOp43
 70
     1
102
RTVSPost2010Prop44ColorIndex
 90
        5
102
RTVSPost2010Prop44ColorRGB
 90
      255
102
RTVSPost2010PropOp44
 70
     1
102
RTVSPost2010Prop45
280
     0
102
RTVSPost2010PropOp45
 70
     1
102
RTVSPost2010Prop46
 90
       50
102
RTVSPost2010PropOp46
 70
     1
102
RTVSPost2010Prop47
 90
       50
102
RTVSPost2010PropOp47
 70
     1
102
RTVSPost2010Prop48
 90
       50
102
RTVSPost2010PropOp48
 70
     1
102
RTVSPost2010Prop49
280
     0
102
RTVSPost2010PropOp49
 70
     1
102
RTVSPost2010Prop50
 90
       50
102
RTVSPost2010PropOp50
 70
     1
102
RTVSPost2010Prop51ColorIndex
 90
      256
102
RTVSPost2010Prop51ColorRGB
 90
-16777216
102
RTVSPost2010PropOp51
 70
     0
102
RTVSPost2010Prop52
140
1.0
102
RTVSPost2010PropOp52
 70
     0
102
RTVSPost2010Prop53
 90
        2
102
RTVSPost2010PropOp53
 70
     1
102
RTVSPost2010Prop54
  1
strokes_ogs.tif
102
RTVSPost2010PropOp54
 70
     1
102
RTVSPost2010Prop55
280
     0
102
RTVSPost2010PropOp55
 70
     1
102
RTVSPost2010Prop56
140
1.0
102
RTVSPost2010PropOp56
 70
     1
102
RTVSPost2010Prop57
140
1.0
102
RTVSPost2010PropOp57
 70
     1
  0
XRECORD
  5
2ED
102
{ACAD_REACTORS
330
2EC
102
}
330
2EC
100
AcDbXrecord
280
     1
102
RTVSPost2010Prop28
280
     0
102
RTVSPost2010PropOp28
 70
     1
102
RTVSPost2010Prop29
280
     1
102
RTVSPost2010PropOp29
 70
     1
102
RTVSPost2010Prop30
280
     1
102
RTVSPost2010PropOp30
 70
     1
102
RTVSPost2010Prop31
280
     0
102
RTVSPost2010PropOp31
 70
     1
102
RTVSPost2010Prop32
280
     0
102
RTVSPost2010PropOp32
 70
     1
102
RTVSPost2010Prop33
280
     0
102
RTVSPost2010PropOp33
 70
     1
102
RTVSPost2010Prop34
280
     0
102
RTVSPost2010PropOp34
 70
     1
102
RTVSPost2010Prop35
280
     0
102
RTVSPost2010PropOp35
 70
     1
102
RTVSPost2010Prop36
280
     0
102
RTVSPost2010PropOp36
 70
     1
102
RTVSPost2010Prop37
 90
       50
102
RTVSPost2010PropOp37
 70
     1
102
RTVSPost2010Prop38
140
0.0
102
RTVSPost2010PropOp38
 70
     1
102
RTVSPost2010Prop39
140
1.0
102
RTVSPost2010PropOp39
 70
     1
102
RTVSPost2010Prop40
 90
        0
102
RTVSPost2010PropOp40
 70
     1
102
RTVSPost2010Prop41ColorIndex
 90
       18
102
RTVSPost2010Prop41ColorRGB
 90
        0
102
RTVSPost2010PropOp41
 70
     1
102
RTVSPost2010Prop42
 90
       50
102
RTVSPost2010PropOp42
 70
     1
102
RTVSPost2010Prop43
 90
        3
102
RTVSPost2010PropOp43
 70
     1
102
RTVSPost2010Prop44ColorIndex
 90
        5
102
RTVSPost2010Prop44ColorRGB
 90
      255
102
RTVSPost2010PropOp44
 70
     1
102
RTVSPost2010Prop45
280
     0
102
RTVSPost2010PropOp45
 70
     1
102
RTVSPost2010Prop46
 90
       50
102
RTVSPost2010PropOp46
 70
     1
102
RTVSPost2010Prop47
 90
       50
102
RTVSPost2010PropOp47
 70
     1
102
RTVSPost2010Prop48
 90
       50
102
RTVSPost2010PropOp48
 70
     1
102
RTVSPost2010Prop49
280
     0
102
RTVSPost2010PropOp49
 70
     1
102
RTVSPost2010Prop50
 90
       50
102
RTVSPost2010PropOp50
 70
     1
102
RTVSPost2010Prop51ColorIndex
 90
      256
102
RTVSPost2010Prop51ColorRGB
 90
-16777216
102
RTVSPost2010PropOp51
 70
     0
102
RTVSPost2010Prop52
140
1.0
102
RTVSPost2010PropOp52
 70
     0
102
RTVSPost2010Prop53
 90
        2
102
RTVSPost2010PropOp53
 70
     1
102
RTVSPost2010Prop54
  1
strokes_ogs.tif
102
RTVSPost2010PropOp54
 70
     1
102
RTVSPost2010Prop55
280
     0
102
RTVSPost2010PropOp55
 70
     1
102
RTVSPost2010Prop56
140
1.0
102
RTVSPost2010PropOp56
 70
     1
102
RTVSPost2010Prop57
140
1.0
102
RTVSPost2010PropOp57
 70
     1
  0
XRECORD
  5
2EB
102
{ACAD_REACTORS
330
2EA
102
}
330
2EA
100
AcDbXrecord
280
     1
102
RTVSPost2010Prop28
280
     0
102
RTVSPost2010PropOp28
 70
     1
102
RTVSPost2010Prop29
280
     1
102
RTVSPost2010PropOp29
 70
     1
102
RTVSPost2010Prop30
280
     1
102
RTVSPost2010PropOp30
 70
     1
102
RTVSPost2010Prop31
280
     0
102
RTVSPost2010PropOp31
 70
     1
102
RTVSPost2010Prop32
280
     0
102
RTVSPost2010PropOp32
 70
     1
102
RTVSPost2010Prop33
280
     0
102
RTVSPost2010PropOp33
 70
     1
102
RTVSPost2010Prop34
280
     0
102
RTVSPost2010PropOp34
 70
     1
102
RTVSPost2010Prop35
280
     0
102
RTVSPost2010PropOp35
 70
     1
102
RTVSPost2010Prop36
280
     0
102
RTVSPost2010PropOp36
 70
     1
102
RTVSPost2010Prop37
 90
       50
102
RTVSPost2010PropOp37
 70
     1
102
RTVSPost2010Prop38
140
0.0
102
RTVSPost2010PropOp38
 70
     1
102
RTVSPost2010Prop39
140
1.0
102
RTVSPost2010PropOp39
 70
     1
102
RTVSPost2010Prop40
 90
        0
102
RTVSPost2010PropOp40
 70
     1
102
RTVSPost2010Prop41ColorIndex
 90
       18
102
RTVSPost2010Prop41ColorRGB
 90
        0
102
RTVSPost2010PropOp41
 70
     1
102
RTVSPost2010Prop42
 90
       50
102
RTVSPost2010PropOp42
 70
     1
102
RTVSPost2010Prop43
 90
        3
102
RTVSPost2010PropOp43
 70
     1
102
RTVSPost2010Prop44ColorIndex
 90
        5
102
RTVSPost2010Prop44ColorRGB
 90
      255
102
RTVSPost2010PropOp44
 70
     1
102
RTVSPost2010Prop45
280
     0
102
RTVSPost2010PropOp45
 70
     1
102
RTVSPost2010Prop46
 90
       50
102
RTVSPost2010PropOp46
 70
     1
102
RTVSPost2010Prop47
 90
       50
102
RTVSPost2010PropOp47
 70
     1
102
RTVSPost2010Prop48
 90
       50
102
RTVSPost2010PropOp48
 70
     1
102
RTVSPost2010Prop49
280
     0
102
RTVSPost2010PropOp49
 70
     1
102
RTVSPost2010Prop50
 90
       50
102
RTVSPost2010PropOp50
 70
     1
102
RTVSPost2010Prop51ColorIndex
 90
      256
102
RTVSPost2010Prop51ColorRGB
 90
-16777216
102
RTVSPost2010PropOp51
 70
     0
102
RTVSPost2010Prop52
140
1.0
102
RTVSPost2010PropOp52
 70
     0
102
RTVSPost2010Prop53
 90
        2
102
RTVSPost2010PropOp53
 70
     1
102
RTVSPost2010Prop54
  1
strokes_ogs.tif
102
RTVSPost2010PropOp54
 70
     1
102
RTVSPost2010Prop55
280
     0
102
RTVSPost2010PropOp55
 70
     1
102
RTVSPost2010Prop56
140
1.0
102
RTVSPost2010PropOp56
 70
     1
102
RTVSPost2010Prop57
140
1.0
102
RTVSPost2010PropOp57
 70
     1
  0
XRECORD
  5
2E5
102
{ACAD_REACTORS
330
2E4
102
}
330
2E4
100
AcDbXrecord
280
     1
102
RTVSPost2010Prop28
280
     0
102
RTVSPost2010PropOp28
 70
     1
102
RTVSPost2010Prop29
280
     1
102
RTVSPost2010PropOp29
 70
     1
102
RTVSPost2010Prop30
280
     1
102
RTVSPost2010PropOp30
 70
     1
102
RTVSPost2010Prop31
280
     0
102
RTVSPost2010PropOp31
 70
     1
102
RTVSPost2010Prop32
280
     0
102
RTVSPost2010PropOp32
 70
     1
102
RTVSPost2010Prop33
280
     0
102
RTVSPost2010PropOp33
 70
     1
102
RTVSPost2010Prop34
280
     0
102
RTVSPost2010PropOp34
 70
     1
102
RTVSPost2010Prop35
280
     0
102
RTVSPost2010PropOp35
 70
     1
102
RTVSPost2010Prop36
280
     0
102
RTVSPost2010PropOp36
 70
     1
102
RTVSPost2010Prop37
 90
       50
102
RTVSPost2010PropOp37
 70
     1
102
RTVSPost2010Prop38
140
0.0
102
RTVSPost2010PropOp38
 70
     1
102
RTVSPost2010Prop39
140
1.0
102
RTVSPost2010PropOp39
 70
     1
102
RTVSPost2010Prop40
 90
        0
102
RTVSPost2010PropOp40
 70
     1
102
RTVSPost2010Prop41ColorIndex
 90
       18
102
RTVSPost2010Prop41ColorRGB
 90
        0
102
RTVSPost2010PropOp41
 70
     1
102
RTVSPost2010Prop42
 90
       50
102
RTVSPost2010PropOp42
 70
     1
102
RTVSPost2010Prop43
 90
        3
102
RTVSPost2010PropOp43
 70
     1
102
RTVSPost2010Prop44ColorIndex
 90
        5
102
RTVSPost2010Prop44ColorRGB
 90
      255
102
RTVSPost2010PropOp44
 70
     1
102
RTVSPost2010Prop45
280
     0
102
RTVSPost2010PropOp45
 70
     1
102
RTVSPost2010Prop46
 90
       50
102
RTVSPost2010PropOp46
 70
     1
102
RTVSPost2010Prop47
 90
       50
102
RTVSPost2010PropOp47
 70
     1
102
RTVSPost2010Prop48
 90
       50
102
RTVSPost2010PropOp48
 70
     1
102
RTVSPost2010Prop49
280
     0
102
RTVSPost2010PropOp49
 70
     1
102
RTVSPost2010Prop50
 90
       50
102
RTVSPost2010PropOp50
 70
     1
102
RTVSPost2010Prop51ColorIndex
 90
      256
102
RTVSPost2010Prop51ColorRGB
 90
-16777216
102
RTVSPost2010PropOp51
 70
     0
102
RTVSPost2010Prop52
140
1.0
102
RTVSPost2010PropOp52
 70
     0
102
RTVSPost2010Prop53
 90
        2
102
RTVSPost2010PropOp53
 70
     1
102
RTVSPost2010Prop54
  1
strokes_ogs.tif
102
RTVSPost2010PropOp54
 70
     1
102
RTVSPost2010Prop55
280
     0
102
RTVSPost2010PropOp55
 70
     1
102
RTVSPost2010Prop56
140
1.0
102
RTVSPost2010PropOp56
 70
     1
102
RTVSPost2010Prop57
140
1.0
102
RTVSPost2010PropOp57
 70
     1
  0
XRECORD
  5
2E7
102
{ACAD_REACTORS
330
2E6
102
}
330
2E6
100
AcDbXrecord
280
     1
102
RTVSPost2010Prop28
280
     0
102
RTVSPost2010PropOp28
 70
     1
102
RTVSPost2010Prop29
280
     1
102
RTVSPost2010PropOp29
 70
     1
102
RTVSPost2010Prop30
280
     1
102
RTVSPost2010PropOp30
 70
     1
102
RTVSPost2010Prop31
280
     0
102
RTVSPost2010PropOp31
 70
     1
102
RTVSPost2010Prop32
280
     0
102
RTVSPost2010PropOp32
 70
     1
102
RTVSPost2010Prop33
280
     0
102
RTVSPost2010PropOp33
 70
     1
102
RTVSPost2010Prop34
280
     0
102
RTVSPost2010PropOp34
 70
     1
102
RTVSPost2010Prop35
280
     0
102
RTVSPost2010PropOp35
 70
     1
102
RTVSPost2010Prop36
280
     0
102
RTVSPost2010PropOp36
 70
     1
102
RTVSPost2010Prop37
 90
       50
102
RTVSPost2010PropOp37
 70
     1
102
RTVSPost2010Prop38
140
0.0
102
RTVSPost2010PropOp38
 70
     1
102
RTVSPost2010Prop39
140
1.0
102
RTVSPost2010PropOp39
 70
     1
102
RTVSPost2010Prop40
 90
        0
102
RTVSPost2010PropOp40
 70
     1
102
RTVSPost2010Prop41ColorIndex
 90
       18
102
RTVSPost2010Prop41ColorRGB
 90
        0
102
RTVSPost2010PropOp41
 70
     1
102
RTVSPost2010Prop42
 90
       50
102
RTVSPost2010PropOp42
 70
     1
102
RTVSPost2010Prop43
 90
        3
102
RTVSPost2010PropOp43
 70
     1
102
RTVSPost2010Prop44ColorIndex
 90
        5
102
RTVSPost2010Prop44ColorRGB
 90
      255
102
RTVSPost2010PropOp44
 70
     1
102
RTVSPost2010Prop45
280
     0
102
RTVSPost2010PropOp45
 70
     1
102
RTVSPost2010Prop46
 90
       50
102
RTVSPost2010PropOp46
 70
     1
102
RTVSPost2010Prop47
 90
       50
102
RTVSPost2010PropOp47
 70
     1
102
RTVSPost2010Prop48
 90
       50
102
RTVSPost2010PropOp48
 70
     1
102
RTVSPost2010Prop49
280
     0
102
RTVSPost2010PropOp49
 70
     1
102
RTVSPost2010Prop50
 90
       50
102
RTVSPost2010PropOp50
 70
     1
102
RTVSPost2010Prop51ColorIndex
 90
      256
102
RTVSPost2010Prop51ColorRGB
 90
-16777216
102
RTVSPost2010PropOp51
 70
     0
102
RTVSPost2010Prop52
140
1.0
102
RTVSPost2010PropOp52
 70
     0
102
RTVSPost2010Prop53
 90
        2
102
RTVSPost2010PropOp53
 70
     1
102
RTVSPost2010Prop54
  1
strokes_ogs.tif
102
RTVSPost2010PropOp54
 70
     1
102
RTVSPost2010Prop55
280
     0
102
RTVSPost2010PropOp55
 70
     1
102
RTVSPost2010Prop56
140
1.0
102
RTVSPost2010PropOp56
 70
     1
102
RTVSPost2010Prop57
140
1.0
102
RTVSPost2010PropOp57
 70
     1
  0
XRECORD
  5
2DD
102
{ACAD_REACTORS
330
2DC
102
}
330
2DC
100
AcDbXrecord
280
     1
102
RTVSPost2010Prop28
280
     0
102
RTVSPost2010PropOp28
 70
     1
102
RTVSPost2010Prop29
280
     1
102
RTVSPost2010PropOp29
 70
     1
102
RTVSPost2010Prop30
280
     1
102
RTVSPost2010PropOp30
 70
     1
102
RTVSPost2010Prop31
280
     0
102
RTVSPost2010PropOp31
 70
     1
102
RTVSPost2010Prop32
280
     0
102
RTVSPost2010PropOp32
 70
     1
102
RTVSPost2010Prop33
280
     0
102
RTVSPost2010PropOp33
 70
     1
102
RTVSPost2010Prop34
280
     0
102
RTVSPost2010PropOp34
 70
     1
102
RTVSPost2010Prop35
280
     0
102
RTVSPost2010PropOp35
 70
     1
102
RTVSPost2010Prop36
280
     0
102
RTVSPost2010PropOp36
 70
     1
102
RTVSPost2010Prop37
 90
       50
102
RTVSPost2010PropOp37
 70
     1
102
RTVSPost2010Prop38
140
0.0
102
RTVSPost2010PropOp38
 70
     1
102
RTVSPost2010Prop39
140
1.0
102
RTVSPost2010PropOp39
 70
     1
102
RTVSPost2010Prop40
 90
        0
102
RTVSPost2010PropOp40
 70
     1
102
RTVSPost2010Prop41ColorIndex
 90
       18
102
RTVSPost2010Prop41ColorRGB
 90
        0
102
RTVSPost2010PropOp41
 70
     1
102
RTVSPost2010Prop42
 90
       50
102
RTVSPost2010PropOp42
 70
     1
102
RTVSPost2010Prop43
 90
        3
102
RTVSPost2010PropOp43
 70
     1
102
RTVSPost2010Prop44ColorIndex
 90
        5
102
RTVSPost2010Prop44ColorRGB
 90
      255
102
RTVSPost2010PropOp44
 70
     1
102
RTVSPost2010Prop45
280
     0
102
RTVSPost2010PropOp45
 70
     1
102
RTVSPost2010Prop46
 90
       50
102
RTVSPost2010PropOp46
 70
     1
102
RTVSPost2010Prop47
 90
       50
102
RTVSPost2010PropOp47
 70
     1
102
RTVSPost2010Prop48
 90
       50
102
RTVSPost2010PropOp48
 70
     1
102
RTVSPost2010Prop49
280
     0
102
RTVSPost2010PropOp49
 70
     1
102
RTVSPost2010Prop50
 90
       50
102
RTVSPost2010PropOp50
 70
     1
102
RTVSPost2010Prop51ColorIndex
 90
      256
102
RTVSPost2010Prop51ColorRGB
 90
-16777216
102
RTVSPost2010PropOp51
 70
     0
102
RTVSPost2010Prop52
140
1.0
102
RTVSPost2010PropOp52
 70
     0
102
RTVSPost2010Prop53
 90
        2
102
RTVSPost2010PropOp53
 70
     1
102
RTVSPost2010Prop54
  1
strokes_ogs.tif
102
RTVSPost2010PropOp54
 70
     1
102
RTVSPost2010Prop55
280
     0
102
RTVSPost2010PropOp55
 70
     1
102
RTVSPost2010Prop56
140
1.0
102
RTVSPost2010PropOp56
 70
     1
102
RTVSPost2010Prop57
140
1.0
102
RTVSPost2010PropOp57
 70
     1
  0
XRECORD
  5
2D1
102
{ACAD_REACTORS
330
2D0
102
}
330
2D0
100
AcDbXrecord
280
     1
102
RTVSPost2010Prop28
280
     0
102
RTVSPost2010PropOp28
 70
     1
102
RTVSPost2010Prop29
280
     1
102
RTVSPost2010PropOp29
 70
     1
102
RTVSPost2010Prop30
280
     1
102
RTVSPost2010PropOp30
 70
     1
102
RTVSPost2010Prop31
280
     0
102
RTVSPost2010PropOp31
 70
     1
102
RTVSPost2010Prop32
280
     0
102
RTVSPost2010PropOp32
 70
     1
102
RTVSPost2010Prop33
280
     0
102
RTVSPost2010PropOp33
 70
     1
102
RTVSPost2010Prop34
280
     0
102
RTVSPost2010PropOp34
 70
     1
102
RTVSPost2010Prop35
280
     0
102
RTVSPost2010PropOp35
 70
     1
102
RTVSPost2010Prop36
280
     0
102
RTVSPost2010PropOp36
 70
     1
102
RTVSPost2010Prop37
 90
       50
102
RTVSPost2010PropOp37
 70
     1
102
RTVSPost2010Prop38
140
0.0
102
RTVSPost2010PropOp38
 70
     1
102
RTVSPost2010Prop39
140
1.0
102
RTVSPost2010PropOp39
 70
     1
102
RTVSPost2010Prop40
 90
        0
102
RTVSPost2010PropOp40
 70
     1
102
RTVSPost2010Prop41ColorIndex
 90
       18
102
RTVSPost2010Prop41ColorRGB
 90
        0
102
RTVSPost2010PropOp41
 70
     1
102
RTVSPost2010Prop42
 90
       50
102
RTVSPost2010PropOp42
 70
     1
102
RTVSPost2010Prop43
 90
        3
102
RTVSPost2010PropOp43
 70
     1
102
RTVSPost2010Prop44ColorIndex
 90
        5
102
RTVSPost2010Prop44ColorRGB
 90
      255
102
RTVSPost2010PropOp44
 70
     1
102
RTVSPost2010Prop45
280
     0
102
RTVSPost2010PropOp45
 70
     1
102
RTVSPost2010Prop46
 90
       50
102
RTVSPost2010PropOp46
 70
     1
102
RTVSPost2010Prop47
 90
       50
102
RTVSPost2010PropOp47
 70
     1
102
RTVSPost2010Prop48
 90
       50
102
RTVSPost2010PropOp48
 70
     1
102
RTVSPost2010Prop49
280
     0
102
RTVSPost2010PropOp49
 70
     1
102
RTVSPost2010Prop50
 90
       50
102
RTVSPost2010PropOp50
 70
     1
102
RTVSPost2010Prop51ColorIndex
 90
      256
102
RTVSPost2010Prop51ColorRGB
 90
-16777216
102
RTVSPost2010PropOp51
 70
     0
102
RTVSPost2010Prop52
140
1.0
102
RTVSPost2010PropOp52
 70
     0
102
RTVSPost2010Prop53
 90
        2
102
RTVSPost2010PropOp53
 70
     1
102
RTVSPost2010Prop54
  1
strokes_ogs.tif
102
RTVSPost2010PropOp54
 70
     1
102
RTVSPost2010Prop55
280
     0
102
RTVSPost2010PropOp55
 70
     1
102
RTVSPost2010Prop56
140
1.0
102
RTVSPost2010PropOp56
 70
     1
102
RTVSPost2010Prop57
140
1.0
102
RTVSPost2010PropOp57
 70
     1
  0
XRECORD
  5
2E9
102
{ACAD_REACTORS
330
2E8
102
}
330
2E8
100
AcDbXrecord
280
     1
102
RTVSPost2010Prop28
280
     0
102
RTVSPost2010PropOp28
 70
     1
102
RTVSPost2010Prop29
280
     1
102
RTVSPost2010PropOp29
 70
     1
102
RTVSPost2010Prop30
280
     1
102
RTVSPost2010PropOp30
 70
     1
102
RTVSPost2010Prop31
280
     0
102
RTVSPost2010PropOp31
 70
     1
102
RTVSPost2010Prop32
280
     0
102
RTVSPost2010PropOp32
 70
     1
102
RTVSPost2010Prop33
280
     0
102
RTVSPost2010PropOp33
 70
     1
102
RTVSPost2010Prop34
280
     0
102
RTVSPost2010PropOp34
 70
     1
102
RTVSPost2010Prop35
280
     0
102
RTVSPost2010PropOp35
 70
     1
102
RTVSPost2010Prop36
280
     0
102
RTVSPost2010PropOp36
 70
     1
102
RTVSPost2010Prop37
 90
       50
102
RTVSPost2010PropOp37
 70
     1
102
RTVSPost2010Prop38
140
0.0
102
RTVSPost2010PropOp38
 70
     1
102
RTVSPost2010Prop39
140
1.0
102
RTVSPost2010PropOp39
 70
     1
102
RTVSPost2010Prop40
 90
        0
102
RTVSPost2010PropOp40
 70
     1
102
RTVSPost2010Prop41ColorIndex
 90
       18
102
RTVSPost2010Prop41ColorRGB
 90
        0
102
RTVSPost2010PropOp41
 70
     1
102
RTVSPost2010Prop42
 90
       50
102
RTVSPost2010PropOp42
 70
     1
102
RTVSPost2010Prop43
 90
        3
102
RTVSPost2010PropOp43
 70
     1
102
RTVSPost2010Prop44ColorIndex
 90
        5
102
RTVSPost2010Prop44ColorRGB
 90
      255
102
RTVSPost2010PropOp44
 70
     1
102
RTVSPost2010Prop45
280
     0
102
RTVSPost2010PropOp45
 70
     1
102
RTVSPost2010Prop46
 90
       50
102
RTVSPost2010PropOp46
 70
     1
102
RTVSPost2010Prop47
 90
       50
102
RTVSPost2010PropOp47
 70
     1
102
RTVSPost2010Prop48
 90
       50
102
RTVSPost2010PropOp48
 70
     1
102
RTVSPost2010Prop49
280
     0
102
RTVSPost2010PropOp49
 70
     1
102
RTVSPost2010Prop50
 90
       50
102
RTVSPost2010PropOp50
 70
     1
102
RTVSPost2010Prop51ColorIndex
 90
      256
102
RTVSPost2010Prop51ColorRGB
 90
-16777216
102
RTVSPost2010PropOp51
 70
     0
102
RTVSPost2010Prop52
140
1.0
102
RTVSPost2010PropOp52
 70
     0
102
RTVSPost2010Prop53
 90
        2
102
RTVSPost2010PropOp53
 70
     1
102
RTVSPost2010Prop54
  1
strokes_ogs.tif
102
RTVSPost2010PropOp54
 70
     1
102
RTVSPost2010Prop55
280
     0
102
RTVSPost2010PropOp55
 70
     1
102
RTVSPost2010Prop56
140
1.0
102
RTVSPost2010PropOp56
 70
     1
102
RTVSPost2010Prop57
140
1.0
102
RTVSPost2010PropOp57
 70
     1
  0
ENDSEC
  0
EOF
