  0
SECTION
  2
HEADER
  9
$ACADVER
  1
AC1024
  9
$ACADMAINTVER
 70
   226
  9
$DWGCODEPAGE
  3
ANSI_1252
  9
$INSBASE
 10
0.0
 20
0.0
 30
0.0
  9
$EXTMIN
 10
3495.232191138017
 20
3436.82549522824
 30
0.0
  9
$EXTMAX
 10
4347.255226194885
 20
4048.4858500187
 30
0.0
  9
$LIMMIN
 10
0.0
 20
0.0
  9
$LIMMAX
 10
12.0
 20
9.0
  9
$ORTHOMODE
 70
     0
  9
$REGENMODE
 70
     1
  9
$FILLMODE
 70
     1
  9
$QTEXTMODE
 70
     0
  9
$MIRRTEXT
 70
     0
  9
$LTSCALE
 40
1.0
  9
$ATTMODE
 70
     1
  9
$TEXTSIZE
 40
0.2
  9
$TRACEWID
 40
0.05
  9
$TEXTSTYLE
  7
Standard
  9
$CLAYER
  8
0
  9
$CELTYPE
  6
ByLayer
  9
$CECOLOR
 62
   256
  9
$CELTSCALE
 40
1.0
  9
$DISPSILH
 70
     0
  9
$DIMSCALE
 40
1.0
  9
$DIMASZ
 40
0.18
  9
$DIMEXO
 40
0.0625
  9
$DIMDLI
 40
0.38
  9
$DIMRND
 40
0.0
  9
$DIMDLE
 40
0.0
  9
$DIMEXE
 40
0.18
  9
$DIMTP
 40
0.0
  9
$DIMTM
 40
0.0
  9
$DIMTXT
 40
0.18
  9
$DIMCEN
 40
0.09
  9
$DIMTSZ
 40
0.0
  9
$DIMTOL
 70
     0
  9
$DIMLIM
 70
     0
  9
$DIMTIH
 70
     1
  9
$DIMTOH
 70
     1
  9
$DIMSE1
 70
     0
  9
$DIMSE2
 70
     0
  9
$DIMTAD
 70
     0
  9
$DIMZIN
 70
     0
  9
$DIMBLK
  1

  9
$DIMASO
 70
     1
  9
$DIMSHO
 70
     1
  9
$DIMPOST
  1

  9
$DIMAPOST
  1

  9
$DIMALT
 70
     0
  9
$DIMALTD
 70
     2
  9
$DIMALTF
 40
25.4
  9
$DIMLFAC
 40
1.0
  9
$DIMTOFL
 70
     0
  9
$DIMTVP
 40
0.0
  9
$DIMTIX
 70
     0
  9
$DIMSOXD
 70
     0
  9
$DIMSAH
 70
     0
  9
$DIMBLK1
  1

  9
$DIMBLK2
  1

  9
$DIMSTYLE
  2
Standard
  9
$DIMCLRD
 70
     0
  9
$DIMCLRE
 70
     0
  9
$DIMCLRT
 70
     0
  9
$DIMTFAC
 40
1.0
  9
$DIMGAP
 40
0.09
  9
$DIMJUST
 70
     0
  9
$DIMSD1
 70
     0
  9
$DIMSD2
 70
     0
  9
$DIMTOLJ
 70
     1
  9
$DIMTZIN
 70
     0
  9
$DIMALTZ
 70
     0
  9
$DIMALTTZ
 70
     0
  9
$DIMUPT
 70
     0
  9
$DIMDEC
 70
     4
  9
$DIMTDEC
 70
     4
  9
$DIMALTU
 70
     2
  9
$DIMALTTD
 70
     2
  9
$DIMTXSTY
  7
Standard
  9
$DIMAUNIT
 70
     0
  9
$DIMADEC
 70
     0
  9
$DIMALTRND
 40
0.0
  9
$DIMAZIN
 70
     0
  9
$DIMDSEP
 70
    46
  9
$DIMATFIT
 70
     3
  9
$DIMFRAC
 70
     0
  9
$DIMLDRBLK
  1

  9
$DIMLUNIT
 70
     2
  9
$DIMLWD
 70
    -2
  9
$DIMLWE
 70
    -2
  9
$DIMTMOVE
 70
     0
  9
$DIMFXL
 40
1.0
  9
$DIMFXLON
 70
     0
  9
$DIMJOGANG
 40
0.7853981633974483
  9
$DIMTFILL
 70
     0
  9
$DIMTFILLCLR
 70
     0
  9
$DIMARCSYM
 70
     0
  9
$DIMLTYPE
  6

  9
$DIMLTEX1
  6

  9
$DIMLTEX2
  6

  9
$DIMTXTDIRECTION
 70
     0
  9
$LUNITS
 70
     2
  9
$LUPREC
 70
     4
  9
$SKETCHINC
 40
0.1
  9
$FILLETRAD
 40
0.0
  9
$AUNITS
 70
     0
  9
$AUPREC
 70
     0
  9
$MENU
  1
.
  9
$ELEVATION
 40
0.0
  9
$PELEVATION
 40
0.0
  9
$THICKNESS
 40
0.0
  9
$LIMCHECK
 70
     0
  9
$CHAMFERA
 40
0.0
  9
$CHAMFERB
 40
0.0
  9
$CHAMFERC
 40
0.0
  9
$CHAMFERD
 40
0.0
  9
$SKPOLY
 70
     0
  9
$TDCREATE
 40
2459165.004155093
  9
$TDUCREATE
 40
2459164.462488426
  9
$TDUPDATE
 40
2459165.004155093
  9
$TDUUPDATE
 40
2459164.462488426
  9
$TDINDWG
 40
0.0000000000
  9
$TDUSRTIMER
 40
0.0000000000
  9
$USRTIMER
 70
     1
  9
$ANGBASE
 50
0.0
  9
$ANGDIR
 70
     0
  9
$PDMODE
 70
     0
  9
$PDSIZE
 40
0.0
  9
$PLINEWID
 40
0.0
  9
$SPLFRAME
 70
     0
  9
$SPLINETYPE
 70
     6
  9
$SPLINESEGS
 70
     8
  9
$HANDSEED
  5
2B6
  9
$SURFTAB1
 70
     6
  9
$SURFTAB2
 70
     6
  9
$SURFTYPE
 70
     6
  9
$SURFU
 70
     6
  9
$SURFV
 70
     6
  9
$UCSBASE
  2

  9
$UCSNAME
  2

  9
$UCSORG
 10
0.0
 20
0.0
 30
0.0
  9
$UCSXDIR
 10
1.0
 20
0.0
 30
0.0
  9
$UCSYDIR
 10
0.0
 20
1.0
 30
0.0
  9
$UCSORTHOREF
  2

  9
$UCSORTHOVIEW
 70
     0
  9
$UCSORGTOP
 10
0.0
 20
0.0
 30
0.0
  9
$UCSORGBOTTOM
 10
0.0
 20
0.0
 30
0.0
  9
$UCSORGLEFT
 10
0.0
 20
0.0
 30
0.0
  9
$UCSORGRIGHT
 10
0.0
 20
0.0
 30
0.0
  9
$UCSORGFRONT
 10
0.0
 20
0.0
 30
0.0
  9
$UCSORGBACK
 10
0.0
 20
0.0
 30
0.0
  9
$PUCSBASE
  2

  9
$PUCSNAME
  2

  9
$PUCSORG
 10
0.0
 20
0.0
 30
0.0
  9
$PUCSXDIR
 10
1.0
 20
0.0
 30
0.0
  9
$PUCSYDIR
 10
0.0
 20
1.0
 30
0.0
  9
$PUCSORTHOREF
  2

  9
$PUCSORTHOVIEW
 70
     0
  9
$PUCSORGTOP
 10
0.0
 20
0.0
 30
0.0
  9
$PUCSORGBOTTOM
 10
0.0
 20
0.0
 30
0.0
  9
$PUCSORGLEFT
 10
0.0
 20
0.0
 30
0.0
  9
$PUCSORGRIGHT
 10
0.0
 20
0.0
 30
0.0
  9
$PUCSORGFRONT
 10
0.0
 20
0.0
 30
0.0
  9
$PUCSORGBACK
 10
0.0
 20
0.0
 30
0.0
  9
$USERI1
 70
     0
  9
$USERI2
 70
     0
  9
$USERI3
 70
     0
  9
$USERI4
 70
     0
  9
$USERI5
 70
     0
  9
$USERR1
 40
0.0
  9
$USERR2
 40
0.0
  9
$USERR3
 40
0.0
  9
$USERR4
 40
0.0
  9
$USERR5
 40
0.0
  9
$WORLDVIEW
 70
     1
  9
$SHADEDGE
 70
     3
  9
$SHADEDIF
 70
    70
  9
$TILEMODE
 70
     0
  9
$MAXACTVP
 70
    64
  9
$PINSBASE
 10
0.0
 20
0.0
 30
0.0
  9
$PLIMCHECK
 70
     0
  9
$PEXTMIN
 10
-0.0243254853795738
 20
0.0239675613783464
 30
0.0
  9
$PEXTMAX
 10
296.9756745145732
 20
210.0239675613797
 30
0.0
  9
$PLIMMIN
 10
0.0
 20
0.0
  9
$PLIMMAX
 10
12.0
 20
9.0
  9
$UNITMODE
 70
     0
  9
$VISRETAIN
 70
     1
  9
$PLINEGEN
 70
     0
  9
$PSLTSCALE
 70
     1
  9
$TREEDEPTH
 70
  3020
  9
$CMLSTYLE
  2
Standard
  9
$CMLJUST
 70
     0
  9
$CMLSCALE
 40
1.0
  9
$PROXYGRAPHICS
 70
     1
  9
$MEASUREMENT
 70
     1
  9
$CELWEIGHT
370
    -1
  9
$ENDCAPS
280
     0
  9
$JOINSTYLE
280
     0
  9
$LWDISPLAY
290
     0
  9
$INSUNITS
 70
     4
  9
$HYPERLINKBASE
  1

  9
$STYLESHEET
  1

  9
$XEDIT
290
     1
  9
$CEPSNTYPE
380
     0
  9
$PSTYLEMODE
290
     1
  9
$FINGERPRINTGUID
  2
{9AD1177D-601A-F64C-9B23-0B279C67BBAE}
  9
$VERSIONGUID
  2
{ACA0CFAB-7F2A-734C-A027-A1990164CCD2}
  9
$EXTNAMES
290
     1
  9
$PSVPSCALE
 40
0.0
  9
$OLESTARTUP
290
     0
  9
$SORTENTS
280
   127
  9
$INDEXCTL
280
     0
  9
$HIDETEXT
280
     1
  9
$XCLIPFRAME
280
     2
  9
$HALOGAP
280
     0
  9
$OBSCOLOR
 70
   257
  9
$OBSLTYPE
280
     0
  9
$INTERSECTIONDISPLAY
280
     0
  9
$INTERSECTIONCOLOR
 70
   257
  9
$DIMASSOC
280
     2
  9
$PROJECTNAME
  1

  9
$CAMERADISPLAY
290
     0
  9
$LENSLENGTH
 40
50.0
  9
$CAMERAHEIGHT
 40
0.0
  9
$STEPSPERSEC
 40
2.0
  9
$STEPSIZE
 40
6.0
  9
$3DDWFPREC
 40
2.0
  9
$PSOLWIDTH
 40
0.25
  9
$PSOLHEIGHT
 40
4.0
  9
$LOFTANG1
 40
1.570796326794896
  9
$LOFTANG2
 40
1.570796326794896
  9
$LOFTMAG1
 40
0.0
  9
$LOFTMAG2
 40
0.0
  9
$LOFTPARAM
 70
     7
  9
$LOFTNORMALS
280
     1
  9
$LATITUDE
 40
0.0
  9
$LONGITUDE
 40
0.0
  9
$NORTHDIRECTION
 40
0.0
  9
$TIMEZONE
 70
     0
  9
$LIGHTGLYPHDISPLAY
280
     1
  9
$TILEMODELIGHTSYNCH
280
     1
  9
$CMATERIAL
347
11
  9
$SOLIDHIST
280
     0
  9
$SHOWHIST
280
     1
  9
$DWFFRAME
280
     2
  9
$DGNFRAME
280
     0
  9
$REALWORLDSCALE
290
     1
  9
$INTERFERECOLOR
 62
     1
  9
$INTERFEREOBJVS
345
33
  9
$INTERFEREVPVS
346
30
  9
$CSHADOW
280
     0
  9
$SHADOWPLANELOCATION
 40
0.0
  0
ENDSEC
  0
SECTION
  2
CLASSES
  0
CLASS
  1
ACDBDICTIONARYWDFLT
  2
AcDbDictionaryWithDefault
  3
ObjectDBX Classes
 90
        0
 91
        1
280
     0
281
     0
  0
CLASS
  1
MATERIAL
  2
AcDbMaterial
  3
ObjectDBX Classes
 90
     1153
 91
        3
280
     0
281
     0
  0
CLASS
  1
VISUALSTYLE
  2
AcDbVisualStyle
  3
ObjectDBX Classes
 90
     4095
 91
       24
280
     0
281
     0
  0
CLASS
  1
SCALE
  2
AcDbScale
  3
ObjectDBX Classes
 90
     1153
 91
       17
280
     0
281
     0
  0
CLASS
  1
TABLESTYLE
  2
AcDbTableStyle
  3
ObjectDBX Classes
 90
     4095
 91
        1
280
     0
281
     0
  0
CLASS
  1
MLEADERSTYLE
  2
AcDbMLeaderStyle
  3
ACDB_MLEADERSTYLE_CLASS
 90
     4095
 91
        1
280
     0
281
     0
  0
CLASS
  1
ACDBSECTIONVIEWSTYLE
  2
AcDbSectionViewStyle
  3
ObjectDBX Classes
 90
     1025
 91
        1
280
     0
281
     0
  0
CLASS
  1
ACDBDETAILVIEWSTYLE
  2
AcDbDetailViewStyle
  3
ObjectDBX Classes
 90
     1025
 91
        1
280
     0
281
     0
  0
CLASS
  1
RASTERVARIABLES
  2
AcDbRasterVariables
  3
ISM
 90
        0
 91
        1
280
     0
281
     0
  0
CLASS
  1
DICTIONARYVAR
  2
AcDbDictionaryVar
  3
ObjectDBX Classes
 90
        0
 91
        5
280
     0
281
     0
  0
CLASS
  1
CELLSTYLEMAP
  2
AcDbCellStyleMap
  3
ObjectDBX Classes
 90
     1152
 91
        2
280
     0
281
     0
  0
CLASS
  1
IMAGEDEF
  2
AcDbRasterImageDef
  3
ISM
 90
        0
 91
        1
280
     0
281
     0
  0
CLASS
  1
IMAGE
  2
AcDbRasterImage
  3
ISM
 90
     2175
 91
        1
280
     0
281
     1
  0
CLASS
  1
IMAGEDEF_REACTOR
  2
AcDbRasterImageDefReactor
  3
ISM
 90
        1
 91
        1
280
     0
281
     0
  0
CLASS
  1
SORTENTSTABLE
  2
AcDbSortentsTable
  3
ObjectDBX Classes
 90
        0
 91
        1
280
     0
281
     0
  0
ENDSEC
  0
SECTION
  2
TABLES
  0
TABLE
  2
VPORT
  5
8
330
0
100
AcDbSymbolTable
 70
     1
  0
VPORT
  5
57
330
8
100
AcDbSymbolTableRecord
100
AcDbViewportTableRecord
  2
*Active
 70
     0
 10
0.0
 20
0.0
 11
1.0
 21
1.0
 12
3921.243708666452
 22
3742.65567262347
 13
0.0
 23
0.0
 14
1.0
 24
1.0
 15
0.0
 25
0.0
 16
0.0
 26
0.0
 36
1.0
 17
0.0
 27
0.0
 37
0.0
 40
611.6603547904605
 41
1.392967565061086
 42
50.0
 43
0.0
 44
0.0
 50
0.0
 51
0.0
 71
     0
 72
  1000
 73
     1
 74
     0
 75
     1
 76
     0
 77
     0
 78
     0
281
     0
 65
     1
110
0.0
120
0.0
130
0.0
111
1.0
121
0.0
131
0.0
112
0.0
122
1.0
132
0.0
 79
     0
146
0.0
 60
     3
 61
     5
292
     1
282
     1
141
0.0
142
0.0
 63
   250
421
  3355443
  0
ENDTAB
  0
TABLE
  2
LTYPE
  5
5
330
0
100
AcDbSymbolTable
 70
     3
  0
LTYPE
  5
5B
330
5
100
AcDbSymbolTableRecord
100
AcDbLinetypeTableRecord
  2
ByBlock
 70
     0
  3

 72
    65
 73
     0
 40
0.0
  0
LTYPE
  5
5C
330
5
100
AcDbSymbolTableRecord
100
AcDbLinetypeTableRecord
  2
ByLayer
 70
     0
  3

 72
    65
 73
     0
 40
0.0
  0
LTYPE
  5
5D
330
5
100
AcDbSymbolTableRecord
100
AcDbLinetypeTableRecord
  2
Continuous
 70
     0
  3
Solid line
 72
    65
 73
     0
 40
0.0
  0
LTYPE
  5
BC
330
5
100
AcDbSymbolTableRecord
100
AcDbLinetypeTableRecord
  2
Dash Short
 70
     0
  3

 72
    65
 73
     2
 40
4.0
 49
2.0
 74
     0
 49
-2.0
 74
     0
  0
LTYPE
  5
143
330
5
100
AcDbSymbolTableRecord
100
AcDbLinetypeTableRecord
  2
Dash
 70
     0
  3

 72
    65
 73
     2
 40
6.350000000000001
 49
3.175
 74
     0
 49
-3.175
 74
     0
  0
ENDTAB
  0
TABLE
  2
LAYER
  5
2
330
0
100
AcDbSymbolTable
 70
    13
  0
LAYER
  5
54
330
2
100
AcDbSymbolTableRecord
100
AcDbLayerTableRecord
  2
0
 70
     0
 62
     7
  6
Continuous
370
    -3
390
F
347
21
  0
LAYER
  5
BA
330
2
100
AcDbSymbolTableRecord
100
AcDbLayerTableRecord
  2
A-DETL
 70
     0
 62
    90
  6
Continuous
370
     9
390
F
347
21
  0
LAYER
  5
BB
330
2
100
AcDbSymbolTableRecord
100
AcDbLayerTableRecord
  2
A-DETL-GENF
 70
     0
 62
    92
  6
Continuous
370
    30
390
F
347
21
  0
LAYER
  5
12D
330
2
100
AcDbSymbolTableRecord
100
AcDbLayerTableRecord
  2
A-DETL-THIN
 70
     0
 62
   151
  6
Continuous
370
     9
390
F
347
21
  0
LAYER
  5
183
330
2
100
AcDbSymbolTableRecord
100
AcDbLayerTableRecord
  2
A-DETL-MEDM
 70
     0
 62
    33
  6
Continuous
370
    30
390
F
347
21
  0
LAYER
  5
1C2
330
2
100
AcDbSymbolTableRecord
100
AcDbLayerTableRecord
  2
G-ANNO-TEXT
 70
     0
 62
   231
  6
Continuous
370
     9
390
F
347
21
  0
LAYER
  5
208
330
2
100
AcDbSymbolTableRecord
100
AcDbLayerTableRecord
  2
A-ANNO-DIMS
 70
     0
 62
   211
  6
Continuous
370
     9
390
F
347
21
  0
LAYER
  5
20A
330
2
100
AcDbSymbolTableRecord
100
AcDbLayerTableRecord
  2
A-ANNO-DIMS-5
 70
     0
 62
   211
  6
Continuous
370
     9
390
F
347
21
  0
LAYER
  5
21F
330
2
100
AcDbSymbolTableRecord
100
AcDbLayerTableRecord
  2
Defpoints
 70
     0
 62
     7
  6
Continuous
290
     0
370
    -3
390
F
347
21
  0
LAYER
  5
23A
330
2
100
AcDbSymbolTableRecord
100
AcDbLayerTableRecord
  2
G-ANNO-NPLT
 70
     0
 62
   191
  6
Continuous
290
     0
370
    -3
390
F
347
21
  0
LAYER
  5
240
330
2
100
AcDbSymbolTableRecord
100
AcDbLayerTableRecord
  2
G-ANNO-TTLB
 70
     0
 62
     6
  6
Continuous
370
     9
390
F
347
21
  0
LAYER
  5
246
330
2
100
AcDbSymbolTableRecord
100
AcDbLayerTableRecord
  2
G-ANNO-TTLB-THIN
 70
     0
 62
   151
  6
Continuous
370
    25
390
F
347
21
  0
LAYER
  5
249
330
2
100
AcDbSymbolTableRecord
100
AcDbLayerTableRecord
  2
G-ANNO-TTLB-MEDM
 70
     0
 62
    33
  6
Continuous
370
    50
390
F
347
21
  0
ENDTAB
  0
TABLE
  2
STYLE
  5
3
330
0
100
AcDbSymbolTable
 70
     7
  0
STYLE
  5
55
330
3
100
AcDbSymbolTableRecord
100
AcDbTextStyleTableRecord
  2
Standard
 70
     0
 40
0.0
 41
1.0
 50
0.0
 71
     0
 42
0.2
  3
txt
  4

  0
STYLE
  5
5A
330
3
100
AcDbSymbolTableRecord
100
AcDbTextStyleTableRecord
  2
Annotative
 70
     0
 40
0.0
 41
1.0
 50
0.0
 71
     0
 42
0.2
  3
txt
  4

1001
AcadAnnotative
1000
AnnotativeData
1002
{
1070
     1
1070
     1
1002
}
  0
STYLE
  5
1C9
330
3
100
AcDbSymbolTableRecord
100
AcDbTextStyleTableRecord
  2
Century Gothic
 70
     0
 40
12.5
 41
0.9
 50
0.0
 71
     0
 42
0.2
  3
GOTHIC.TTF
  4

1001
ACAD
1000
Century Gothic
1071
       34
  0
STYLE
  5
250
330
3
100
AcDbSymbolTableRecord
100
AcDbTextStyleTableRecord
  2
Century Gothic_1
 70
     0
 40
1.8
 41
0.9
 50
0.0
 71
     0
 42
0.2
  3
GOTHIC.TTF
  4

1001
ACAD
1000
Century Gothic
1071
       34
  0
STYLE
  5
26F
330
3
100
AcDbSymbolTableRecord
100
AcDbTextStyleTableRecord
  2
Century Gothic_2
 70
     0
 40
4.0
 41
0.9
 50
0.0
 71
     0
 42
0.2
  3
GOTHIC.TTF
  4

1001
ACAD
1000
Century Gothic
1071
       34
  0
STYLE
  5
271
330
3
100
AcDbSymbolTableRecord
100
AcDbTextStyleTableRecord
  2
Century Gothic_3
 70
     0
 40
3.5
 41
0.9
 50
0.0
 71
     0
 42
0.2
  3
GOTHIC.TTF
  4

1001
ACAD
1000
Century Gothic
1071
       34
  0
STYLE
  5
274
330
3
100
AcDbSymbolTableRecord
100
AcDbTextStyleTableRecord
  2
Century Gothic_4
 70
     0
 40
4.999999999999999
 41
1.0
 50
0.0
 71
     0
 42
0.2
  3
GOTHIC.TTF
  4

1001
ACAD
1000
Century Gothic
1071
       34
  0
ENDTAB
  0
TABLE
  2
VIEW
  5
6
330
0
100
AcDbSymbolTable
 70
     0
  0
ENDTAB
  0
TABLE
  2
UCS
  5
7
330
0
100
AcDbSymbolTable
 70
     0
  0
ENDTAB
  0
TABLE
  2
APPID
  5
9
330
0
100
AcDbSymbolTable
 70
     3
  0
APPID
  5
56
330
9
100
AcDbSymbolTableRecord
100
AcDbRegAppTableRecord
  2
ACAD
 70
     0
  0
APPID
  5
5E
330
9
100
AcDbSymbolTableRecord
100
AcDbRegAppTableRecord
  2
AcadAnnotative
 70
     0
  0
APPID
  5
78
330
9
100
AcDbSymbolTableRecord
100
AcDbRegAppTableRecord
  2
REVIT
 70
     0
  0
ENDTAB
  0
TABLE
  2
DIMSTYLE
  5
A
330
0
100
AcDbSymbolTable
 70
     3
100
AcDbDimStyleTable
 71
     1
340
218
  0
DIMSTYLE
105
58
330
A
100
AcDbSymbolTableRecord
100
AcDbDimStyleTableRecord
  2
Standard
 70
     0
340
55
  0
DIMSTYLE
105
59
330
A
100
AcDbSymbolTableRecord
100
AcDbDimStyleTableRecord
  2
Annotative
 70
     0
340
55
1001
AcadAnnotative
1000
AnnotativeData
1002
{
1070
     1
1070
     1
1002
}
  0
DIMSTYLE
105
218
102
{ACAD_REACTORS
330
21D
102
}
330
A
100
AcDbSymbolTableRecord
100
AcDbDimStyleTableRecord
  2
01_-_Diagonal
 70
     0
  3
<>
 40
304.8
 41
0.041010498687664
 44
0.0328083989501312
 49
0.0492125984251969
 69
     1
 73
     0
 74
     0
 77
     1
 78
     8
 90
     2
140
13.05210337146907
145
1.0
147
0.0164041994750656
172
     1
173
     1
174
     1
179
     2
271
     0
290
     1
340
1C9
343
219
344
219
  0
ENDTAB
  0
TABLE
  2
BLOCK_RECORD
  5
1
330
0
100
AcDbSymbolTable
 70
    16
  0
BLOCK_RECORD
  5
70
102
{ACAD_XDICTIONARY
360
27B
102
}
330
1
100
AcDbSymbolTableRecord
100
AcDbBlockTableRecord
  2
*Model_Space
340
73
 70
     0
280
     1
281
     0
  0
BLOCK_RECORD
  5
6C
330
1
100
AcDbSymbolTableRecord
100
AcDbBlockTableRecord
  2
*Paper_Space
340
6F
 70
     0
280
     1
281
     0
  0
BLOCK_RECORD
  5
74
330
1
100
AcDbSymbolTableRecord
100
AcDbBlockTableRecord
  2
*Paper_Space0
340
77
 70
     0
280
     1
281
     0
  0
BLOCK_RECORD
  5
105
330
1
100
AcDbSymbolTableRecord
100
AcDbBlockTableRecord
  2
FP Timber Nog Packer1 - Variable-173500-W-TRSIL-17-H - Pipe Penetration Detail _Hor__
340
0
102
{BLKREFS
331
110
102
}
 70
     0
280
     1
281
     0
  0
BLOCK_RECORD
  5
111
330
1
100
AcDbSymbolTableRecord
100
AcDbBlockTableRecord
  2
TRS Interlocking profile - Interlocking 260-113920-W-TRSIL-17-H - Pipe Penetration Detail _Hor__
340
0
102
{BLKREFS
331
126
102
}
 70
     0
280
     1
281
     0
  0
BLOCK_RECORD
  5
142
330
1
100
AcDbSymbolTableRecord
100
AcDbBlockTableRecord
  2
HP_WProof - Building Wrap - HP_WProof - Building Wrap-130950-W-TRSIL-17-H - Pipe Penetration Detail _Hor__
340
0
102
{BLKREFS
331
148
102
}
 70
     0
280
     1
281
     0
  0
BLOCK_RECORD
  5
149
330
1
100
AcDbSymbolTableRecord
100
AcDbBlockTableRecord
  2
TRS Interlocking profile - Interlocking 260-V1-W-TRSIL-17-H - Pipe Penetration Detail _Hor__
340
0
102
{BLKREFS
331
155
102
}
 70
     0
280
     1
281
     0
  0
BLOCK_RECORD
  5
15E
330
1
100
AcDbSymbolTableRecord
100
AcDbBlockTableRecord
  2
FP - Break Line - FP - Break Line-168850-W-TRSIL-17-H - Pipe Penetration Detail _Hor__
340
0
102
{BLKREFS
331
166
102
}
 70
     0
280
     1
281
     0
  0
BLOCK_RECORD
  5
167
330
1
100
AcDbSymbolTableRecord
100
AcDbBlockTableRecord
  2
TRS Interlocking profile - Interlocking 260-V2-W-TRSIL-17-H - Pipe Penetration Detail _Hor__
340
0
102
{BLKREFS
331
171
102
}
 70
     0
280
     1
281
     0
  0
BLOCK_RECORD
  5
172
330
1
100
AcDbSymbolTableRecord
100
AcDbBlockTableRecord
  2
FP - Break Line - FP - Break Line-168802-W-TRSIL-17-H - Pipe Penetration Detail _Hor__
340
0
102
{BLKREFS
331
17A
102
}
 70
     0
280
     1
281
     0
  0
BLOCK_RECORD
  5
19E
330
1
100
AcDbSymbolTableRecord
100
AcDbBlockTableRecord
  2
4811_Air Seal w Foam - Airseal on PEF Backing Rod-172310-W-TRSIL-17-H - Pipe Penetration Detail _Hor__
340
0
102
{BLKREFS
331
1A6
102
}
 70
     0
280
     1
281
     0
  0
BLOCK_RECORD
  5
1A7
330
1
100
AcDbSymbolTableRecord
100
AcDbBlockTableRecord
  2
4811_Air Seal w Foam - Airseal on PEF Backing Rod-172733-W-TRSIL-17-H - Pipe Penetration Detail _Hor__
340
0
102
{BLKREFS
331
1AF
102
}
 70
     0
280
     1
281
     0
  0
BLOCK_RECORD
  5
1B0
330
1
100
AcDbSymbolTableRecord
100
AcDbBlockTableRecord
  2
4811_Air Seal w Foam - Airseal on PEF Backing Rod-V3-W-TRSIL-17-H - Pipe Penetration Detail _Hor__
340
0
102
{BLKREFS
331
1B8
102
}
 70
     0
280
     1
281
     0
  0
BLOCK_RECORD
  5
1B9
330
1
100
AcDbSymbolTableRecord
100
AcDbBlockTableRecord
  2
4811_Air Seal w Foam - Airseal on PEF Backing Rod-V4-W-TRSIL-17-H - Pipe Penetration Detail _Hor__
340
0
102
{BLKREFS
331
1C1
102
}
 70
     0
280
     1
281
     0
  0
BLOCK_RECORD
  5
219
330
1
100
AcDbSymbolTableRecord
100
AcDbBlockTableRecord
  2
_Oblique
340
0
102
{BLKREFS
102
}
 70
     0
280
     1
281
     0
  0
BLOCK_RECORD
  5
220
330
1
100
AcDbSymbolTableRecord
100
AcDbBlockTableRecord
  2
DIMBLOCK1-W-TRSIL-17-H - Pipe Penetration Detail _Hor__
340
0
 70
     0
280
     1
281
     0
  0
BLOCK_RECORD
  5
241
330
1
100
AcDbSymbolTableRecord
100
AcDbBlockTableRecord
  2
Titleblock A4 The roofing store - Titleblock A4 The roofing store-2694-Pipe Penetration Detail _Hor__
340
0
102
{BLKREFS
331
26E
102
}
 70
     0
280
     1
281
     0
  0
ENDTAB
  0
ENDSEC
  0
SECTION
  2
BLOCKS
  0
BLOCK
  5
71
330
70
100
AcDbEntity
  8
0
100
AcDbBlockBegin
  2
*Model_Space
 70
     0
 10
0.0
 20
0.0
 30
0.0
  3
*Model_Space
  1

  0
ENDBLK
  5
72
330
70
100
AcDbEntity
  8
0
100
AcDbBlockEnd
  0
BLOCK
  5
6D
330
6C
100
AcDbEntity
 67
     1
  8
0
100
AcDbBlockBegin
  2
*Paper_Space
 70
     0
 10
0.0
 20
0.0
 30
0.0
  3
*Paper_Space
  1

  0
ENDBLK
  5
6E
330
6C
100
AcDbEntity
 67
     1
  8
0
100
AcDbBlockEnd
  0
BLOCK
  5
75
330
74
100
AcDbEntity
 67
     1
  8
0
100
AcDbBlockBegin
  2
*Paper_Space0
 70
     0
 10
0.0
 20
0.0
 30
0.0
  3
*Paper_Space0
  1

  0
ENDBLK
  5
76
330
74
100
AcDbEntity
 67
     1
  8
0
100
AcDbBlockEnd
  0
BLOCK
  5
10E
330
105
100
AcDbEntity
  8
0
100
AcDbBlockBegin
  2
FP Timber Nog Packer1 - Variable-173500-W-TRSIL-17-H - Pipe Penetration Detail _Hor__
 70
     0
 10
0.0
 20
0.0
 30
0.0
  3
FP Timber Nog Packer1 - Variable-173500-W-TRSIL-17-H - Pipe Penetration Detail _Hor__
  1

  0
LINE
  5
106
330
105
100
AcDbEntity
  8
A-DETL-GENF
100
AcDbLine
 10
190.0000000000004
 20
-19.99999999999973
 30
0.0
 11
190.0000000000004
 21
24.99999999999865
 31
0.0
1001
REVIT
1002
{
1070
     3
1000
16257
1002
}
  0
LINE
  5
107
330
105
100
AcDbEntity
  8
A-DETL-GENF
100
AcDbLine
 10
190.0000000000004
 20
24.99999999999865
 30
0.0
 11
116.9563502322793
 21
24.99999999999865
 31
0.0
1001
REVIT
1002
{
1070
     3
1000
16257
1002
}
  0
LINE
  5
108
330
105
100
AcDbEntity
  8
A-DETL-GENF
100
AcDbLine
 10
76.901456392363
 20
24.99999999999865
 30
0.0
 11
0.0
 21
24.99999999999865
 31
0.0
1001
REVIT
1002
{
1070
     3
1000
16257
1002
}
  0
LINE
  5
109
330
105
100
AcDbEntity
  8
A-DETL-GENF
100
AcDbLine
 10
0.0
 20
24.99999999999865
 30
0.0
 11
0.0
 21
-19.99999999999973
 31
0.0
1001
REVIT
1002
{
1070
     3
1000
16257
1002
}
  0
LINE
  5
10A
330
105
100
AcDbEntity
  8
A-DETL-GENF
100
AcDbLine
 10
0.0
 20
-19.99999999999973
 30
0.0
 11
74.54310632462687
 21
-19.99999999999973
 31
0.0
1001
REVIT
1002
{
1070
     3
1000
16257
1002
}
  0
LINE
  5
10B
330
105
100
AcDbEntity
  8
A-DETL-GENF
100
AcDbLine
 10
114.598000164543
 20
-19.99999999999973
 30
0.0
 11
190.0000000000004
 21
-19.99999999999973
 31
0.0
1001
REVIT
1002
{
1070
     3
1000
16257
1002
}
  0
LINE
  5
10C
330
105
100
AcDbEntity
  8
A-DETL-GENF
100
AcDbLine
 10
-0.0000000000005245
 20
-19.99999999999973
 30
0.0
 11
75.47999181840397
 21
-2.123159832483608
 31
0.0
1001
REVIT
1002
{
1070
     3
1000
16362
1002
}
  0
LINE
  5
10D
330
105
100
AcDbEntity
  8
A-DETL-GENF
100
AcDbLine
 10
116.0383104663766
 20
7.482757742035836
 30
0.0
 11
190.0000000000004
 21
24.99999999999866
 31
0.0
1001
REVIT
1002
{
1070
     3
1000
16362
1002
}
  0
ENDBLK
  5
10F
330
105
100
AcDbEntity
  8
0
100
AcDbBlockEnd
  0
BLOCK
  5
124
330
111
100
AcDbEntity
  8
0
100
AcDbBlockBegin
  2
TRS Interlocking profile - Interlocking 260-113920-W-TRSIL-17-H - Pipe Penetration Detail _Hor__
 70
     0
 10
0.0
 20
0.0
 30
0.0
  3
TRS Interlocking profile - Interlocking 260-113920-W-TRSIL-17-H - Pipe Penetration Detail _Hor__
  1

  0
LINE
  5
112
330
111
100
AcDbEntity
  8
A-DETL-GENF
100
AcDbLine
 10
-810.0000000000003
 20
0.0
 30
0.0
 11
-790.0000000000001
 21
0.0
 31
0.0
  0
LINE
  5
113
330
111
100
AcDbEntity
  8
A-DETL-GENF
100
AcDbLine
 10
-770.0000000000001
 20
2.399999999999999
 30
0.0
 11
-790.0000000000001
 21
0.0
 31
0.0
  0
LINE
  5
114
330
111
100
AcDbEntity
  8
A-DETL-GENF
100
AcDbLine
 10
-770.0000000000001
 20
2.399999999999999
 30
0.0
 11
-722.8383020477994
 21
2.399999999999846
 31
0.0
  0
LINE
  5
115
330
111
100
AcDbEntity
  8
A-DETL-GENF
100
AcDbLine
 10
-722.8383020477994
 20
4.599999999999842
 30
0.0
 11
-760.2695588928534
 21
4.599999999999842
 31
0.0
  0
LINE
  5
116
330
111
100
AcDbEntity
  8
A-DETL-GENF
100
AcDbLine
 10
-761.7818139502136
 20
6.112255057360221
 30
0.0
 11
-761.7818139502136
 21
23.09999999999984
 31
0.0
  0
LINE
  5
117
330
111
100
AcDbEntity
  8
A-DETL-GENF
100
AcDbLine
 10
-760.2818139502136
 20
24.59999999999984
 30
0.0
 11
-694.7059059123828
 21
24.59999999999963
 31
0.0
  0
LINE
  5
118
330
111
100
AcDbEntity
  8
A-DETL-GENF
100
AcDbLine
 10
-684.5386644536157
 20
24.5999999999996
 30
0.0
 11
-654.8466546136869
 21
24.59999999999951
 31
0.0
  0
LINE
  5
119
330
111
100
AcDbEntity
  8
A-DETL-GENF
100
AcDbLine
 10
-607.5854840367884
 20
24.59999999999935
 30
0.0
 11
-577.7859573224386
 21
24.59999999999926
 31
0.0
  0
LINE
  5
11A
330
111
100
AcDbEntity
  8
A-DETL-GENF
100
AcDbLine
 10
-567.6187158636716
 20
24.59999999999922
 30
0.0
 11
-503.2728888821042
 21
24.59999999999902
 31
0.0
  0
LINE
  5
11B
330
111
100
AcDbEntity
  8
A-DETL-GENF
100
AcDbLine
 10
-501.7818139502136
 20
23.10892506810844
 30
0.0
 11
-501.7818139502136
 21
4.511758410021792
 31
0.0
  0
LINE
  5
11C
330
111
100
AcDbEntity
  8
A-DETL-GENF
100
AcDbLine
 10
-500.2861306645898
 20
3.01607512439793
 30
0.0
 11
-469.2818139502135
 21
3.01607512439793
 31
0.0
  0
LINE
  5
11D
330
111
100
AcDbEntity
  8
A-DETL-GENF
100
AcDbLine
 10
-469.2818139502135
 20
3.01607512439793
 30
0.0
 11
-467.0671833822827
 21
3.609483596608291
 31
0.0
  0
LINE
  5
11E
330
111
100
AcDbEntity
  8
A-DETL-GENF
100
AcDbLine
 10
-464.8525528143519
 20
3.01607512439793
 30
0.0
 11
-467.0671833822827
 21
3.609483596608291
 31
0.0
  0
ARC
  5
11F
330
111
100
AcDbEntity
  8
A-DETL-GENF
100
AcDbCircle
 10
-760.2818139502136
 20
23.09999999999984
 30
0.0
 40
1.5
100
AcDbArc
 50
90.0
 51
180.0
  0
ARC
  5
120
330
111
100
AcDbEntity
  8
A-DETL-GENF
100
AcDbCircle
 10
-760.2695588928534
 20
6.112255057360221
 30
0.0
 40
1.512255057360333
100
AcDbArc
 50
179.9999999999999
 51
269.9999999999997
  0
ARC
  5
121
330
111
100
AcDbEntity
  8
A-DETL-GENF
100
AcDbCircle
 10
-722.8383020477994
 20
3.499999999999844
 30
0.0
 40
1.099999999999983
100
AcDbArc
 50
269.9999999999994
 51
89.99999999999976
  0
ARC
  5
122
330
111
100
AcDbEntity
  8
A-DETL-GENF
100
AcDbCircle
 10
-503.2728888821042
 20
23.10892506810843
 30
0.0
 40
1.491074931890586
100
AcDbArc
 50
0.0000000000001463
 51
90.00000000000028
  0
ARC
  5
123
330
111
100
AcDbEntity
  8
A-DETL-GENF
100
AcDbCircle
 10
-500.2861306645898
 20
4.511758410021792
 30
0.0
 40
1.49568328562384
100
AcDbArc
 50
179.9999999999999
 51
269.9999999999995
  0
ENDBLK
  5
125
330
111
100
AcDbEntity
  8
0
100
AcDbBlockEnd
  0
BLOCK
  5
146
330
142
100
AcDbEntity
  8
0
100
AcDbBlockBegin
  2
HP_WProof - Building Wrap - HP_WProof - Building Wrap-130950-W-TRSIL-17-H - Pipe Penetration Detail _Hor__
 70
     0
 10
0.0
 20
0.0
 30
0.0
  3
HP_WProof - Building Wrap - HP_WProof - Building Wrap-130950-W-TRSIL-17-H - Pipe Penetration Detail _Hor__
  1

  0
LINE
  5
144
330
142
100
AcDbEntity
  8
A-DETL-GENF
100
AcDbLine
 10
0.0
 20
-606.66035479046
 30
0.0
 11
0.0
 21
-356.2771886130776
 31
0.0
1001
REVIT
1002
{
1070
     3
1000
16110
1002
}
  0
LINE
  5
145
330
142
100
AcDbEntity
  8
A-DETL-GENF
100
AcDbLine
 10
0.0
 20
-316.2222947731615
 30
0.0
 11
0.0
 21
-35.00000000000003
 31
0.0
1001
REVIT
1002
{
1070
     3
1000
16110
1002
}
  0
ENDBLK
  5
147
330
142
100
AcDbEntity
  8
0
100
AcDbBlockEnd
  0
BLOCK
  5
153
330
149
100
AcDbEntity
  8
0
100
AcDbBlockBegin
  2
TRS Interlocking profile - Interlocking 260-V1-W-TRSIL-17-H - Pipe Penetration Detail _Hor__
 70
     0
 10
0.0
 20
0.0
 30
0.0
  3
TRS Interlocking profile - Interlocking 260-V1-W-TRSIL-17-H - Pipe Penetration Detail _Hor__
  1

  0
LINE
  5
14A
330
149
100
AcDbEntity
  8
A-DETL-GENF
100
AcDbLine
 10
-810.0000000000003
 20
0.0
 30
0.0
 11
-790.0000000000001
 21
0.0
 31
0.0
  0
LINE
  5
14B
330
149
100
AcDbEntity
  8
A-DETL-GENF
100
AcDbLine
 10
-770.0000000000001
 20
2.399999999999999
 30
0.0
 11
-790.0000000000001
 21
0.0
 31
0.0
  0
LINE
  5
14C
330
149
100
AcDbEntity
  8
A-DETL-GENF
100
AcDbLine
 10
-770.0000000000001
 20
2.399999999999999
 30
0.0
 11
-722.8383020477994
 21
2.399999999999846
 31
0.0
  0
LINE
  5
14D
330
149
100
AcDbEntity
  8
A-DETL-GENF
100
AcDbLine
 10
-722.8383020477994
 20
4.599999999999842
 30
0.0
 11
-760.2695588928534
 21
4.599999999999842
 31
0.0
  0
LINE
  5
14E
330
149
100
AcDbEntity
  8
A-DETL-GENF
100
AcDbLine
 10
-761.7818139502136
 20
6.112255057360221
 30
0.0
 11
-761.7818139502136
 21
23.09999999999984
 31
0.0
  0
LINE
  5
14F
330
149
100
AcDbEntity
  8
A-DETL-GENF
100
AcDbLine
 10
-760.2818139502136
 20
24.59999999999984
 30
0.0
 11
-595.9183684333929
 21
24.59999999999932
 31
0.0
  0
ARC
  5
150
330
149
100
AcDbEntity
  8
A-DETL-GENF
100
AcDbCircle
 10
-760.2818139502136
 20
23.09999999999984
 30
0.0
 40
1.5
100
AcDbArc
 50
90.0
 51
180.0
  0
ARC
  5
151
330
149
100
AcDbEntity
  8
A-DETL-GENF
100
AcDbCircle
 10
-760.2695588928534
 20
6.112255057360221
 30
0.0
 40
1.512255057360333
100
AcDbArc
 50
179.9999999999999
 51
269.9999999999997
  0
ARC
  5
152
330
149
100
AcDbEntity
  8
A-DETL-GENF
100
AcDbCircle
 10
-722.8383020477994
 20
3.499999999999844
 30
0.0
 40
1.099999999999983
100
AcDbArc
 50
269.9999999999994
 51
89.99999999999976
  0
ENDBLK
  5
154
330
149
100
AcDbEntity
  8
0
100
AcDbBlockEnd
  0
BLOCK
  5
164
330
15E
100
AcDbEntity
  8
0
100
AcDbBlockBegin
  2
FP - Break Line - FP - Break Line-168850-W-TRSIL-17-H - Pipe Penetration Detail _Hor__
 70
     0
 10
0.0
 20
0.0
 30
0.0
  3
FP - Break Line - FP - Break Line-168850-W-TRSIL-17-H - Pipe Penetration Detail _Hor__
  1

  0
LINE
  5
15F
330
15E
100
AcDbEntity
  8
A-DETL-GENF
100
AcDbLine
 10
-9.99999999999996
 20
-0.0000000000045937
 30
0.0
 11
-104.4718017474315
 21
-0.0000000000045937
 31
0.0
1001
REVIT
1002
{
1070
     3
1000
15798
1002
}
  0
LINE
  5
160
330
15E
100
AcDbEntity
  8
A-DETL-GENF
100
AcDbLine
 10
99.13373258924183
 20
-0.0000000000045937
 30
0.0
 11
10.00000000000003
 21
-0.0000000000045937
 31
0.0
1001
REVIT
1002
{
1070
     3
1000
15798
1002
}
  0
LINE
  5
161
330
15E
100
AcDbEntity
  8
A-DETL-GENF
100
AcDbLine
 10
10.00000000000003
 20
-0.0000000000045937
 30
0.0
 11
5.000000000000523
 21
19.99999999999498
 31
0.0
1001
REVIT
1002
{
1070
     3
1000
15798
1002
}
  0
LINE
  5
162
330
15E
100
AcDbEntity
  8
A-DETL-GENF
100
AcDbLine
 10
5.000000000000523
 20
19.99999999999498
 30
0.0
 11
-4.999999999999864
 21
-20.00000000000462
 31
0.0
1001
REVIT
1002
{
1070
     3
1000
15798
1002
}
  0
LINE
  5
163
330
15E
100
AcDbEntity
  8
A-DETL-GENF
100
AcDbLine
 10
-4.999999999999864
 20
-20.00000000000462
 30
0.0
 11
-9.999999999999957
 21
-0.0000000000045937
 31
0.0
1001
REVIT
1002
{
1070
     3
1000
15798
1002
}
  0
ENDBLK
  5
165
330
15E
100
AcDbEntity
  8
0
100
AcDbBlockEnd
  0
BLOCK
  5
16F
330
167
100
AcDbEntity
  8
0
100
AcDbBlockBegin
  2
TRS Interlocking profile - Interlocking 260-V2-W-TRSIL-17-H - Pipe Penetration Detail _Hor__
 70
     0
 10
0.0
 20
0.0
 30
0.0
  3
TRS Interlocking profile - Interlocking 260-V2-W-TRSIL-17-H - Pipe Penetration Detail _Hor__
  1

  0
LINE
  5
168
330
167
100
AcDbEntity
  8
A-DETL-GENF
100
AcDbLine
 10
-641.3287232238513
 20
24.59999999999946
 30
0.0
 11
-503.2728888821042
 21
24.59999999999902
 31
0.0
  0
LINE
  5
169
330
167
100
AcDbEntity
  8
A-DETL-GENF
100
AcDbLine
 10
-501.7818139502136
 20
23.10892506810844
 30
0.0
 11
-501.7818139502136
 21
4.511758410021792
 31
0.0
  0
LINE
  5
16A
330
167
100
AcDbEntity
  8
A-DETL-GENF
100
AcDbLine
 10
-500.2861306645898
 20
3.01607512439793
 30
0.0
 11
-469.2818139502135
 21
3.01607512439793
 31
0.0
  0
LINE
  5
16B
330
167
100
AcDbEntity
  8
A-DETL-GENF
100
AcDbLine
 10
-469.2818139502135
 20
3.01607512439793
 30
0.0
 11
-467.0671833822827
 21
3.609483596608291
 31
0.0
  0
LINE
  5
16C
330
167
100
AcDbEntity
  8
A-DETL-GENF
100
AcDbLine
 10
-464.8525528143519
 20
3.01607512439793
 30
0.0
 11
-467.0671833822827
 21
3.609483596608291
 31
0.0
  0
ARC
  5
16D
330
167
100
AcDbEntity
  8
A-DETL-GENF
100
AcDbCircle
 10
-503.2728888821042
 20
23.10892506810843
 30
0.0
 40
1.491074931890586
100
AcDbArc
 50
0.0000000000001463
 51
90.00000000000028
  0
ARC
  5
16E
330
167
100
AcDbEntity
  8
A-DETL-GENF
100
AcDbCircle
 10
-500.2861306645898
 20
4.511758410021792
 30
0.0
 40
1.49568328562384
100
AcDbArc
 50
179.9999999999999
 51
269.9999999999995
  0
ENDBLK
  5
170
330
167
100
AcDbEntity
  8
0
100
AcDbBlockEnd
  0
BLOCK
  5
178
330
172
100
AcDbEntity
  8
0
100
AcDbBlockBegin
  2
FP - Break Line - FP - Break Line-168802-W-TRSIL-17-H - Pipe Penetration Detail _Hor__
 70
     0
 10
0.0
 20
0.0
 30
0.0
  3
FP - Break Line - FP - Break Line-168802-W-TRSIL-17-H - Pipe Penetration Detail _Hor__
  1

  0
LINE
  5
173
330
172
100
AcDbEntity
  8
A-DETL-GENF
100
AcDbLine
 10
-9.999999999999957
 20
0.0000000000045937
 30
0.0
 11
-4.999999999999864
 21
20.00000000000462
 31
0.0
1001
REVIT
1002
{
1070
     3
1000
15798
1002
}
  0
LINE
  5
174
330
172
100
AcDbEntity
  8
A-DETL-GENF
100
AcDbLine
 10
-4.999999999999862
 20
20.00000000000462
 30
0.0
 11
5.000000000000524
 21
-19.99999999999498
 31
0.0
1001
REVIT
1002
{
1070
     3
1000
15798
1002
}
  0
LINE
  5
175
330
172
100
AcDbEntity
  8
A-DETL-GENF
100
AcDbLine
 10
5.000000000000523
 20
-19.99999999999498
 30
0.0
 11
10.00000000000003
 21
0.0000000000045937
 31
0.0
1001
REVIT
1002
{
1070
     3
1000
15798
1002
}
  0
LINE
  5
176
330
172
100
AcDbEntity
  8
A-DETL-GENF
100
AcDbLine
 10
10.00000000000003
 20
0.0000000000045937
 30
0.0
 11
100.3208217918218
 21
0.0000000000045937
 31
0.0
1001
REVIT
1002
{
1070
     3
1000
15798
1002
}
  0
LINE
  5
177
330
172
100
AcDbEntity
  8
A-DETL-GENF
100
AcDbLine
 10
-100.1597755094902
 20
0.0000000000045937
 30
0.0
 11
-9.99999999999996
 21
0.0000000000045937
 31
0.0
1001
REVIT
1002
{
1070
     3
1000
15798
1002
}
  0
ENDBLK
  5
179
330
172
100
AcDbEntity
  8
0
100
AcDbBlockEnd
  0
BLOCK
  5
1A4
330
19E
100
AcDbEntity
  8
0
100
AcDbBlockBegin
  2
4811_Air Seal w Foam - Airseal on PEF Backing Rod-172310-W-TRSIL-17-H - Pipe Penetration Detail _Hor__
 70
     0
 10
0.0
 20
0.0
 30
0.0
  3
4811_Air Seal w Foam - Airseal on PEF Backing Rod-172310-W-TRSIL-17-H - Pipe Penetration Detail _Hor__
  1

  0
SPLINE
  5
19F
330
19E
100
AcDbEntity
  8
A-DETL-GENF
100
AcDbSpline
210
0.0
220
0.0
230
1.0
 70
     8
 71
     3
 72
    16
 73
    12
 74
     0
 42
0.000000001
 43
0.0000000001
 40
0.0
 40
0.0
 40
0.0
 40
0.0
 40
0.1428571428571428
 40
0.2142857142857143
 40
0.2857142857142857
 40
0.4285714285714286
 40
0.5714285714285714
 40
0.6785714285714287
 40
0.7857142857142857
 40
0.8928571428571427
 40
1.0
 40
1.0
 40
1.0
 40
1.0
 10
-7.382609818164556
 20
1.909672018805781
 30
0.0
 10
-7.078476487026069
 20
1.90863997084733
 30
0.0
 10
-6.636047492229181
 20
1.783587152330419
 30
0.0
 10
-6.124955703730829
 20
1.388507884685239
 30
0.0
 10
-5.699260000961919
 20
0.8644864122130858
 30
0.0
 10
-5.366084271114546
 20
0.0137321402523586
 30
0.0
 10
-5.366274443056698
 20
-1.025232265633406
 30
0.0
 10
-5.657219724577936
 20
-1.888095580773097
 30
0.0
 10
-6.111321959995994
 20
-2.515142538231339
 30
0.0
 10
-6.711273722120129
 20
-2.921917277314856
 30
0.0
 10
-7.154509819810688
 20
-3.014938375590633
 30
0.0
 10
-7.382609818164551
 20
-3.015712411559474
 30
0.0
1001
REVIT
1002
{
1070
     3
1000
19822
1002
}
  0
LINE
  5
1A0
330
19E
100
AcDbEntity
  8
A-DETL-GENF
100
AcDbLine
 10
-7.38260981816457
 20
-3.015712411559474
 30
0.0
 11
2.142737688280174
 21
-3.015712411559474
 31
0.0
1001
REVIT
1002
{
1070
     3
1000
19822
1002
}
  0
LINE
  5
1A1
330
19E
100
AcDbEntity
  8
A-DETL-GENF
100
AcDbLine
 10
2.138157316790873
 20
1.909672018805781
 30
0.0
 11
-7.382609818164537
 21
1.909672018805781
 31
0.0
1001
REVIT
1002
{
1070
     3
1000
19822
1002
}
  0
SPLINE
  5
1A2
330
19E
100
AcDbEntity
  8
A-DETL-GENF
100
AcDbSpline
210
0.0
220
0.0
230
1.0
 70
     8
 71
     3
 72
    18
 73
    14
 74
     0
 42
0.000000001
 43
0.0000000001
 40
0.0
 40
0.0
 40
0.0
 40
0.0
 40
0.1538461538461539
 40
0.2307692307692308
 40
0.3076923076923077
 40
0.3846153846153846
 40
0.4615384615384616
 40
0.5384615384615385
 40
0.6153846153846155
 40
0.7115384615384616
 40
0.8076923076923076
 40
0.9038461538461538
 40
1.0
 40
1.0
 40
1.0
 40
1.0
 10
2.784631640602368
 20
1.938367881192022
 30
0.0
 10
2.342696335027721
 20
1.936965432379606
 30
0.0
 10
1.703006850681516
 20
1.790037400462628
 30
0.0
 10
0.9818594856990699
 20
1.329932355877017
 30
0.0
 10
0.5477663428038317
 20
0.8761227824685409
 30
0.0
 10
0.2431361597086589
 20
0.3390737597469443
 30
0.0
 10
0.0863537225278412
 20
-0.2497886727647052
 30
0.0
 10
0.0863398446377491
 20
-0.8562183583620488
 30
0.0
 10
0.256247622440639
 20
-1.494369510824597
 30
0.0
 10
0.632947530664687
 20
-2.112290499067498
 30
0.0
 10
1.231494211300809
 20
-2.634626734130548
 30
0.0
 10
1.974977305174366
 20
-2.968578286348217
 30
0.0
 10
2.508422074618138
 20
-3.043531743437998
 30
0.0
 10
2.784631640602292
 20
-3.044408273945766
 30
0.0
1001
REVIT
1002
{
1070
     3
1000
19822
1002
}
  0
SPLINE
  5
1A3
330
19E
100
AcDbEntity
  8
A-DETL-GENF
100
AcDbSpline
210
0.0
220
0.0
230
1.0
 70
     8
 71
     3
 72
    18
 73
    14
 74
     0
 42
0.000000001
 43
0.0000000001
 40
0.0
 40
0.0
 40
0.0
 40
0.0
 40
0.1538461538461539
 40
0.2307692307692308
 40
0.3076923076923077
 40
0.3846153846153846
 40
0.4615384615384616
 40
0.5384615384615385
 40
0.6153846153846155
 40
0.7115384615384616
 40
0.8076923076923076
 40
0.9038461538461538
 40
1.0
 40
1.0
 40
1.0
 40
1.0
 10
2.784631640602309
 20
-3.044408273945766
 30
0.0
 10
3.226566946176957
 20
-3.043005825133347
 30
0.0
 10
3.86625643052316
 20
-2.896077793216368
 30
0.0
 10
4.587403795505606
 20
-2.435972748630757
 30
0.0
 10
5.021496938400843
 20
-1.982163175222276
 30
0.0
 10
5.326127121496012
 20
-1.44511415250068
 30
0.0
 10
5.482909558676828
 20
-0.8562517199890301
 30
0.0
 10
5.482923436566917
 20
-0.249822034391686
 30
0.0
 10
5.313015658764027
 20
0.388329118070861
 30
0.0
 10
4.936315750539975
 20
1.006250106313761
 30
0.0
 10
4.337769069903852
 20
1.528586341376809
 30
0.0
 10
3.594285976030295
 20
1.862537893594475
 30
0.0
 10
3.060841206586523
 20
1.937491350684255
 30
0.0
 10
2.784631640602369
 20
1.938367881192022
 30
0.0
1001
REVIT
1002
{
1070
     3
1000
19822
1002
}
  0
ENDBLK
  5
1A5
330
19E
100
AcDbEntity
  8
0
100
AcDbBlockEnd
  0
BLOCK
  5
1AD
330
1A7
100
AcDbEntity
  8
0
100
AcDbBlockBegin
  2
4811_Air Seal w Foam - Airseal on PEF Backing Rod-172733-W-TRSIL-17-H - Pipe Penetration Detail _Hor__
 70
     0
 10
0.0
 20
0.0
 30
0.0
  3
4811_Air Seal w Foam - Airseal on PEF Backing Rod-172733-W-TRSIL-17-H - Pipe Penetration Detail _Hor__
  1

  0
LINE
  5
1A8
330
1A7
100
AcDbEntity
  8
A-DETL-GENF
100
AcDbLine
 10
-7.382609818164537
 20
-1.909672018805781
 30
0.0
 11
2.142737688280281
 21
-1.909672018805781
 31
0.0
1001
REVIT
1002
{
1070
     3
1000
19822
1002
}
  0
LINE
  5
1A9
330
1A7
100
AcDbEntity
  8
A-DETL-GENF
100
AcDbLine
 10
2.138157316790873
 20
3.015712411559474
 30
0.0
 11
-7.382609818164568
 21
3.015712411559474
 31
0.0
1001
REVIT
1002
{
1070
     3
1000
19822
1002
}
  0
SPLINE
  5
1AA
330
1A7
100
AcDbEntity
  8
A-DETL-GENF
100
AcDbSpline
210
0.0
220
0.0
230
1.0
 70
     8
 71
     3
 72
    16
 73
    12
 74
     0
 42
0.000000001
 43
0.0000000001
 40
0.0
 40
0.0
 40
0.0
 40
0.0
 40
0.1428571428571428
 40
0.2142857142857143
 40
0.2857142857142857
 40
0.4285714285714286
 40
0.5714285714285714
 40
0.6785714285714287
 40
0.7857142857142857
 40
0.8928571428571427
 40
1.0
 40
1.0
 40
1.0
 40
1.0
 10
-7.38260981816455
 20
3.015712411559474
 30
0.0
 10
-7.078476487026064
 20
3.01468036360102
 30
0.0
 10
-6.636047492229177
 20
2.889627545084105
 30
0.0
 10
-6.124955703730826
 20
2.494548277438924
 30
0.0
 10
-5.699260000961912
 20
1.970526804966764
 30
0.0
 10
-5.366084271114555
 20
1.119772533006032
 30
0.0
 10
-5.366274443056698
 20
0.0808081271202698
 30
0.0
 10
-5.657219724577941
 20
-0.7820551880194201
 30
0.0
 10
-6.111321959995994
 20
-1.409102145477654
 30
0.0
 10
-6.711273722120134
 20
-1.815876884561169
 30
0.0
 10
-7.154509819810692
 20
-1.908897982836942
 30
0.0
 10
-7.382609818164558
 20
-1.909672018805781
 30
0.0
1001
REVIT
1002
{
1070
     3
1000
19822
1002
}
  0
SPLINE
  5
1AB
330
1A7
100
AcDbEntity
  8
A-DETL-GENF
100
AcDbSpline
210
0.0
220
0.0
230
1.0
 70
     8
 71
     3
 72
    18
 73
    14
 74
     0
 42
0.000000001
 43
0.0000000001
 40
0.0
 40
0.0
 40
0.0
 40
0.0
 40
0.1538461538461539
 40
0.2307692307692308
 40
0.3076923076923077
 40
0.3846153846153846
 40
0.4615384615384616
 40
0.5384615384615385
 40
0.6153846153846155
 40
0.7115384615384616
 40
0.8076923076923076
 40
0.9038461538461538
 40
1.0
 40
1.0
 40
1.0
 40
1.0
 10
2.784631640602368
 20
-1.938367881192022
 30
0.0
 10
3.226566946177015
 20
-1.936965432379595
 30
0.0
 10
3.866256430523215
 20
-1.7900374004626
 30
0.0
 10
4.58740379550565
 20
-1.329932355876972
 30
0.0
 10
5.021496938400878
 20
-0.8761227824684816
 30
0.0
 10
5.326127121496035
 20
-0.3390737597468776
 30
0.0
 10
5.48290955867684
 20
0.2497886727647748
 30
0.0
 10
5.48292343656691
 20
0.8562183583621189
 30
0.0
 10
5.313015658764
 20
1.494369510824663
 30
0.0
 10
4.936315750539938
 20
2.112290499067554
 30
0.0
 10
4.337769069903805
 20
2.63462673413059
 30
0.0
 10
3.594285976030239
 20
2.968578286348236
 30
0.0
 10
3.060841206586464
 20
3.043531743438005
 30
0.0
 10
2.78463164060231
 20
3.044408273945766
 30
0.0
1001
REVIT
1002
{
1070
     3
1000
19822
1002
}
  0
SPLINE
  5
1AC
330
1A7
100
AcDbEntity
  8
A-DETL-GENF
100
AcDbSpline
210
0.0
220
0.0
230
1.0
 70
     8
 71
     3
 72
    18
 73
    14
 74
     0
 42
0.000000001
 43
0.0000000001
 40
0.0
 40
0.0
 40
0.0
 40
0.0
 40
0.1538461538461539
 40
0.2307692307692308
 40
0.3076923076923077
 40
0.3846153846153846
 40
0.4615384615384616
 40
0.5384615384615385
 40
0.6153846153846155
 40
0.7115384615384616
 40
0.8076923076923076
 40
0.9038461538461538
 40
1.0
 40
1.0
 40
1.0
 40
1.0
 10
2.784631640602292
 20
3.044408273945766
 30
0.0
 10
2.342696335027645
 20
3.043005825133338
 30
0.0
 10
1.703006850681445
 20
2.896077793216339
 30
0.0
 10
0.9818594856990127
 20
2.435972748630711
 30
0.0
 10
0.5477663428037869
 20
1.98216317522222
 30
0.0
 10
0.2431361597086308
 20
1.445114152500613
 30
0.0
 10
0.0863537225278313
 20
0.8562517199889594
 30
0.0
 10
0.086339844637759
 20
0.2498220343916162
 30
0.0
 10
0.2562476224406681
 20
-0.388329118070928
 30
0.0
 10
0.632947530664735
 20
-1.006250106313817
 30
0.0
 10
1.231494211300872
 20
-1.528586341376849
 30
0.0
 10
1.974977305174439
 20
-1.862537893594497
 30
0.0
 10
2.508422074618214
 20
-1.937491350684262
 30
0.0
 10
2.784631640602368
 20
-1.938367881192022
 30
0.0
1001
REVIT
1002
{
1070
     3
1000
19822
1002
}
  0
ENDBLK
  5
1AE
330
1A7
100
AcDbEntity
  8
0
100
AcDbBlockEnd
  0
BLOCK
  5
1B6
330
1B0
100
AcDbEntity
  8
0
100
AcDbBlockBegin
  2
4811_Air Seal w Foam - Airseal on PEF Backing Rod-V3-W-TRSIL-17-H - Pipe Penetration Detail _Hor__
 70
     0
 10
0.0
 20
0.0
 30
0.0
  3
4811_Air Seal w Foam - Airseal on PEF Backing Rod-V3-W-TRSIL-17-H - Pipe Penetration Detail _Hor__
  1

  0
SPLINE
  5
1B1
330
1B0
100
AcDbEntity
  8
A-DETL-GENF
100
AcDbSpline
210
0.0
220
0.0
230
1.0
 70
     8
 71
     3
 72
    16
 73
    12
 74
     0
 42
0.000000001
 43
0.0000000001
 40
0.0
 40
0.0
 40
0.0
 40
0.0
 40
0.1428571428571428
 40
0.2142857142857143
 40
0.2857142857142857
 40
0.4285714285714286
 40
0.5714285714285714
 40
0.6785714285714287
 40
0.7857142857142857
 40
0.8928571428571427
 40
1.0
 40
1.0
 40
1.0
 40
1.0
 10
-7.382609818164556
 20
1.909672018805781
 30
0.0
 10
-7.078476487026069
 20
1.90863997084733
 30
0.0
 10
-6.636047492229181
 20
1.783587152330419
 30
0.0
 10
-6.124955703730829
 20
1.388507884685239
 30
0.0
 10
-5.699260000961919
 20
0.8644864122130858
 30
0.0
 10
-5.366084271114546
 20
0.0137321402523586
 30
0.0
 10
-5.366274443056698
 20
-1.025232265633406
 30
0.0
 10
-5.657219724577936
 20
-1.888095580773097
 30
0.0
 10
-6.111321959995994
 20
-2.515142538231339
 30
0.0
 10
-6.711273722120129
 20
-2.921917277314856
 30
0.0
 10
-7.154509819810688
 20
-3.014938375590633
 30
0.0
 10
-7.382609818164551
 20
-3.015712411559474
 30
0.0
1001
REVIT
1002
{
1070
     3
1000
19822
1002
}
  0
LINE
  5
1B2
330
1B0
100
AcDbEntity
  8
A-DETL-GENF
100
AcDbLine
 10
-7.38260981816457
 20
-3.015712411559474
 30
0.0
 11
2.140447502535448
 21
-3.015712411559474
 31
0.0
1001
REVIT
1002
{
1070
     3
1000
19822
1002
}
  0
LINE
  5
1B3
330
1B0
100
AcDbEntity
  8
A-DETL-GENF
100
AcDbLine
 10
2.140447502535549
 20
1.909672018805781
 30
0.0
 11
-7.382609818164537
 21
1.909672018805781
 31
0.0
1001
REVIT
1002
{
1070
     3
1000
19822
1002
}
  0
SPLINE
  5
1B4
330
1B0
100
AcDbEntity
  8
A-DETL-GENF
100
AcDbSpline
210
0.0
220
0.0
230
1.0
 70
     8
 71
     3
 72
    18
 73
    14
 74
     0
 42
0.000000001
 43
0.0000000001
 40
0.0
 40
0.0
 40
0.0
 40
0.0
 40
0.1538461538461539
 40
0.2307692307692308
 40
0.3076923076923077
 40
0.3846153846153846
 40
0.4615384615384616
 40
0.5384615384615385
 40
0.6153846153846155
 40
0.7115384615384616
 40
0.8076923076923076
 40
0.9038461538461538
 40
1.0
 40
1.0
 40
1.0
 40
1.0
 10
2.784631640602368
 20
1.938367881192022
 30
0.0
 10
2.342696335027721
 20
1.936965432379606
 30
0.0
 10
1.703006850681516
 20
1.790037400462628
 30
0.0
 10
0.9818594856990699
 20
1.329932355877017
 30
0.0
 10
0.5477663428038317
 20
0.8761227824685409
 30
0.0
 10
0.2431361597086589
 20
0.3390737597469443
 30
0.0
 10
0.0863537225278412
 20
-0.2497886727647052
 30
0.0
 10
0.0863398446377491
 20
-0.8562183583620488
 30
0.0
 10
0.256247622440639
 20
-1.494369510824597
 30
0.0
 10
0.632947530664687
 20
-2.112290499067498
 30
0.0
 10
1.231494211300809
 20
-2.634626734130548
 30
0.0
 10
1.974977305174366
 20
-2.968578286348217
 30
0.0
 10
2.508422074618138
 20
-3.043531743437998
 30
0.0
 10
2.784631640602292
 20
-3.044408273945766
 30
0.0
1001
REVIT
1002
{
1070
     3
1000
19822
1002
}
  0
SPLINE
  5
1B5
330
1B0
100
AcDbEntity
  8
A-DETL-GENF
100
AcDbSpline
210
0.0
220
0.0
230
1.0
 70
     8
 71
     3
 72
    18
 73
    14
 74
     0
 42
0.000000001
 43
0.0000000001
 40
0.0
 40
0.0
 40
0.0
 40
0.0
 40
0.1538461538461539
 40
0.2307692307692308
 40
0.3076923076923077
 40
0.3846153846153846
 40
0.4615384615384616
 40
0.5384615384615385
 40
0.6153846153846155
 40
0.7115384615384616
 40
0.8076923076923076
 40
0.9038461538461538
 40
1.0
 40
1.0
 40
1.0
 40
1.0
 10
2.784631640602309
 20
-3.044408273945766
 30
0.0
 10
3.226566946176957
 20
-3.043005825133347
 30
0.0
 10
3.86625643052316
 20
-2.896077793216368
 30
0.0
 10
4.587403795505606
 20
-2.435972748630757
 30
0.0
 10
5.021496938400843
 20
-1.982163175222276
 30
0.0
 10
5.326127121496012
 20
-1.44511415250068
 30
0.0
 10
5.482909558676828
 20
-0.8562517199890301
 30
0.0
 10
5.482923436566917
 20
-0.249822034391686
 30
0.0
 10
5.313015658764027
 20
0.388329118070861
 30
0.0
 10
4.936315750539975
 20
1.006250106313761
 30
0.0
 10
4.337769069903852
 20
1.528586341376809
 30
0.0
 10
3.594285976030295
 20
1.862537893594475
 30
0.0
 10
3.060841206586523
 20
1.937491350684255
 30
0.0
 10
2.784631640602369
 20
1.938367881192022
 30
0.0
1001
REVIT
1002
{
1070
     3
1000
19822
1002
}
  0
ENDBLK
  5
1B7
330
1B0
100
AcDbEntity
  8
0
100
AcDbBlockEnd
  0
BLOCK
  5
1BF
330
1B9
100
AcDbEntity
  8
0
100
AcDbBlockBegin
  2
4811_Air Seal w Foam - Airseal on PEF Backing Rod-V4-W-TRSIL-17-H - Pipe Penetration Detail _Hor__
 70
     0
 10
0.0
 20
0.0
 30
0.0
  3
4811_Air Seal w Foam - Airseal on PEF Backing Rod-V4-W-TRSIL-17-H - Pipe Penetration Detail _Hor__
  1

  0
LINE
  5
1BA
330
1B9
100
AcDbEntity
  8
A-DETL-GENF
100
AcDbLine
 10
-7.382609818164537
 20
-1.909672018805781
 30
0.0
 11
2.140447502535549
 21
-1.909672018805781
 31
0.0
1001
REVIT
1002
{
1070
     3
1000
19822
1002
}
  0
LINE
  5
1BB
330
1B9
100
AcDbEntity
  8
A-DETL-GENF
100
AcDbLine
 10
2.14044750253545
 20
3.015712411559474
 30
0.0
 11
-7.382609818164568
 21
3.015712411559474
 31
0.0
1001
REVIT
1002
{
1070
     3
1000
19822
1002
}
  0
SPLINE
  5
1BC
330
1B9
100
AcDbEntity
  8
A-DETL-GENF
100
AcDbSpline
210
0.0
220
0.0
230
1.0
 70
     8
 71
     3
 72
    16
 73
    12
 74
     0
 42
0.000000001
 43
0.0000000001
 40
0.0
 40
0.0
 40
0.0
 40
0.0
 40
0.1428571428571428
 40
0.2142857142857143
 40
0.2857142857142857
 40
0.4285714285714286
 40
0.5714285714285714
 40
0.6785714285714287
 40
0.7857142857142857
 40
0.8928571428571427
 40
1.0
 40
1.0
 40
1.0
 40
1.0
 10
-7.38260981816455
 20
3.015712411559474
 30
0.0
 10
-7.078476487026064
 20
3.01468036360102
 30
0.0
 10
-6.636047492229177
 20
2.889627545084105
 30
0.0
 10
-6.124955703730826
 20
2.494548277438924
 30
0.0
 10
-5.699260000961912
 20
1.970526804966764
 30
0.0
 10
-5.366084271114555
 20
1.119772533006032
 30
0.0
 10
-5.366274443056698
 20
0.0808081271202698
 30
0.0
 10
-5.657219724577941
 20
-0.7820551880194201
 30
0.0
 10
-6.111321959995994
 20
-1.409102145477654
 30
0.0
 10
-6.711273722120134
 20
-1.815876884561169
 30
0.0
 10
-7.154509819810692
 20
-1.908897982836942
 30
0.0
 10
-7.382609818164558
 20
-1.909672018805781
 30
0.0
1001
REVIT
1002
{
1070
     3
1000
19822
1002
}
  0
SPLINE
  5
1BD
330
1B9
100
AcDbEntity
  8
A-DETL-GENF
100
AcDbSpline
210
0.0
220
0.0
230
1.0
 70
     8
 71
     3
 72
    18
 73
    14
 74
     0
 42
0.000000001
 43
0.0000000001
 40
0.0
 40
0.0
 40
0.0
 40
0.0
 40
0.1538461538461539
 40
0.2307692307692308
 40
0.3076923076923077
 40
0.3846153846153846
 40
0.4615384615384616
 40
0.5384615384615385
 40
0.6153846153846155
 40
0.7115384615384616
 40
0.8076923076923076
 40
0.9038461538461538
 40
1.0
 40
1.0
 40
1.0
 40
1.0
 10
2.784631640602368
 20
-1.938367881192022
 30
0.0
 10
3.226566946177015
 20
-1.936965432379595
 30
0.0
 10
3.866256430523215
 20
-1.7900374004626
 30
0.0
 10
4.58740379550565
 20
-1.329932355876972
 30
0.0
 10
5.021496938400878
 20
-0.8761227824684816
 30
0.0
 10
5.326127121496035
 20
-0.3390737597468776
 30
0.0
 10
5.48290955867684
 20
0.2497886727647748
 30
0.0
 10
5.48292343656691
 20
0.8562183583621189
 30
0.0
 10
5.313015658764
 20
1.494369510824663
 30
0.0
 10
4.936315750539938
 20
2.112290499067554
 30
0.0
 10
4.337769069903805
 20
2.63462673413059
 30
0.0
 10
3.594285976030239
 20
2.968578286348236
 30
0.0
 10
3.060841206586464
 20
3.043531743438005
 30
0.0
 10
2.78463164060231
 20
3.044408273945766
 30
0.0
1001
REVIT
1002
{
1070
     3
1000
19822
1002
}
  0
SPLINE
  5
1BE
330
1B9
100
AcDbEntity
  8
A-DETL-GENF
100
AcDbSpline
210
0.0
220
0.0
230
1.0
 70
     8
 71
     3
 72
    18
 73
    14
 74
     0
 42
0.000000001
 43
0.0000000001
 40
0.0
 40
0.0
 40
0.0
 40
0.0
 40
0.1538461538461539
 40
0.2307692307692308
 40
0.3076923076923077
 40
0.3846153846153846
 40
0.4615384615384616
 40
0.5384615384615385
 40
0.6153846153846155
 40
0.7115384615384616
 40
0.8076923076923076
 40
0.9038461538461538
 40
1.0
 40
1.0
 40
1.0
 40
1.0
 10
2.784631640602292
 20
3.044408273945766
 30
0.0
 10
2.342696335027645
 20
3.043005825133338
 30
0.0
 10
1.703006850681445
 20
2.896077793216339
 30
0.0
 10
0.9818594856990127
 20
2.435972748630711
 30
0.0
 10
0.5477663428037869
 20
1.98216317522222
 30
0.0
 10
0.2431361597086308
 20
1.445114152500613
 30
0.0
 10
0.0863537225278313
 20
0.8562517199889594
 30
0.0
 10
0.086339844637759
 20
0.2498220343916162
 30
0.0
 10
0.2562476224406681
 20
-0.388329118070928
 30
0.0
 10
0.632947530664735
 20
-1.006250106313817
 30
0.0
 10
1.231494211300872
 20
-1.528586341376849
 30
0.0
 10
1.974977305174439
 20
-1.862537893594497
 30
0.0
 10
2.508422074618214
 20
-1.937491350684262
 30
0.0
 10
2.784631640602368
 20
-1.938367881192022
 30
0.0
1001
REVIT
1002
{
1070
     3
1000
19822
1002
}
  0
ENDBLK
  5
1C0
330
1B9
100
AcDbEntity
  8
0
100
AcDbBlockEnd
  0
BLOCK
  5
21B
330
219
100
AcDbEntity
  8
0
100
AcDbBlockBegin
  2
_Oblique
 70
     0
 10
0.0
 20
0.0
 30
0.0
  3
_Oblique
  1

  0
LINE
  5
21A
330
219
100
AcDbEntity
  8
0
  6
ByBlock
 62
     0
370
    -2
100
AcDbLine
 10
-0.5
 20
-0.5
 30
0.0
 11
0.5
 21
0.5
 31
0.0
  0
ENDBLK
  5
21C
330
219
100
AcDbEntity
  8
0
100
AcDbBlockEnd
  0
BLOCK
  5
216
330
220
100
AcDbEntity
  8
0
100
AcDbBlockBegin
  2
DIMBLOCK1-W-TRSIL-17-H - Pipe Penetration Detail _Hor__
 70
     0
 10
0.0
 20
0.0
 30
0.0
  3
DIMBLOCK1-W-TRSIL-17-H - Pipe Penetration Detail _Hor__
  1

  0
LINE
  5
20B
330
220
100
AcDbEntity
  8
A-ANNO-DIMS-5
100
AcDbLine
 10
3727.972856398917
 20
3663.62803201979
 30
0.0
 11
3727.972856398918
 21
3742.532233104149
 31
0.0
1001
REVIT
1002
{
1070
     2
1000
-2000260
1002
}
  0
LINE
  5
20C
330
220
100
AcDbEntity
  8
A-ANNO-DIMS-5
370
    35
100
AcDbLine
 10
3727.972856398918
 20
3742.532233104149
 30
0.0
 11
3734.222856398918
 21
3736.282233104148
 31
0.0
1001
REVIT
1002
{
1070
     2
1000
-2000260
1002
}
  0
LINE
  5
20D
330
220
100
AcDbEntity
  8
A-ANNO-DIMS-5
370
    35
100
AcDbLine
 10
3727.972856398918
 20
3742.532233104149
 30
0.0
 11
3721.722856398918
 21
3748.78223310415
 31
0.0
1001
REVIT
1002
{
1070
     2
1000
-2000260
1002
}
  0
LINE
  5
20E
330
220
100
AcDbEntity
  8
A-ANNO-DIMS-5
100
AcDbLine
 10
3742.972856398918
 20
3742.532233104149
 30
0.0
 11
3717.972856398918
 21
3742.532233104149
 31
0.0
1001
REVIT
1002
{
1070
     2
1000
-2000260
1002
}
  0
LINE
  5
20F
330
220
100
AcDbEntity
  8
A-ANNO-DIMS-5
100
AcDbLine
 10
3727.972856398917
 20
3742.532233104149
 30
0.0
 11
3742.972856398917
 21
3742.532233104149
 31
0.0
1001
REVIT
1002
{
1070
     2
1000
-2000260
1002
}
  0
LINE
  5
210
330
220
100
AcDbEntity
  8
A-ANNO-DIMS-5
370
    35
100
AcDbLine
 10
3727.972856398917
 20
3663.62803201979
 30
0.0
 11
3734.222856398917
 21
3657.37803201979
 31
0.0
1001
REVIT
1002
{
1070
     2
1000
-2000260
1002
}
  0
LINE
  5
211
330
220
100
AcDbEntity
  8
A-ANNO-DIMS-5
370
    35
100
AcDbLine
 10
3727.972856398917
 20
3663.62803201979
 30
0.0
 11
3721.722856398917
 21
3669.878032019791
 31
0.0
1001
REVIT
1002
{
1070
     2
1000
-2000260
1002
}
  0
LINE
  5
212
330
220
100
AcDbEntity
  8
A-ANNO-DIMS-5
100
AcDbLine
 10
3762.928444371426
 20
3663.628032019789
 30
0.0
 11
3717.972856398918
 21
3663.62803201979
 31
0.0
1001
REVIT
1002
{
1070
     2
1000
-2000260
1002
}
  0
LINE
  5
213
330
220
100
AcDbEntity
  8
A-ANNO-DIMS-5
100
AcDbLine
 10
3727.972856398916
 20
3663.62803201979
 30
0.0
 11
3762.928444371425
 21
3663.628032019789
 31
0.0
1001
REVIT
1002
{
1070
     2
1000
-2000260
1002
}
  0
MTEXT
  5
214
330
220
100
AcDbEntity
  8
A-ANNO-DIMS-5
 62
     0
100
AcDbMText
 10
3737.461308406225
 20
3670.553462255293
 30
0.0
 40
12.5
 41
78.06400873602453
 46
0.0
 71
     1
 72
     1
  1
all round
  7
Century Gothic
 11
0.000000000000014
 21
1.0
 31
0.0
 73
     2
 44
0.9845015114479526
 90
        3
 63
     9
421
 13158600
 45
1.25
441
        0
1001
REVIT
1002
{
1070
     2
1000
-2000260
1002
}
  0
MTEXT
  5
215
330
220
100
AcDbEntity
  8
A-ANNO-DIMS-5
 62
     0
100
AcDbMText
 10
3706.950860251061
 20
3676.76874957504
 30
0.0
 40
12.5
 41
63.14731916863129
 46
0.0
 71
     1
 72
     1
  1
75 min.
  7
Century Gothic
 11
0.0
 21
1.0
 31
0.0
 73
     2
 44
0.9845015114479526
 90
        3
 63
     9
421
 13158600
 45
1.25
441
        0
1001
REVIT
1002
{
1070
     2
1000
-2000260
1002
}
  0
ENDBLK
  5
217
330
220
100
AcDbEntity
  8
0
100
AcDbBlockEnd
  0
BLOCK
  5
26C
330
241
100
AcDbEntity
  8
0
100
AcDbBlockBegin
  2
Titleblock A4 The roofing store - Titleblock A4 The roofing store-2694-Pipe Penetration Detail _Hor__
 70
     0
 10
0.0
 20
0.0
 30
0.0
  3
Titleblock A4 The roofing store - Titleblock A4 The roofing store-2694-Pipe Penetration Detail _Hor__
  1

  0
IMAGE
  5
244
330
241
100
AcDbEntity
  8
G-ANNO-TTLB
160
               140
310
8C000000010000008400000006000000050000005617394A1B7A1640B7935150A3172A4000000000000000005617394A1B7A1640DCC928A8D10B3640000000000000000095168F065A825140DCC928A8D10B3640000000000000000095168F065A825140B7935150A3172A4000000000000000005617394A1B7A1640B79351
310
50A3172A400000000000000000
100
AcDbRasterImage
 90
        0
 10
5.619244727835242
 20
13.0461678599912
 30
0.0
 11
0.0225
 21
0.0
 31
0.0
 12
0.0
 22
0.0225
 32
0.0
 13
2863.0
 23
400.0
340
243
 70
     7
280
     0
281
    50
282
    50
283
     0
290
     0
360
245
 71
     1
 91
        2
 14
-0.5
 24
-0.5
 14
2862.5
 24
399.5
  0
LINE
  5
247
330
241
100
AcDbEntity
  8
G-ANNO-TTLB-THIN
100
AcDbLine
 10
291.9756745145733
 20
16.5981545959536
 30
0.0
 11
236.9756745145732
 21
16.5981545959536
 31
0.0
1001
REVIT
1002
{
1070
     3
1000
-2000281
1002
}
  0
LINE
  5
248
330
241
100
AcDbEntity
  8
G-ANNO-TTLB
100
AcDbLine
 10
71.28674472783522
 20
23.02396756137834
 30
0.0
 11
71.28674472783522
 21
5.023967561378343
 31
0.0
  0
LINE
  5
24A
330
241
100
AcDbEntity
  8
G-ANNO-TTLB-MEDM
100
AcDbLine
 10
291.9756745145733
 20
205.0239675613797
 30
0.0
 11
4.975674514620406
 21
205.0239675613797
 31
0.0
1001
REVIT
1002
{
1070
     3
1000
-2000282
1002
}
  0
LINE
  5
24B
330
241
100
AcDbEntity
  8
G-ANNO-TTLB-MEDM
100
AcDbLine
 10
4.975674514620408
 20
205.0239675613797
 30
0.0
 11
4.975674514620408
 21
5.02396756137836
 31
0.0
1001
REVIT
1002
{
1070
     3
1000
-2000282
1002
}
  0
LINE
  5
24C
330
241
100
AcDbEntity
  8
G-ANNO-TTLB-MEDM
100
AcDbLine
 10
4.975674514620408
 20
5.023967561378343
 30
0.0
 11
291.9756745145733
 21
5.023967561378343
 31
0.0
1001
REVIT
1002
{
1070
     3
1000
-2000282
1002
}
  0
LINE
  5
24D
330
241
100
AcDbEntity
  8
G-ANNO-TTLB-MEDM
100
AcDbLine
 10
291.9756745145733
 20
5.023967561378343
 30
0.0
 11
291.9756745145733
 21
205.0239675613797
 31
0.0
1001
REVIT
1002
{
1070
     3
1000
-2000282
1002
}
  0
LINE
  5
24E
330
241
100
AcDbEntity
  8
G-ANNO-TTLB-THIN
100
AcDbLine
 10
291.9756745145733
 20
23.02396756137834
 30
0.0
 11
4.975674514620406
 21
23.02396756137834
 31
0.0
1001
REVIT
1002
{
1070
     3
1000
-2000281
1002
}
  0
LINE
  5
24F
330
241
100
AcDbEntity
  8
G-ANNO-TTLB
100
AcDbLine
 10
236.9756745145732
 20
23.02396756137834
 30
0.0
 11
236.9756745145732
 21
5.023967561378343
 31
0.0
  0
MTEXT
  5
251
330
241
100
AcDbEntity
  8
G-ANNO-TTLB
100
AcDbMText
 10
9.61486176751347
 20
34.25458782332127
 30
0.0
 40
1.8
 41
2.309769
 46
0.0
 71
     1
 72
     1
  1
\U+2022
  7
Century Gothic_1
 73
     2
 44
1.0
  0
MTEXT
  5
252
330
241
100
AcDbEntity
  8
G-ANNO-TTLB
100
AcDbMText
 10
9.61486176751347
 20
31.3441711566546
 30
0.0
 40
1.8
 41
2.309769
 46
0.0
 71
     1
 72
     1
  1
\U+2022
  7
Century Gothic_1
 73
     2
 44
1.0
  0
MTEXT
  5
253
330
241
100
AcDbEntity
  8
G-ANNO-TTLB
100
AcDbMText
 10
9.61486176751347
 20
28.43375448998793
 30
0.0
 40
1.8
 41
2.309769
 46
0.0
 71
     1
 72
     1
  1
\U+2022
  7
Century Gothic_1
 73
     2
 44
1.0
  0
MTEXT
  5
254
330
241
100
AcDbEntity
  8
G-ANNO-TTLB
100
AcDbMText
 10
11.51986176751347
 20
34.25458782332127
 30
0.0
 40
1.8
 41
154.116405
 46
0.0
 71
     1
 72
     1
  1
These details are generally in accordance with NZBC E2/AS1 and or the NZ metal roof & wall caldding code of practice.
  7
Century Gothic_1
 73
     2
 44
1.0
  0
MTEXT
  5
255
330
241
100
AcDbEntity
  8
G-ANNO-TTLB
100
AcDbMText
 10
11.51986176751347
 20
31.3441711566546
 30
0.0
 40
1.8
 41
137.0885625
 46
0.0
 71
     1
 72
     1
  1
The building Architect / Designer is ultimately responsible for details to meet the NZ Building Code & E2/AS1.
  7
Century Gothic_1
 73
     2
 44
1.0
  0
MTEXT
  5
256
330
241
100
AcDbEntity
  8
G-ANNO-TTLB
100
AcDbMText
 10
11.51986176751347
 20
28.43375448998794
 30
0.0
 40
1.8
 41
118.401226875
 46
0.0
 71
     1
 72
     1
  1
For Further information please contact your nearest roofing store www.theroofingstore.co.nz.
  7
Century Gothic_1
 73
     2
 44
1.0
  0
MTEXT
  5
257
330
241
100
AcDbEntity
  8
G-ANNO-TTLB
100
AcDbMText
 10
152.075785282666
 20
20.51531106318182
 30
0.0
 40
1.8
 41
20.77974
 46
0.0
 71
     1
 72
     1
  1
P: HEAD OFFICE 
  7
Century Gothic_1
 73
     2
 44
1.0
  0
MTEXT
  5
258
330
241
100
AcDbEntity
  8
G-ANNO-TTLB
100
AcDbMText
 10
169.220785282666
 20
20.51531106318182
 30
0.0
 40
1.8
 41
6.926579999999998
 46
0.0
 71
     1
 72
     1
  1
^I
  7
Century Gothic_1
 73
     2
 44
1.0
  0
MTEXT
  5
259
330
241
100
AcDbEntity
  8
G-ANNO-TTLB
100
AcDbMText
 10
174.935785282666
 20
20.51531106318182
 30
0.0
 40
1.8
 41
15.079741875
 46
0.0
 71
     1
 72
     1
  1
09 277 2717
  7
Century Gothic_1
 73
     2
 44
1.0
  0
MTEXT
  5
25A
330
241
100
AcDbEntity
  8
G-ANNO-TTLB
100
AcDbMText
 10
152.075785282666
 20
17.60489439651515
 30
0.0
 40
1.8
 41
13.492400625
 46
0.0
 71
     1
 72
     1
  1
    ALBANY 
  7
Century Gothic_1
 73
     2
 44
1.0
  0
MTEXT
  5
25B
330
241
100
AcDbEntity
  8
G-ANNO-TTLB
100
AcDbMText
 10
163.208129032666
 20
17.60489439651515
 30
0.0
 40
1.8
 41
14.213919375
 46
0.0
 71
     1
 72
     1
  1
^I^I
  7
Century Gothic_1
 73
     2
 44
1.0
  0
MTEXT
  5
25C
330
241
100
AcDbEntity
  8
G-ANNO-TTLB
100
AcDbMText
 10
174.935785282666
 20
17.60489439651515
 30
0.0
 40
1.8
 41
15.079741875
 46
0.0
 71
     1
 72
     1
  1
09 972 0060
  7
Century Gothic_1
 73
     2
 44
1.0
  0
MTEXT
  5
25D
330
241
100
AcDbEntity
  8
G-ANNO-TTLB
100
AcDbMText
 10
152.075785282666
 20
14.69447772984849
 30
0.0
 40
1.8
 41
13.99746375
 46
0.0
 71
     1
 72
     1
  1
    KATIKAIT 
  7
Century Gothic_1
 73
     2
 44
1.0
  0
MTEXT
  5
25E
330
241
100
AcDbEntity
  8
G-ANNO-TTLB
100
AcDbMText
 10
163.624847782666
 20
14.69447772984849
 30
0.0
 40
1.8
 41
13.70885625
 46
0.0
 71
     1
 72
     1
  1
^I
  7
Century Gothic_1
 73
     2
 44
1.0
  0
MTEXT
  5
25F
330
241
100
AcDbEntity
  8
G-ANNO-TTLB
100
AcDbMText
 10
174.935785282666
 20
14.69447772984849
 30
0.0
 40
1.8
 41
15.079741875
 46
0.0
 71
     1
 72
     1
  1
07 549 5190
  7
Century Gothic_1
 73
     2
 44
1.0
  0
MTEXT
  5
260
330
241
100
AcDbEntity
  8
G-ANNO-TTLB
100
AcDbMText
 10
152.075785282666
 20
11.78406106318182
 30
0.0
 40
1.8
 41
20.274676875
 46
0.0
 71
     1
 72
     1
  1
    WELLINGTON 
  7
Century Gothic_1
 73
     2
 44
1.0
  0
MTEXT
  5
261
330
241
100
AcDbEntity
  8
G-ANNO-TTLB
100
AcDbMText
 10
168.804066532666
 20
11.78406106318182
 30
0.0
 40
1.8
 41
7.431643124999999
 46
0.0
 71
     1
 72
     1
  1
^I
  7
Century Gothic_1
 73
     2
 44
1.0
  0
MTEXT
  5
262
330
241
100
AcDbEntity
  8
G-ANNO-TTLB
100
AcDbMText
 10
174.935785282666
 20
11.78406106318182
 30
0.0
 40
1.8
 41
15.079741875
 46
0.0
 71
     1
 72
     1
  1
04 974 5792
  7
Century Gothic_1
 73
     2
 44
1.0
  0
MTEXT
  5
263
330
241
100
AcDbEntity
  8
G-ANNO-TTLB
100
AcDbMText
 10
187.377816532666
 20
11.78406106318182
 30
0.0
 40
1.8
 41
12.626578125
 46
0.0
 71
     1
 72
     1
  1
^I
  7
Century Gothic_1
 73
     2
 44
1.0
  0
MTEXT
  5
264
330
241
100
AcDbEntity
  8
G-ANNO-TTLB
100
AcDbMText
 10
197.795785282666
 20
11.78406106318182
 30
0.0
 40
1.8
 41
41.63163187500001
 46
0.0
 71
     1
 72
     1
  1
WEB: www.theroofingstore.co.nz
  7
Century Gothic_1
 73
     2
 44
1.0
  0
MTEXT
  5
265
330
241
100
AcDbEntity
  8
G-ANNO-TTLB
100
AcDbMText
 10
152.075785282666
 20
8.873644396515153
 30
0.0
 40
1.8
 41
23.52151125
 46
0.0
 71
     1
 72
     1
  1
    CHRISTCHURCH 
  7
Century Gothic_1
 73
     2
 44
1.0
  0
MTEXT
  5
266
330
241
100
AcDbEntity
  8
G-ANNO-TTLB
100
AcDbMText
 10
171.482972782666
 20
8.873644396515153
 30
0.0
 40
1.8
 41
4.184808749999999
 46
0.0
 71
     1
 72
     1
  1
^I
  7
Century Gothic_1
 73
     2
 44
1.0
  0
MTEXT
  5
267
330
241
100
AcDbEntity
  8
G-ANNO-TTLB
100
AcDbMText
 10
174.935785282666
 20
8.873644396515153
 30
0.0
 40
1.8
 41
15.079741875
 46
0.0
 71
     1
 72
     1
  1
03 348 6528
  7
Century Gothic_1
 73
     2
 44
1.0
  0
MTEXT
  5
268
330
241
100
AcDbEntity
  8
G-ANNO-TTLB
100
AcDbMText
 10
187.377816532666
 20
8.873644396515153
 30
0.0
 40
1.8
 41
12.626578125
 46
0.0
 71
     1
 72
     1
  1
^I
  7
Century Gothic_1
 73
     2
 44
1.0
  0
MTEXT
  5
269
330
241
100
AcDbEntity
  8
G-ANNO-TTLB
100
AcDbMText
 10
197.795785282666
 20
8.873644396515153
 30
0.0
 40
1.8
 41
45.16707375
 46
0.0
 71
     1
 72
     1
  1
Copyright © The Roofing Store 2013
  7
Century Gothic_1
 73
     2
 44
1.0
  0
MTEXT
  5
26A
330
241
100
AcDbEntity
  8
G-ANNO-TTLB
100
AcDbMText
 10
238.4531881313984
 20
13.76450265283994
 30
0.0
 40
1.8
 41
13.348096875
 46
0.0
 71
     1
 72
     1
  1
Detail No.:
  7
Century Gothic_1
 73
     2
 44
1.0
  0
MTEXT
  5
26B
330
241
100
AcDbEntity
  8
G-ANNO-TTLB
100
AcDbMText
 10
238.4531881313984
 20
20.51531106318182
 30
0.0
 40
1.8
 41
14.502526875
 46
0.0
 71
     1
 72
     1
  1
Scale:  1 : 5
  7
Century Gothic_1
 73
     2
 44
1.0
  0
ENDBLK
  5
26D
330
241
100
AcDbEntity
  8
0
100
AcDbBlockEnd
  0
ENDSEC
  0
SECTION
  2
ENTITIES
  0
SPLINE
  5
BD
330
70
100
AcDbEntity
  8
A-DETL
100
AcDbSpline
210
0.0
220
0.0
230
1.0
 70
     8
 71
     3
 72
     8
 73
     4
 74
     0
 42
0.000000001
 43
0.0000000001
 40
2.879880116907068
 40
2.879880116907068
 40
2.879880116907068
 40
2.879880116907068
 40
3.467568196230055
 40
3.467568196230055
 40
3.467568196230055
 40
3.467568196230055
 10
3844.626827340451
 20
3452.859139791257
 30
0.0
 10
3847.454402095219
 20
3453.759713110235
 30
0.0
 10
3850.330141641653
 20
3454.269038739071
 30
0.0
 10
3853.217554931344
 20
3454.683537318389
 30
0.0
1001
REVIT
1002
{
1070
     1
1000
168250
1002
}
1002
{
1070
     2
1000
-2000051
1002
}
1002
{
1070
     3
1000
-2000077
1002
}
  0
SPLINE
  5
BE
330
70
100
AcDbEntity
  8
A-DETL
100
AcDbSpline
210
0.0
220
0.0
230
1.0
 70
     8
 71
     3
 72
     8
 73
     4
 74
     0
 42
0.000000001
 43
0.0000000001
 40
0.0
 40
0.0
 40
0.0
 40
0.0
 40
1.370254154135121
 40
1.370254154135121
 40
1.370254154135121
 40
1.370254154135121
 10
3802.872790948239
 20
3471.128032019789
 30
0.0
 10
3796.021520177564
 20
3471.128032019789
 30
0.0
 10
3788.364887854476
 20
3464.087045343822
 30
0.0
 10
3787.895510201766
 20
3456.827196668563
 30
0.0
1001
REVIT
1002
{
1070
     1
1000
168250
1002
}
1002
{
1070
     2
1000
-2000051
1002
}
1002
{
1070
     3
1000
-2000077
1002
}
  0
SPLINE
  5
BF
330
70
100
AcDbEntity
  8
A-DETL
100
AcDbSpline
210
0.0
220
0.0
230
1.0
 70
     8
 71
     3
 72
     8
 73
     4
 74
     0
 42
0.000000001
 43
0.0000000001
 40
0.6196516941591616
 40
0.6196516941591616
 40
0.6196516941591616
 40
0.6196516941591616
 40
4.12310562561766
 40
4.12310562561766
 40
4.12310562561766
 40
4.12310562561766
 10
3853.690602147766
 20
3457.042584960382
 30
0.0
 10
3836.574075758849
 20
3460.297864858154
 30
0.0
 10
3820.390060605531
 20
3471.128032019789
 30
0.0
 10
3802.872790948239
 20
3471.128032019789
 30
0.0
1001
REVIT
1002
{
1070
     1
1000
168250
1002
}
1002
{
1070
     2
1000
-2000051
1002
}
1002
{
1070
     3
1000
-2000077
1002
}
  0
SPLINE
  5
C0
330
70
100
AcDbEntity
  8
A-DETL
100
AcDbSpline
210
0.0
220
0.0
230
1.0
 70
     8
 71
     3
 72
     9
 73
     5
 74
     0
 42
0.000000001
 43
0.0000000001
 40
0.0
 40
0.0
 40
0.0
 40
0.0
 40
1.414213562373095
 40
2.5712973861329
 40
2.5712973861329
 40
2.5712973861329
 40
2.5712973861329
 10
3862.87279094824
 20
3486.128032019788
 30
0.0
 10
3869.943858760105
 20
3486.128032019788
 30
0.0
 10
3884.360099102167
 20
3472.491668383424
 30
0.0
 10
3872.564993367753
 20
3458.855304747062
 30
0.0
 10
3866.762001283753
 20
3456.826754784627
 30
0.0
1001
REVIT
1002
{
1070
     1
1000
168250
1002
}
1002
{
1070
     2
1000
-2000051
1002
}
1002
{
1070
     3
1000
-2000077
1002
}
  0
SPLINE
  5
C1
330
70
100
AcDbEntity
  8
A-DETL
100
AcDbSpline
210
0.0
220
0.0
230
1.0
 70
     8
 71
     3
 72
     8
 73
     4
 74
     0
 42
0.000000001
 43
0.0000000001
 40
0.0
 40
0.0
 40
0.0
 40
0.0
 40
4.12310562561766
 40
4.12310562561766
 40
4.12310562561766
 40
4.12310562561766
 10
3802.872790948239
 20
3471.128032019789
 30
0.0
 10
3823.488319076328
 20
3471.128032019789
 30
0.0
 10
3842.257262820151
 20
3486.128032019788
 30
0.0
 10
3862.872790948241
 20
3486.128032019788
 30
0.0
1001
REVIT
1002
{
1070
     1
1000
168250
1002
}
1002
{
1070
     2
1000
-2000051
1002
}
1002
{
1070
     3
1000
-2000077
1002
}
  0
SPLINE
  5
C2
330
70
100
AcDbEntity
  8
A-DETL
100
AcDbSpline
210
0.0
220
0.0
230
1.0
 70
     8
 71
     3
 72
     9
 73
     5
 74
     0
 42
0.000000001
 43
0.0000000001
 40
0.0
 40
0.0
 40
0.0
 40
0.0
 40
1.414213562373095
 40
2.82842712474619
 40
2.82842712474619
 40
2.82842712474619
 40
2.82842712474619
 10
3802.872790948239
 20
3501.128032019789
 30
0.0
 10
3795.801723136374
 20
3501.128032019789
 30
0.0
 10
3779.943858760106
 20
3486.128032019788
 30
0.0
 10
3795.801723136374
 20
3471.128032019788
 30
0.0
 10
3802.87279094824
 20
3471.128032019789
 30
0.0
1001
REVIT
1002
{
1070
     1
1000
168250
1002
}
1002
{
1070
     2
1000
-2000051
1002
}
1002
{
1070
     3
1000
-2000077
1002
}
  0
SPLINE
  5
C3
330
70
100
AcDbEntity
  8
A-DETL
100
AcDbSpline
210
0.0
220
0.0
230
1.0
 70
     8
 71
     3
 72
     8
 73
     4
 74
     0
 42
0.000000001
 43
0.0000000001
 40
0.0
 40
0.0
 40
0.0
 40
0.0
 40
4.12310562561766
 40
4.12310562561766
 40
4.12310562561766
 40
4.12310562561766
 10
3862.87279094824
 20
3486.128032019788
 30
0.0
 10
3842.257262820151
 20
3486.128032019788
 30
0.0
 10
3823.488319076328
 20
3501.128032019789
 30
0.0
 10
3802.872790948239
 20
3501.128032019789
 30
0.0
1001
REVIT
1002
{
1070
     1
1000
168250
1002
}
1002
{
1070
     2
1000
-2000051
1002
}
1002
{
1070
     3
1000
-2000077
1002
}
  0
SPLINE
  5
C4
330
70
100
AcDbEntity
  8
A-DETL
100
AcDbSpline
210
0.0
220
0.0
230
1.0
 70
     8
 71
     3
 72
     9
 73
     5
 74
     0
 42
0.000000001
 43
0.0000000001
 40
0.0
 40
0.0
 40
0.0
 40
0.0
 40
1.414213562373095
 40
2.82842712474619
 40
2.82842712474619
 40
2.82842712474619
 40
2.82842712474619
 10
3862.872790948241
 20
3516.128032019788
 30
0.0
 10
3869.943858760106
 20
3516.128032019788
 30
0.0
 10
3885.801723136373
 20
3501.128032019789
 30
0.0
 10
3869.943858760104
 20
3486.128032019788
 30
0.0
 10
3862.872790948241
 20
3486.128032019788
 30
0.0
1001
REVIT
1002
{
1070
     1
1000
168250
1002
}
1002
{
1070
     2
1000
-2000051
1002
}
1002
{
1070
     3
1000
-2000077
1002
}
  0
SPLINE
  5
C5
330
70
100
AcDbEntity
  8
A-DETL
100
AcDbSpline
210
0.0
220
0.0
230
1.0
 70
     8
 71
     3
 72
     8
 73
     4
 74
     0
 42
0.000000001
 43
0.0000000001
 40
0.0
 40
0.0
 40
0.0
 40
0.0
 40
4.12310562561766
 40
4.12310562561766
 40
4.12310562561766
 40
4.12310562561766
 10
3802.872790948239
 20
3501.128032019789
 30
0.0
 10
3823.488319076328
 20
3501.128032019789
 30
0.0
 10
3842.257262820152
 20
3516.128032019788
 30
0.0
 10
3862.872790948241
 20
3516.128032019788
 30
0.0
1001
REVIT
1002
{
1070
     1
1000
168250
1002
}
1002
{
1070
     2
1000
-2000051
1002
}
1002
{
1070
     3
1000
-2000077
1002
}
  0
SPLINE
  5
C6
330
70
100
AcDbEntity
  8
A-DETL
100
AcDbSpline
210
0.0
220
0.0
230
1.0
 70
     8
 71
     3
 72
     9
 73
     5
 74
     0
 42
0.000000001
 43
0.0000000001
 40
0.0
 40
0.0
 40
0.0
 40
0.0
 40
1.414213562373095
 40
2.82842712474619
 40
2.82842712474619
 40
2.82842712474619
 40
2.82842712474619
 10
3802.87279094824
 20
3531.128032019789
 30
0.0
 10
3795.801723136374
 20
3531.128032019789
 30
0.0
 10
3779.943858760107
 20
3516.128032019791
 30
0.0
 10
3795.801723136376
 20
3501.12803201979
 30
0.0
 10
3802.872790948239
 20
3501.128032019789
 30
0.0
1001
REVIT
1002
{
1070
     1
1000
168250
1002
}
1002
{
1070
     2
1000
-2000051
1002
}
1002
{
1070
     3
1000
-2000077
1002
}
  0
SPLINE
  5
C7
330
70
100
AcDbEntity
  8
A-DETL
100
AcDbSpline
210
0.0
220
0.0
230
1.0
 70
     8
 71
     3
 72
     8
 73
     4
 74
     0
 42
0.000000001
 43
0.0000000001
 40
0.0
 40
0.0
 40
0.0
 40
0.0
 40
4.12310562561766
 40
4.12310562561766
 40
4.12310562561766
 40
4.12310562561766
 10
3862.872790948241
 20
3516.128032019788
 30
0.0
 10
3842.257262820152
 20
3516.128032019788
 30
0.0
 10
3823.488319076329
 20
3531.128032019787
 30
0.0
 10
3802.872790948239
 20
3531.128032019789
 30
0.0
1001
REVIT
1002
{
1070
     1
1000
168250
1002
}
1002
{
1070
     2
1000
-2000051
1002
}
1002
{
1070
     3
1000
-2000077
1002
}
  0
SPLINE
  5
C8
330
70
100
AcDbEntity
  8
A-DETL
100
AcDbSpline
210
0.0
220
0.0
230
1.0
 70
     8
 71
     3
 72
     9
 73
     5
 74
     0
 42
0.000000001
 43
0.0000000001
 40
0.0
 40
0.0
 40
0.0
 40
0.0
 40
1.414213562373095
 40
2.82842712474619
 40
2.82842712474619
 40
2.82842712474619
 40
2.82842712474619
 10
3862.872790948241
 20
3546.128032019789
 30
0.0
 10
3869.943858760106
 20
3546.128032019789
 30
0.0
 10
3885.801723136373
 20
3531.128032019787
 30
0.0
 10
3869.943858760104
 20
3516.128032019788
 30
0.0
 10
3862.872790948241
 20
3516.128032019788
 30
0.0
1001
REVIT
1002
{
1070
     1
1000
168250
1002
}
1002
{
1070
     2
1000
-2000051
1002
}
1002
{
1070
     3
1000
-2000077
1002
}
  0
SPLINE
  5
C9
330
70
100
AcDbEntity
  8
A-DETL
100
AcDbSpline
210
0.0
220
0.0
230
1.0
 70
     8
 71
     3
 72
     8
 73
     4
 74
     0
 42
0.000000001
 43
0.0000000001
 40
0.0
 40
0.0
 40
0.0
 40
0.0
 40
4.12310562561766
 40
4.12310562561766
 40
4.12310562561766
 40
4.12310562561766
 10
3802.87279094824
 20
3531.128032019789
 30
0.0
 10
3823.488319076329
 20
3531.128032019789
 30
0.0
 10
3842.257262820152
 20
3546.12803201979
 30
0.0
 10
3862.872790948241
 20
3546.128032019789
 30
0.0
1001
REVIT
1002
{
1070
     1
1000
168250
1002
}
1002
{
1070
     2
1000
-2000051
1002
}
1002
{
1070
     3
1000
-2000077
1002
}
  0
SPLINE
  5
CA
330
70
100
AcDbEntity
  8
A-DETL
100
AcDbSpline
210
0.0
220
0.0
230
1.0
 70
     8
 71
     3
 72
     9
 73
     5
 74
     0
 42
0.000000001
 43
0.0000000001
 40
0.0
 40
0.0
 40
0.0
 40
0.0
 40
1.414213562373095
 40
2.82842712474619
 40
2.82842712474619
 40
2.82842712474619
 40
2.82842712474619
 10
3802.87279094824
 20
3561.128032019789
 30
0.0
 10
3795.801723136374
 20
3561.128032019789
 30
0.0
 10
3779.943858760107
 20
3546.128032019789
 30
0.0
 10
3795.801723136376
 20
3531.128032019787
 30
0.0
 10
3802.87279094824
 20
3531.128032019789
 30
0.0
1001
REVIT
1002
{
1070
     1
1000
168250
1002
}
1002
{
1070
     2
1000
-2000051
1002
}
1002
{
1070
     3
1000
-2000077
1002
}
  0
SPLINE
  5
CB
330
70
100
AcDbEntity
  8
A-DETL
100
AcDbSpline
210
0.0
220
0.0
230
1.0
 70
     8
 71
     3
 72
     8
 73
     4
 74
     0
 42
0.000000001
 43
0.0000000001
 40
0.0
 40
0.0
 40
0.0
 40
0.0
 40
4.12310562561766
 40
4.12310562561766
 40
4.12310562561766
 40
4.12310562561766
 10
3862.872790948241
 20
3546.128032019789
 30
0.0
 10
3842.257262820152
 20
3546.128032019789
 30
0.0
 10
3823.488319076329
 20
3561.128032019788
 30
0.0
 10
3802.872790948239
 20
3561.128032019789
 30
0.0
1001
REVIT
1002
{
1070
     1
1000
168250
1002
}
1002
{
1070
     2
1000
-2000051
1002
}
1002
{
1070
     3
1000
-2000077
1002
}
  0
SPLINE
  5
CC
330
70
100
AcDbEntity
  8
A-DETL
100
AcDbSpline
210
0.0
220
0.0
230
1.0
 70
     8
 71
     3
 72
     9
 73
     5
 74
     0
 42
0.000000001
 43
0.0000000001
 40
0.0
 40
0.0
 40
0.0
 40
0.0
 40
1.414213562373095
 40
2.82842712474619
 40
2.82842712474619
 40
2.82842712474619
 40
2.82842712474619
 10
3862.872790948241
 20
3576.128032019788
 30
0.0
 10
3869.943858760106
 20
3576.128032019788
 30
0.0
 10
3885.801723136373
 20
3561.128032019788
 30
0.0
 10
3869.943858760104
 20
3546.128032019789
 30
0.0
 10
3862.872790948241
 20
3546.128032019789
 30
0.0
1001
REVIT
1002
{
1070
     1
1000
168250
1002
}
1002
{
1070
     2
1000
-2000051
1002
}
1002
{
1070
     3
1000
-2000077
1002
}
  0
SPLINE
  5
CD
330
70
100
AcDbEntity
  8
A-DETL
100
AcDbSpline
210
0.0
220
0.0
230
1.0
 70
     8
 71
     3
 72
     8
 73
     4
 74
     0
 42
0.000000001
 43
0.0000000001
 40
0.0
 40
0.0
 40
0.0
 40
0.0
 40
4.12310562561766
 40
4.12310562561766
 40
4.12310562561766
 40
4.12310562561766
 10
3802.87279094824
 20
3561.128032019789
 30
0.0
 10
3823.488319076329
 20
3561.128032019789
 30
0.0
 10
3842.257262820152
 20
3576.128032019789
 30
0.0
 10
3862.872790948241
 20
3576.128032019788
 30
0.0
1001
REVIT
1002
{
1070
     1
1000
168250
1002
}
1002
{
1070
     2
1000
-2000051
1002
}
1002
{
1070
     3
1000
-2000077
1002
}
  0
SPLINE
  5
CE
330
70
100
AcDbEntity
  8
A-DETL
100
AcDbSpline
210
0.0
220
0.0
230
1.0
 70
     8
 71
     3
 72
     9
 73
     5
 74
     0
 42
0.000000001
 43
0.0000000001
 40
0.0
 40
0.0
 40
0.0
 40
0.0
 40
1.414213562373095
 40
2.82842712474619
 40
2.82842712474619
 40
2.82842712474619
 40
2.82842712474619
 10
3802.87279094824
 20
3591.128032019789
 30
0.0
 10
3795.801723136374
 20
3591.128032019789
 30
0.0
 10
3779.943858760107
 20
3576.128032019789
 30
0.0
 10
3795.801723136376
 20
3561.12803201979
 30
0.0
 10
3802.87279094824
 20
3561.128032019789
 30
0.0
1001
REVIT
1002
{
1070
     1
1000
168250
1002
}
1002
{
1070
     2
1000
-2000051
1002
}
1002
{
1070
     3
1000
-2000077
1002
}
  0
SPLINE
  5
CF
330
70
100
AcDbEntity
  8
A-DETL
100
AcDbSpline
210
0.0
220
0.0
230
1.0
 70
     8
 71
     3
 72
     8
 73
     4
 74
     0
 42
0.000000001
 43
0.0000000001
 40
0.0
 40
0.0
 40
0.0
 40
0.0
 40
4.12310562561766
 40
4.12310562561766
 40
4.12310562561766
 40
4.12310562561766
 10
3862.872790948241
 20
3576.128032019788
 30
0.0
 10
3842.257262820152
 20
3576.128032019788
 30
0.0
 10
3823.488319076329
 20
3591.128032019788
 30
0.0
 10
3802.872790948239
 20
3591.128032019788
 30
0.0
1001
REVIT
1002
{
1070
     1
1000
168250
1002
}
1002
{
1070
     2
1000
-2000051
1002
}
1002
{
1070
     3
1000
-2000077
1002
}
  0
SPLINE
  5
D0
330
70
100
AcDbEntity
  8
A-DETL
100
AcDbSpline
210
0.0
220
0.0
230
1.0
 70
     8
 71
     3
 72
     9
 73
     5
 74
     0
 42
0.000000001
 43
0.0000000001
 40
0.0
 40
0.0
 40
0.0
 40
0.0
 40
1.414213562373095
 40
2.82842712474619
 40
2.82842712474619
 40
2.82842712474619
 40
2.82842712474619
 10
3862.872790948241
 20
3606.128032019789
 30
0.0
 10
3869.943858760107
 20
3606.128032019789
 30
0.0
 10
3885.801723136373
 20
3591.128032019788
 30
0.0
 10
3869.943858760104
 20
3576.128032019788
 30
0.0
 10
3862.872790948241
 20
3576.128032019788
 30
0.0
1001
REVIT
1002
{
1070
     1
1000
168250
1002
}
1002
{
1070
     2
1000
-2000051
1002
}
1002
{
1070
     3
1000
-2000077
1002
}
  0
SPLINE
  5
D1
330
70
100
AcDbEntity
  8
A-DETL
100
AcDbSpline
210
0.0
220
0.0
230
1.0
 70
     8
 71
     3
 72
     8
 73
     4
 74
     0
 42
0.000000001
 43
0.0000000001
 40
0.0
 40
0.0
 40
0.0
 40
0.0
 40
4.12310562561766
 40
4.12310562561766
 40
4.12310562561766
 40
4.12310562561766
 10
3802.87279094824
 20
3591.128032019789
 30
0.0
 10
3823.488319076329
 20
3591.128032019789
 30
0.0
 10
3842.257262820154
 20
3606.128032019789
 30
0.0
 10
3862.872790948241
 20
3606.128032019788
 30
0.0
1001
REVIT
1002
{
1070
     1
1000
168250
1002
}
1002
{
1070
     2
1000
-2000051
1002
}
1002
{
1070
     3
1000
-2000077
1002
}
  0
SPLINE
  5
D2
330
70
100
AcDbEntity
  8
A-DETL
100
AcDbSpline
210
0.0
220
0.0
230
1.0
 70
     8
 71
     3
 72
     9
 73
     5
 74
     0
 42
0.000000001
 43
0.0000000001
 40
0.0
 40
0.0
 40
0.0
 40
0.0
 40
1.414213562373095
 40
2.82842712474619
 40
2.82842712474619
 40
2.82842712474619
 40
2.82842712474619
 10
3802.872790948241
 20
3621.128032019789
 30
0.0
 10
3795.801723136376
 20
3621.128032019789
 30
0.0
 10
3779.943858760108
 20
3606.128032019789
 30
0.0
 10
3795.801723136376
 20
3591.128032019788
 30
0.0
 10
3802.87279094824
 20
3591.12803201979
 30
0.0
1001
REVIT
1002
{
1070
     1
1000
168250
1002
}
1002
{
1070
     2
1000
-2000051
1002
}
1002
{
1070
     3
1000
-2000077
1002
}
  0
SPLINE
  5
D3
330
70
100
AcDbEntity
  8
A-DETL
100
AcDbSpline
210
0.0
220
0.0
230
1.0
 70
     8
 71
     3
 72
     8
 73
     4
 74
     0
 42
0.000000001
 43
0.0000000001
 40
0.0
 40
0.0
 40
0.0
 40
0.0
 40
4.12310562561766
 40
4.12310562561766
 40
4.12310562561766
 40
4.12310562561766
 10
3862.872790948241
 20
3606.128032019789
 30
0.0
 10
3842.257262820152
 20
3606.128032019789
 30
0.0
 10
3823.488319076329
 20
3621.128032019789
 30
0.0
 10
3802.87279094824
 20
3621.128032019789
 30
0.0
1001
REVIT
1002
{
1070
     1
1000
168250
1002
}
1002
{
1070
     2
1000
-2000051
1002
}
1002
{
1070
     3
1000
-2000077
1002
}
  0
SPLINE
  5
D4
330
70
100
AcDbEntity
  8
A-DETL
100
AcDbSpline
210
0.0
220
0.0
230
1.0
 70
     8
 71
     3
 72
     9
 73
     5
 74
     0
 42
0.000000001
 43
0.0000000001
 40
0.0
 40
0.0
 40
0.0
 40
0.0
 40
1.414213562373095
 40
2.82842712474619
 40
2.82842712474619
 40
2.82842712474619
 40
2.82842712474619
 10
3862.872790948241
 20
3636.128032019788
 30
0.0
 10
3869.943858760107
 20
3636.128032019788
 30
0.0
 10
3885.801723136374
 20
3621.128032019786
 30
0.0
 10
3869.943858760105
 20
3606.128032019788
 30
0.0
 10
3862.872790948241
 20
3606.128032019789
 30
0.0
1001
REVIT
1002
{
1070
     1
1000
168250
1002
}
1002
{
1070
     2
1000
-2000051
1002
}
1002
{
1070
     3
1000
-2000077
1002
}
  0
SPLINE
  5
D5
330
70
100
AcDbEntity
  8
A-DETL
100
AcDbSpline
210
0.0
220
0.0
230
1.0
 70
     8
 71
     3
 72
     8
 73
     4
 74
     0
 42
0.000000001
 43
0.0000000001
 40
0.0
 40
0.0
 40
0.0
 40
0.0
 40
4.12310562561766
 40
4.12310562561766
 40
4.12310562561766
 40
4.12310562561766
 10
3802.872790948241
 20
3621.128032019789
 30
0.0
 10
3823.488319076329
 20
3621.128032019789
 30
0.0
 10
3842.257262820152
 20
3636.128032019789
 30
0.0
 10
3862.872790948241
 20
3636.128032019788
 30
0.0
1001
REVIT
1002
{
1070
     1
1000
168250
1002
}
1002
{
1070
     2
1000
-2000051
1002
}
1002
{
1070
     3
1000
-2000077
1002
}
  0
SPLINE
  5
D6
330
70
100
AcDbEntity
  8
A-DETL
100
AcDbSpline
210
0.0
220
0.0
230
1.0
 70
     8
 71
     3
 72
     9
 73
     5
 74
     0
 42
0.000000001
 43
0.0000000001
 40
0.0
 40
0.0
 40
0.0
 40
0.0
 40
1.414213562373095
 40
2.82842712474619
 40
2.82842712474619
 40
2.82842712474619
 40
2.82842712474619
 10
3802.872790948241
 20
3651.128032019788
 30
0.0
 10
3795.801723136376
 20
3651.128032019788
 30
0.0
 10
3779.943858760108
 20
3636.128032019788
 30
0.0
 10
3795.801723136376
 20
3621.128032019788
 30
0.0
 10
3802.872790948241
 20
3621.128032019789
 30
0.0
1001
REVIT
1002
{
1070
     1
1000
168250
1002
}
1002
{
1070
     2
1000
-2000051
1002
}
1002
{
1070
     3
1000
-2000077
1002
}
  0
SPLINE
  5
D7
330
70
100
AcDbEntity
  8
A-DETL
100
AcDbSpline
210
0.0
220
0.0
230
1.0
 70
     8
 71
     3
 72
     8
 73
     4
 74
     0
 42
0.000000001
 43
0.0000000001
 40
0.0
 40
0.0
 40
0.0
 40
0.0
 40
4.12310562561766
 40
4.12310562561766
 40
4.12310562561766
 40
4.12310562561766
 10
3862.872790948241
 20
3636.128032019788
 30
0.0
 10
3842.257262820152
 20
3636.128032019788
 30
0.0
 10
3823.488319076329
 20
3651.128032019788
 30
0.0
 10
3802.87279094824
 20
3651.128032019788
 30
0.0
1001
REVIT
1002
{
1070
     1
1000
168250
1002
}
1002
{
1070
     2
1000
-2000051
1002
}
1002
{
1070
     3
1000
-2000077
1002
}
  0
SPLINE
  5
D8
330
70
100
AcDbEntity
  8
A-DETL
100
AcDbSpline
210
0.0
220
0.0
230
1.0
 70
     8
 71
     3
 72
     9
 73
     5
 74
     0
 42
0.000000001
 43
0.0000000001
 40
0.4988821105057516
 40
0.4988821105057516
 40
0.4988821105057516
 40
0.4988821105057516
 40
1.414213562373095
 40
2.82842712474619
 40
2.82842712474619
 40
2.82842712474619
 40
2.82842712474619
 10
3870.290558452957
 20
3663.657332299152
 30
0.0
 10
3874.551235712766
 20
3660.836588169519
 30
0.0
 10
3883.004689838634
 20
3648.482310094653
 30
0.0
 10
3869.943858760104
 20
3636.128032019791
 30
0.0
 10
3862.872790948242
 20
3636.128032019789
 30
0.0
1001
REVIT
1002
{
1070
     1
1000
168250
1002
}
1002
{
1070
     2
1000
-2000051
1002
}
1002
{
1070
     3
1000
-2000077
1002
}
  0
SPLINE
  5
D9
330
70
100
AcDbEntity
  8
A-DETL
100
AcDbSpline
210
0.0
220
0.0
230
1.0
 70
     8
 71
     3
 72
     8
 73
     4
 74
     0
 42
0.000000001
 43
0.0000000001
 40
0.0
 40
0.0
 40
0.0
 40
0.0
 40
3.058808035264954
 40
3.058808035264954
 40
3.058808035264954
 40
3.058808035264954
 10
3802.872790948241
 20
3651.128032019788
 30
0.0
 10
3818.166831124565
 20
3651.128032019788
 30
0.0
 10
3832.444564850558
 20
3659.383596663849
 30
0.0
 10
3847.213926493579
 20
3663.64561580936
 30
0.0
1001
REVIT
1002
{
1070
     1
1000
168250
1002
}
1002
{
1070
     2
1000
-2000051
1002
}
1002
{
1070
     3
1000
-2000077
1002
}
  0
SPLINE
  5
DA
330
70
100
AcDbEntity
  8
A-DETL
100
AcDbSpline
210
0.0
220
0.0
230
1.0
 70
     8
 71
     3
 72
     9
 73
     5
 74
     0
 42
0.000000001
 43
0.0000000001
 40
0.0
 40
0.0
 40
0.0
 40
0.0
 40
1.414213562373095
 40
2.82842712474619
 40
2.82842712474619
 40
2.82842712474619
 40
2.82842712474619
 10
3802.872790948241
 20
3681.128032019789
 30
0.0
 10
3795.801723136376
 20
3681.128032019789
 30
0.0
 10
3779.943858760106
 20
3666.128032019789
 30
0.0
 10
3795.801723136376
 20
3651.128032019788
 30
0.0
 10
3802.872790948241
 20
3651.128032019789
 30
0.0
1001
REVIT
1002
{
1070
     1
1000
168250
1002
}
1002
{
1070
     2
1000
-2000051
1002
}
1002
{
1070
     3
1000
-2000077
1002
}
  0
SPLINE
  5
DB
330
70
100
AcDbEntity
  8
A-DETL
100
AcDbSpline
210
0.0
220
0.0
230
1.0
 70
     8
 71
     3
 72
     8
 73
     4
 74
     0
 42
0.000000001
 43
0.0000000001
 40
2.06155281280883
 40
2.06155281280883
 40
2.06155281280883
 40
2.06155281280883
 40
4.12310562561766
 40
4.12310562561766
 40
4.12310562561766
 40
4.12310562561766
 10
3832.872790948242
 20
3673.628032019788
 30
0.0
 10
3823.026672980264
 20
3677.378032019789
 30
0.0
 10
3813.180555012286
 20
3681.128032019787
 30
0.0
 10
3802.872790948241
 20
3681.128032019789
 30
0.0
1001
REVIT
1002
{
1070
     1
1000
168250
1002
}
1002
{
1070
     2
1000
-2000051
1002
}
1002
{
1070
     3
1000
-2000077
1002
}
  0
SPLINE
  5
DC
330
70
100
AcDbEntity
  8
A-DETL
100
AcDbSpline
210
0.0
220
0.0
230
1.0
 70
     8
 71
     3
 72
     8
 73
     4
 74
     0
 42
0.000000001
 43
0.0000000001
 40
0.0
 40
0.0
 40
0.0
 40
0.0
 40
2.06155281280883
 40
2.06155281280883
 40
2.06155281280883
 40
2.06155281280883
 10
3802.872790948241
 20
3681.128032019789
 30
0.0
 10
3813.180555012285
 20
3681.128032019789
 30
0.0
 10
3823.026672980263
 20
3684.878032019788
 30
0.0
 10
3832.87279094824
 20
3688.628032019788
 30
0.0
1001
REVIT
1002
{
1070
     1
1000
168250
1002
}
1002
{
1070
     2
1000
-2000051
1002
}
1002
{
1070
     3
1000
-2000077
1002
}
  0
SPLINE
  5
DD
330
70
100
AcDbEntity
  8
A-DETL
100
AcDbSpline
210
0.0
220
0.0
230
1.0
 70
     8
 71
     3
 72
     9
 73
     5
 74
     0
 42
0.000000001
 43
0.0000000001
 40
0.0
 40
0.0
 40
0.0
 40
0.0
 40
1.414213562373095
 40
2.82842712474619
 40
2.82842712474619
 40
2.82842712474619
 40
2.82842712474619
 10
3802.872790948241
 20
3711.128032019789
 30
0.0
 10
3795.801723136376
 20
3711.128032019789
 30
0.0
 10
3779.943858760106
 20
3696.128032019789
 30
0.0
 10
3795.801723136374
 20
3681.128032019789
 30
0.0
 10
3802.872790948241
 20
3681.128032019789
 30
0.0
1001
REVIT
1002
{
1070
     1
1000
168250
1002
}
1002
{
1070
     2
1000
-2000051
1002
}
1002
{
1070
     3
1000
-2000077
1002
}
  0
SPLINE
  5
DE
330
70
100
AcDbEntity
  8
A-DETL
100
AcDbSpline
210
0.0
220
0.0
230
1.0
 70
     8
 71
     3
 72
     8
 73
     4
 74
     0
 42
0.000000001
 43
0.0000000001
 40
2.06155281280883
 40
2.06155281280883
 40
2.06155281280883
 40
2.06155281280883
 40
4.12310562561766
 40
4.12310562561766
 40
4.12310562561766
 40
4.12310562561766
 10
3832.872790948242
 20
3703.628032019788
 30
0.0
 10
3823.026672980264
 20
3707.378032019789
 30
0.0
 10
3813.180555012286
 20
3711.128032019789
 30
0.0
 10
3802.872790948241
 20
3711.128032019789
 30
0.0
1001
REVIT
1002
{
1070
     1
1000
168250
1002
}
1002
{
1070
     2
1000
-2000051
1002
}
1002
{
1070
     3
1000
-2000077
1002
}
  0
SPLINE
  5
DF
330
70
100
AcDbEntity
  8
A-DETL
100
AcDbSpline
210
0.0
220
0.0
230
1.0
 70
     8
 71
     3
 72
     8
 73
     4
 74
     0
 42
0.000000001
 43
0.0000000001
 40
0.0
 40
0.0
 40
0.0
 40
0.0
 40
2.06155281280883
 40
2.06155281280883
 40
2.06155281280883
 40
2.06155281280883
 10
3802.872790948241
 20
3711.128032019789
 30
0.0
 10
3813.180555012285
 20
3711.128032019789
 30
0.0
 10
3823.026672980263
 20
3714.878032019789
 30
0.0
 10
3832.87279094824
 20
3718.628032019789
 30
0.0
1001
REVIT
1002
{
1070
     1
1000
168250
1002
}
1002
{
1070
     2
1000
-2000051
1002
}
1002
{
1070
     3
1000
-2000077
1002
}
  0
SPLINE
  5
E0
330
70
100
AcDbEntity
  8
A-DETL
100
AcDbSpline
210
0.0
220
0.0
230
1.0
 70
     8
 71
     3
 72
     9
 73
     5
 74
     0
 42
0.000000001
 43
0.0000000001
 40
0.0
 40
0.0
 40
0.0
 40
0.0
 40
1.414213562373095
 40
2.82842712474619
 40
2.82842712474619
 40
2.82842712474619
 40
2.82842712474619
 10
3802.872790948241
 20
3741.128032019788
 30
0.0
 10
3795.801723136376
 20
3741.128032019788
 30
0.0
 10
3779.943858760106
 20
3726.12803201979
 30
0.0
 10
3795.801723136374
 20
3711.128032019789
 30
0.0
 10
3802.872790948241
 20
3711.128032019789
 30
0.0
1001
REVIT
1002
{
1070
     1
1000
168250
1002
}
1002
{
1070
     2
1000
-2000051
1002
}
1002
{
1070
     3
1000
-2000077
1002
}
  0
SPLINE
  5
E1
330
70
100
AcDbEntity
  8
A-DETL
100
AcDbSpline
210
0.0
220
0.0
230
1.0
 70
     8
 71
     3
 72
     8
 73
     4
 74
     0
 42
0.000000001
 43
0.0000000001
 40
2.06155281280883
 40
2.06155281280883
 40
2.06155281280883
 40
2.06155281280883
 40
4.12310562561766
 40
4.12310562561766
 40
4.12310562561766
 40
4.12310562561766
 10
3832.872790948242
 20
3733.628032019789
 30
0.0
 10
3823.026672980264
 20
3737.378032019788
 30
0.0
 10
3813.180555012286
 20
3741.128032019788
 30
0.0
 10
3802.872790948241
 20
3741.128032019788
 30
0.0
1001
REVIT
1002
{
1070
     1
1000
168250
1002
}
1002
{
1070
     2
1000
-2000051
1002
}
1002
{
1070
     3
1000
-2000077
1002
}
  0
SPLINE
  5
E2
330
70
100
AcDbEntity
  8
A-DETL
100
AcDbSpline
210
0.0
220
0.0
230
1.0
 70
     8
 71
     3
 72
     8
 73
     4
 74
     0
 42
0.000000001
 43
0.0000000001
 40
0.0
 40
0.0
 40
0.0
 40
0.0
 40
0.4799757875505785
 40
0.4799757875505785
 40
0.4799757875505785
 40
0.4799757875505785
 10
3802.872790948241
 20
3741.128032019788
 30
0.0
 10
3805.272669885994
 20
3741.128032019788
 30
0.0
 10
3807.647524698964
 20
3741.331305628584
 30
0.0
 10
3810.003181565326
 20
3741.690526185483
 30
0.0
1001
REVIT
1002
{
1070
     1
1000
168250
1002
}
1002
{
1070
     2
1000
-2000051
1002
}
1002
{
1070
     3
1000
-2000077
1002
}
  0
SPLINE
  5
E3
330
70
100
AcDbEntity
  8
A-DETL
100
AcDbSpline
210
0.0
220
0.0
230
1.0
 70
     8
 71
     3
 72
     8
 73
     4
 74
     0
 42
0.000000001
 43
0.0000000001
 40
2.499709092293505
 40
2.499709092293505
 40
2.499709092293505
 40
2.499709092293505
 40
2.82842712474619
 40
2.82842712474619
 40
2.82842712474619
 40
2.82842712474619
 10
3797.913320848213
 20
3742.249470790354
 30
0.0
 10
3799.539262122417
 20
3741.533240313011
 30
0.0
 10
3801.229200785978
 20
3741.128032019787
 30
0.0
 10
3802.872790948241
 20
3741.128032019787
 30
0.0
1001
REVIT
1002
{
1070
     1
1000
168250
1002
}
1002
{
1070
     2
1000
-2000051
1002
}
1002
{
1070
     3
1000
-2000077
1002
}
  0
SPLINE
  5
E4
330
70
100
AcDbEntity
  8
A-DETL
100
AcDbSpline
210
0.0
220
0.0
230
1.0
 70
     8
 71
     3
 72
     9
 73
     5
 74
     0
 42
0.000000001
 43
0.0000000001
 40
0.0
 40
0.0
 40
0.0
 40
0.0
 40
1.414213562373095
 40
1.619528328473515
 40
1.619528328473515
 40
1.619528328473515
 40
1.619528328473515
 10
3802.872790948241
 20
3801.128032019788
 30
0.0
 10
3795.801723136376
 20
3801.128032019788
 30
0.0
 10
3786.721672827932
 20
3792.539186044386
 30
0.0
 10
3788.039909659244
 20
3783.950340068979
 30
0.0
 10
3788.347259846927
 20
3782.88444378359
 30
0.0
1001
REVIT
1002
{
1070
     1
1000
168250
1002
}
1002
{
1070
     2
1000
-2000051
1002
}
1002
{
1070
     3
1000
-2000077
1002
}
  0
SPLINE
  5
E5
330
70
100
AcDbEntity
  8
A-DETL
100
AcDbSpline
210
0.0
220
0.0
230
1.0
 70
     8
 71
     3
 72
     8
 73
     4
 74
     0
 42
0.000000001
 43
0.0000000001
 40
2.06155281280883
 40
2.06155281280883
 40
2.06155281280883
 40
2.06155281280883
 40
4.12310562561766
 40
4.12310562561766
 40
4.12310562561766
 40
4.12310562561766
 10
3832.872790948242
 20
3793.628032019788
 30
0.0
 10
3823.026672980264
 20
3797.378032019788
 30
0.0
 10
3813.180555012286
 20
3801.128032019788
 30
0.0
 10
3802.872790948241
 20
3801.128032019788
 30
0.0
1001
REVIT
1002
{
1070
     1
1000
168250
1002
}
1002
{
1070
     2
1000
-2000051
1002
}
1002
{
1070
     3
1000
-2000077
1002
}
  0
SPLINE
  5
E6
330
70
100
AcDbEntity
  8
A-DETL
100
AcDbSpline
210
0.0
220
0.0
230
1.0
 70
     8
 71
     3
 72
     8
 73
     4
 74
     0
 42
0.000000001
 43
0.0000000001
 40
0.0
 40
0.0
 40
0.0
 40
0.0
 40
2.06155281280883
 40
2.06155281280883
 40
2.06155281280883
 40
2.06155281280883
 10
3802.872790948241
 20
3801.128032019788
 30
0.0
 10
3813.180555012286
 20
3801.128032019788
 30
0.0
 10
3823.026672980264
 20
3804.878032019789
 30
0.0
 10
3832.87279094824
 20
3808.628032019789
 30
0.0
1001
REVIT
1002
{
1070
     1
1000
168250
1002
}
1002
{
1070
     2
1000
-2000051
1002
}
1002
{
1070
     3
1000
-2000077
1002
}
  0
SPLINE
  5
E7
330
70
100
AcDbEntity
  8
A-DETL
100
AcDbSpline
210
0.0
220
0.0
230
1.0
 70
     8
 71
     3
 72
     9
 73
     5
 74
     0
 42
0.000000001
 43
0.0000000001
 40
0.0
 40
0.0
 40
0.0
 40
0.0
 40
1.414213562373095
 40
2.82842712474619
 40
2.82842712474619
 40
2.82842712474619
 40
2.82842712474619
 10
3802.872790948241
 20
3831.128032019789
 30
0.0
 10
3795.801723136376
 20
3831.128032019789
 30
0.0
 10
3779.943858760107
 20
3816.128032019789
 30
0.0
 10
3795.801723136376
 20
3801.128032019788
 30
0.0
 10
3802.872790948243
 20
3801.128032019789
 30
0.0
1001
REVIT
1002
{
1070
     1
1000
168250
1002
}
1002
{
1070
     2
1000
-2000051
1002
}
1002
{
1070
     3
1000
-2000077
1002
}
  0
SPLINE
  5
E8
330
70
100
AcDbEntity
  8
A-DETL
100
AcDbSpline
210
0.0
220
0.0
230
1.0
 70
     8
 71
     3
 72
     8
 73
     4
 74
     0
 42
0.000000001
 43
0.0000000001
 40
2.06155281280883
 40
2.06155281280883
 40
2.06155281280883
 40
2.06155281280883
 40
4.12310562561766
 40
4.12310562561766
 40
4.12310562561766
 40
4.12310562561766
 10
3832.872790948242
 20
3823.628032019789
 30
0.0
 10
3823.026672980264
 20
3827.378032019789
 30
0.0
 10
3813.180555012286
 20
3831.128032019787
 30
0.0
 10
3802.872790948241
 20
3831.128032019787
 30
0.0
1001
REVIT
1002
{
1070
     1
1000
168250
1002
}
1002
{
1070
     2
1000
-2000051
1002
}
1002
{
1070
     3
1000
-2000077
1002
}
  0
SPLINE
  5
E9
330
70
100
AcDbEntity
  8
A-DETL
100
AcDbSpline
210
0.0
220
0.0
230
1.0
 70
     8
 71
     3
 72
     8
 73
     4
 74
     0
 42
0.000000001
 43
0.0000000001
 40
0.0
 40
0.0
 40
0.0
 40
0.0
 40
2.06155281280883
 40
2.06155281280883
 40
2.06155281280883
 40
2.06155281280883
 10
3802.872790948241
 20
3831.128032019789
 30
0.0
 10
3813.180555012286
 20
3831.128032019789
 30
0.0
 10
3823.026672980264
 20
3834.878032019789
 30
0.0
 10
3832.87279094824
 20
3838.628032019789
 30
0.0
1001
REVIT
1002
{
1070
     1
1000
168250
1002
}
1002
{
1070
     2
1000
-2000051
1002
}
1002
{
1070
     3
1000
-2000077
1002
}
  0
SPLINE
  5
EA
330
70
100
AcDbEntity
  8
A-DETL
100
AcDbSpline
210
0.0
220
0.0
230
1.0
 70
     8
 71
     3
 72
     9
 73
     5
 74
     0
 42
0.000000001
 43
0.0000000001
 40
0.0
 40
0.0
 40
0.0
 40
0.0
 40
1.414213562373095
 40
2.82842712474619
 40
2.82842712474619
 40
2.82842712474619
 40
2.82842712474619
 10
3802.872790948242
 20
3861.128032019788
 30
0.0
 10
3795.801723136377
 20
3861.128032019788
 30
0.0
 10
3779.943858760108
 20
3846.12803201979
 30
0.0
 10
3795.801723136377
 20
3831.128032019787
 30
0.0
 10
3802.872790948243
 20
3831.128032019789
 30
0.0
1001
REVIT
1002
{
1070
     1
1000
168250
1002
}
1002
{
1070
     2
1000
-2000051
1002
}
1002
{
1070
     3
1000
-2000077
1002
}
  0
SPLINE
  5
EB
330
70
100
AcDbEntity
  8
A-DETL
100
AcDbSpline
210
0.0
220
0.0
230
1.0
 70
     8
 71
     3
 72
     8
 73
     4
 74
     0
 42
0.000000001
 43
0.0000000001
 40
2.06155281280883
 40
2.06155281280883
 40
2.06155281280883
 40
2.06155281280883
 40
4.12310562561766
 40
4.12310562561766
 40
4.12310562561766
 40
4.12310562561766
 10
3832.872790948242
 20
3853.628032019788
 30
0.0
 10
3823.026672980264
 20
3857.378032019789
 30
0.0
 10
3813.180555012286
 20
3861.128032019789
 30
0.0
 10
3802.872790948242
 20
3861.128032019788
 30
0.0
1001
REVIT
1002
{
1070
     1
1000
168250
1002
}
1002
{
1070
     2
1000
-2000051
1002
}
1002
{
1070
     3
1000
-2000077
1002
}
  0
SPLINE
  5
EC
330
70
100
AcDbEntity
  8
A-DETL
100
AcDbSpline
210
0.0
220
0.0
230
1.0
 70
     8
 71
     3
 72
     9
 73
     5
 74
     0
 42
0.000000001
 43
0.0000000001
 40
0.0
 40
0.0
 40
0.0
 40
0.0
 40
1.414213562373095
 40
1.910048137947467
 40
1.910048137947467
 40
1.910048137947467
 40
1.910048137947467
 10
3862.872790948242
 20
3876.128032019789
 30
0.0
 10
3869.943858760108
 20
3876.128032019789
 30
0.0
 10
3880.6527379314
 20
3865.998472089273
 30
0.0
 10
3876.898119322127
 20
3855.868912158757
 30
0.0
 10
3875.327476676942
 20
3853.562593415407
 30
0.0
1001
REVIT
1002
{
1070
     1
1000
168250
1002
}
1002
{
1070
     2
1000
-2000051
1002
}
1002
{
1070
     3
1000
-2000077
1002
}
  0
SPLINE
  5
ED
330
70
100
AcDbEntity
  8
A-DETL
100
AcDbSpline
210
0.0
220
0.0
230
1.0
 70
     8
 71
     3
 72
     8
 73
     4
 74
     0
 42
0.000000001
 43
0.0000000001
 40
0.0
 40
0.0
 40
0.0
 40
0.0
 40
4.12310562561766
 40
4.12310562561766
 40
4.12310562561766
 40
4.12310562561766
 10
3802.872790948242
 20
3861.128032019788
 30
0.0
 10
3823.488319076331
 20
3861.128032019788
 30
0.0
 10
3842.257262820155
 20
3876.128032019789
 30
0.0
 10
3862.872790948244
 20
3876.128032019789
 30
0.0
1001
REVIT
1002
{
1070
     1
1000
168250
1002
}
1002
{
1070
     2
1000
-2000051
1002
}
1002
{
1070
     3
1000
-2000077
1002
}
  0
SPLINE
  5
EE
330
70
100
AcDbEntity
  8
A-DETL
100
AcDbSpline
210
0.0
220
0.0
230
1.0
 70
     8
 71
     3
 72
     9
 73
     5
 74
     0
 42
0.000000001
 43
0.0000000001
 40
0.0
 40
0.0
 40
0.0
 40
0.0
 40
1.414213562373095
 40
2.82842712474619
 40
2.82842712474619
 40
2.82842712474619
 40
2.82842712474619
 10
3802.872790948242
 20
3891.128032019788
 30
0.0
 10
3795.801723136377
 20
3891.128032019788
 30
0.0
 10
3779.943858760109
 20
3876.128032019789
 30
0.0
 10
3795.801723136377
 20
3861.128032019788
 30
0.0
 10
3802.872790948242
 20
3861.128032019789
 30
0.0
1001
REVIT
1002
{
1070
     1
1000
168250
1002
}
1002
{
1070
     2
1000
-2000051
1002
}
1002
{
1070
     3
1000
-2000077
1002
}
  0
SPLINE
  5
EF
330
70
100
AcDbEntity
  8
A-DETL
100
AcDbSpline
210
0.0
220
0.0
230
1.0
 70
     8
 71
     3
 72
     8
 73
     4
 74
     0
 42
0.000000001
 43
0.0000000001
 40
0.0
 40
0.0
 40
0.0
 40
0.0
 40
4.12310562561766
 40
4.12310562561766
 40
4.12310562561766
 40
4.12310562561766
 10
3862.872790948242
 20
3876.128032019789
 30
0.0
 10
3842.257262820155
 20
3876.128032019789
 30
0.0
 10
3823.488319076331
 20
3891.128032019788
 30
0.0
 10
3802.872790948241
 20
3891.128032019789
 30
0.0
1001
REVIT
1002
{
1070
     1
1000
168250
1002
}
1002
{
1070
     2
1000
-2000051
1002
}
1002
{
1070
     3
1000
-2000077
1002
}
  0
SPLINE
  5
F0
330
70
100
AcDbEntity
  8
A-DETL
100
AcDbSpline
210
0.0
220
0.0
230
1.0
 70
     8
 71
     3
 72
     9
 73
     5
 74
     0
 42
0.000000001
 43
0.0000000001
 40
0.0
 40
0.0
 40
0.0
 40
0.0
 40
1.414213562373095
 40
2.82842712474619
 40
2.82842712474619
 40
2.82842712474619
 40
2.82842712474619
 10
3862.872790948242
 20
3906.128032019789
 30
0.0
 10
3869.943858760108
 20
3906.128032019789
 30
0.0
 10
3885.801723136376
 20
3891.128032019787
 30
0.0
 10
3869.943858760107
 20
3876.128032019789
 30
0.0
 10
3862.872790948242
 20
3876.128032019789
 30
0.0
1001
REVIT
1002
{
1070
     1
1000
168250
1002
}
1002
{
1070
     2
1000
-2000051
1002
}
1002
{
1070
     3
1000
-2000077
1002
}
  0
SPLINE
  5
F1
330
70
100
AcDbEntity
  8
A-DETL
100
AcDbSpline
210
0.0
220
0.0
230
1.0
 70
     8
 71
     3
 72
     8
 73
     4
 74
     0
 42
0.000000001
 43
0.0000000001
 40
0.0
 40
0.0
 40
0.0
 40
0.0
 40
4.12310562561766
 40
4.12310562561766
 40
4.12310562561766
 40
4.12310562561766
 10
3802.872790948242
 20
3891.128032019788
 30
0.0
 10
3823.488319076331
 20
3891.128032019788
 30
0.0
 10
3842.257262820155
 20
3906.128032019789
 30
0.0
 10
3862.872790948244
 20
3906.128032019788
 30
0.0
1001
REVIT
1002
{
1070
     1
1000
168250
1002
}
1002
{
1070
     2
1000
-2000051
1002
}
1002
{
1070
     3
1000
-2000077
1002
}
  0
SPLINE
  5
F2
330
70
100
AcDbEntity
  8
A-DETL
100
AcDbSpline
210
0.0
220
0.0
230
1.0
 70
     8
 71
     3
 72
     9
 73
     5
 74
     0
 42
0.000000001
 43
0.0000000001
 40
0.0
 40
0.0
 40
0.0
 40
0.0
 40
1.414213562373095
 40
2.82842712474619
 40
2.82842712474619
 40
2.82842712474619
 40
2.82842712474619
 10
3802.872790948242
 20
3921.128032019789
 30
0.0
 10
3795.801723136377
 20
3921.128032019789
 30
0.0
 10
3779.943858760109
 20
3906.128032019789
 30
0.0
 10
3795.801723136377
 20
3891.128032019788
 30
0.0
 10
3802.872790948242
 20
3891.128032019789
 30
0.0
1001
REVIT
1002
{
1070
     1
1000
168250
1002
}
1002
{
1070
     2
1000
-2000051
1002
}
1002
{
1070
     3
1000
-2000077
1002
}
  0
SPLINE
  5
F3
330
70
100
AcDbEntity
  8
A-DETL
100
AcDbSpline
210
0.0
220
0.0
230
1.0
 70
     8
 71
     3
 72
     8
 73
     4
 74
     0
 42
0.000000001
 43
0.0000000001
 40
0.0
 40
0.0
 40
0.0
 40
0.0
 40
4.12310562561766
 40
4.12310562561766
 40
4.12310562561766
 40
4.12310562561766
 10
3862.872790948242
 20
3906.128032019789
 30
0.0
 10
3842.257262820155
 20
3906.128032019789
 30
0.0
 10
3823.488319076331
 20
3921.128032019789
 30
0.0
 10
3802.872790948241
 20
3921.128032019789
 30
0.0
1001
REVIT
1002
{
1070
     1
1000
168250
1002
}
1002
{
1070
     2
1000
-2000051
1002
}
1002
{
1070
     3
1000
-2000077
1002
}
  0
SPLINE
  5
F4
330
70
100
AcDbEntity
  8
A-DETL
100
AcDbSpline
210
0.0
220
0.0
230
1.0
 70
     8
 71
     3
 72
     9
 73
     5
 74
     0
 42
0.000000001
 43
0.0000000001
 40
0.0
 40
0.0
 40
0.0
 40
0.0
 40
1.414213562373095
 40
2.82842712474619
 40
2.82842712474619
 40
2.82842712474619
 40
2.82842712474619
 10
3862.872790948242
 20
3936.128032019788
 30
0.0
 10
3869.943858760108
 20
3936.128032019788
 30
0.0
 10
3885.801723136376
 20
3921.128032019788
 30
0.0
 10
3869.943858760107
 20
3906.128032019788
 30
0.0
 10
3862.872790948242
 20
3906.128032019789
 30
0.0
1001
REVIT
1002
{
1070
     1
1000
168250
1002
}
1002
{
1070
     2
1000
-2000051
1002
}
1002
{
1070
     3
1000
-2000077
1002
}
  0
SPLINE
  5
F5
330
70
100
AcDbEntity
  8
A-DETL
100
AcDbSpline
210
0.0
220
0.0
230
1.0
 70
     8
 71
     3
 72
     8
 73
     4
 74
     0
 42
0.000000001
 43
0.0000000001
 40
0.0
 40
0.0
 40
0.0
 40
0.0
 40
4.12310562561766
 40
4.12310562561766
 40
4.12310562561766
 40
4.12310562561766
 10
3802.872790948242
 20
3921.128032019789
 30
0.0
 10
3823.488319076331
 20
3921.128032019789
 30
0.0
 10
3842.257262820155
 20
3936.128032019788
 30
0.0
 10
3862.872790948244
 20
3936.128032019788
 30
0.0
1001
REVIT
1002
{
1070
     1
1000
168250
1002
}
1002
{
1070
     2
1000
-2000051
1002
}
1002
{
1070
     3
1000
-2000077
1002
}
  0
SPLINE
  5
F6
330
70
100
AcDbEntity
  8
A-DETL
100
AcDbSpline
210
0.0
220
0.0
230
1.0
 70
     8
 71
     3
 72
     9
 73
     5
 74
     0
 42
0.000000001
 43
0.0000000001
 40
0.0
 40
0.0
 40
0.0
 40
0.0
 40
1.414213562373095
 40
2.82842712474619
 40
2.82842712474619
 40
2.82842712474619
 40
2.82842712474619
 10
3802.872790948243
 20
3951.128032019788
 30
0.0
 10
3795.801723136377
 20
3951.128032019788
 30
0.0
 10
3779.943858760108
 20
3936.128032019789
 30
0.0
 10
3795.801723136377
 20
3921.128032019789
 30
0.0
 10
3802.872790948242
 20
3921.128032019789
 30
0.0
1001
REVIT
1002
{
1070
     1
1000
168250
1002
}
1002
{
1070
     2
1000
-2000051
1002
}
1002
{
1070
     3
1000
-2000077
1002
}
  0
SPLINE
  5
F7
330
70
100
AcDbEntity
  8
A-DETL
100
AcDbSpline
210
0.0
220
0.0
230
1.0
 70
     8
 71
     3
 72
     8
 73
     4
 74
     0
 42
0.000000001
 43
0.0000000001
 40
0.0
 40
0.0
 40
0.0
 40
0.0
 40
4.12310562561766
 40
4.12310562561766
 40
4.12310562561766
 40
4.12310562561766
 10
3862.872790948242
 20
3936.128032019788
 30
0.0
 10
3842.257262820155
 20
3936.128032019788
 30
0.0
 10
3823.488319076331
 20
3951.128032019788
 30
0.0
 10
3802.872790948242
 20
3951.128032019788
 30
0.0
1001
REVIT
1002
{
1070
     1
1000
168250
1002
}
1002
{
1070
     2
1000
-2000051
1002
}
1002
{
1070
     3
1000
-2000077
1002
}
  0
SPLINE
  5
F8
330
70
100
AcDbEntity
  8
A-DETL
100
AcDbSpline
210
0.0
220
0.0
230
1.0
 70
     8
 71
     3
 72
     9
 73
     5
 74
     0
 42
0.000000001
 43
0.0000000001
 40
0.0
 40
0.0
 40
0.0
 40
0.0
 40
1.414213562373095
 40
2.82842712474619
 40
2.82842712474619
 40
2.82842712474619
 40
2.82842712474619
 10
3862.872790948244
 20
3966.128032019788
 30
0.0
 10
3869.943858760109
 20
3966.128032019788
 30
0.0
 10
3885.801723136378
 20
3951.128032019787
 30
0.0
 10
3869.943858760109
 20
3936.128032019788
 30
0.0
 10
3862.872790948242
 20
3936.128032019789
 30
0.0
1001
REVIT
1002
{
1070
     1
1000
168250
1002
}
1002
{
1070
     2
1000
-2000051
1002
}
1002
{
1070
     3
1000
-2000077
1002
}
  0
SPLINE
  5
F9
330
70
100
AcDbEntity
  8
A-DETL
100
AcDbSpline
210
0.0
220
0.0
230
1.0
 70
     8
 71
     3
 72
     8
 73
     4
 74
     0
 42
0.000000001
 43
0.0000000001
 40
0.0
 40
0.0
 40
0.0
 40
0.0
 40
4.12310562561766
 40
4.12310562561766
 40
4.12310562561766
 40
4.12310562561766
 10
3802.872790948243
 20
3951.128032019788
 30
0.0
 10
3823.488319076331
 20
3951.128032019788
 30
0.0
 10
3842.257262820155
 20
3966.128032019789
 30
0.0
 10
3862.872790948244
 20
3966.128032019788
 30
0.0
1001
REVIT
1002
{
1070
     1
1000
168250
1002
}
1002
{
1070
     2
1000
-2000051
1002
}
1002
{
1070
     3
1000
-2000077
1002
}
  0
SPLINE
  5
FA
330
70
100
AcDbEntity
  8
A-DETL
100
AcDbSpline
210
0.0
220
0.0
230
1.0
 70
     8
 71
     3
 72
     9
 73
     5
 74
     0
 42
0.000000001
 43
0.0000000001
 40
0.0
 40
0.0
 40
0.0
 40
0.0
 40
1.414213562373095
 40
2.82842712474619
 40
2.82842712474619
 40
2.82842712474619
 40
2.82842712474619
 10
3802.872790948243
 20
3981.128032019789
 30
0.0
 10
3795.801723136377
 20
3981.128032019789
 30
0.0
 10
3779.943858760108
 20
3966.128032019789
 30
0.0
 10
3795.801723136376
 20
3951.128032019788
 30
0.0
 10
3802.872790948244
 20
3951.128032019789
 30
0.0
1001
REVIT
1002
{
1070
     1
1000
168250
1002
}
1002
{
1070
     2
1000
-2000051
1002
}
1002
{
1070
     3
1000
-2000077
1002
}
  0
SPLINE
  5
FB
330
70
100
AcDbEntity
  8
A-DETL
100
AcDbSpline
210
0.0
220
0.0
230
1.0
 70
     8
 71
     3
 72
     8
 73
     4
 74
     0
 42
0.000000001
 43
0.0000000001
 40
0.0
 40
0.0
 40
0.0
 40
0.0
 40
4.12310562561766
 40
4.12310562561766
 40
4.12310562561766
 40
4.12310562561766
 10
3862.872790948244
 20
3966.128032019788
 30
0.0
 10
3842.257262820155
 20
3966.128032019788
 30
0.0
 10
3823.488319076331
 20
3981.128032019788
 30
0.0
 10
3802.872790948243
 20
3981.128032019789
 30
0.0
1001
REVIT
1002
{
1070
     1
1000
168250
1002
}
1002
{
1070
     2
1000
-2000051
1002
}
1002
{
1070
     3
1000
-2000077
1002
}
  0
SPLINE
  5
FC
330
70
100
AcDbEntity
  8
A-DETL
100
AcDbSpline
210
0.0
220
0.0
230
1.0
 70
     8
 71
     3
 72
     9
 73
     5
 74
     0
 42
0.000000001
 43
0.0000000001
 40
0.0
 40
0.0
 40
0.0
 40
0.0
 40
1.414213562373095
 40
2.82842712474619
 40
2.82842712474619
 40
2.82842712474619
 40
2.82842712474619
 10
3862.872790948244
 20
3996.128032019789
 30
0.0
 10
3869.943858760109
 20
3996.128032019789
 30
0.0
 10
3885.801723136378
 20
3981.128032019788
 30
0.0
 10
3869.943858760109
 20
3966.128032019788
 30
0.0
 10
3862.872790948244
 20
3966.128032019788
 30
0.0
1001
REVIT
1002
{
1070
     1
1000
168250
1002
}
1002
{
1070
     2
1000
-2000051
1002
}
1002
{
1070
     3
1000
-2000077
1002
}
  0
SPLINE
  5
FD
330
70
100
AcDbEntity
  8
A-DETL
100
AcDbSpline
210
0.0
220
0.0
230
1.0
 70
     8
 71
     3
 72
     8
 73
     4
 74
     0
 42
0.000000001
 43
0.0000000001
 40
0.0
 40
0.0
 40
0.0
 40
0.0
 40
4.12310562561766
 40
4.12310562561766
 40
4.12310562561766
 40
4.12310562561766
 10
3802.872790948243
 20
3981.128032019789
 30
0.0
 10
3823.488319076331
 20
3981.128032019789
 30
0.0
 10
3842.257262820155
 20
3996.12803201979
 30
0.0
 10
3862.872790948244
 20
3996.128032019789
 30
0.0
1001
REVIT
1002
{
1070
     1
1000
168250
1002
}
1002
{
1070
     2
1000
-2000051
1002
}
1002
{
1070
     3
1000
-2000077
1002
}
  0
SPLINE
  5
FE
330
70
100
AcDbEntity
  8
A-DETL
100
AcDbSpline
210
0.0
220
0.0
230
1.0
 70
     8
 71
     3
 72
     9
 73
     5
 74
     0
 42
0.000000001
 43
0.0000000001
 40
0.0
 40
0.0
 40
0.0
 40
0.0
 40
1.414213562373095
 40
2.82842712474619
 40
2.82842712474619
 40
2.82842712474619
 40
2.82842712474619
 10
3802.872790948243
 20
4011.128032019788
 30
0.0
 10
3795.801723136377
 20
4011.128032019788
 30
0.0
 10
3779.943858760108
 20
3996.12803201979
 30
0.0
 10
3795.801723136376
 20
3981.128032019789
 30
0.0
 10
3802.872790948244
 20
3981.128032019789
 30
0.0
1001
REVIT
1002
{
1070
     1
1000
168250
1002
}
1002
{
1070
     2
1000
-2000051
1002
}
1002
{
1070
     3
1000
-2000077
1002
}
  0
SPLINE
  5
FF
330
70
100
AcDbEntity
  8
A-DETL
100
AcDbSpline
210
0.0
220
0.0
230
1.0
 70
     8
 71
     3
 72
     8
 73
     4
 74
     0
 42
0.000000001
 43
0.0000000001
 40
0.0
 40
0.0
 40
0.0
 40
0.0
 40
4.12310562561766
 40
4.12310562561766
 40
4.12310562561766
 40
4.12310562561766
 10
3862.872790948244
 20
3996.128032019789
 30
0.0
 10
3842.257262820155
 20
3996.128032019789
 30
0.0
 10
3823.488319076331
 20
4011.128032019787
 30
0.0
 10
3802.872790948243
 20
4011.128032019788
 30
0.0
1001
REVIT
1002
{
1070
     1
1000
168250
1002
}
1002
{
1070
     2
1000
-2000051
1002
}
1002
{
1070
     3
1000
-2000077
1002
}
  0
SPLINE
  5
100
330
70
100
AcDbEntity
  8
A-DETL
100
AcDbSpline
210
0.0
220
0.0
230
1.0
 70
     8
 71
     3
 72
     9
 73
     5
 74
     0
 42
0.000000001
 43
0.0000000001
 40
0.145397644931445
 40
0.145397644931445
 40
0.145397644931445
 40
0.145397644931445
 40
1.414213562373095
 40
2.82842712474619
 40
2.82842712474619
 40
2.82842712474619
 40
2.82842712474619
 10
3865.071410117383
 20
4025.898352251926
 30
0.0
 10
3871.490421434831
 20
4024.585857109293
 30
0.0
 10
3884.98653645054
 20
4010.356944564541
 30
0.0
 10
3869.943858760107
 20
3996.128032019789
 30
0.0
 10
3862.872790948244
 20
3996.12803201979
 30
0.0
1001
REVIT
1002
{
1070
     1
1000
168250
1002
}
1002
{
1070
     2
1000
-2000051
1002
}
1002
{
1070
     3
1000
-2000077
1002
}
  0
SPLINE
  5
101
330
70
100
AcDbEntity
  8
A-DETL
100
AcDbSpline
210
0.0
220
0.0
230
1.0
 70
     8
 71
     3
 72
     8
 73
     4
 74
     0
 42
0.000000001
 43
0.0000000001
 40
0.0
 40
0.0
 40
0.0
 40
0.0
 40
3.692784402792924
 40
3.692784402792924
 40
3.692784402792924
 40
3.692784402792924
 10
3802.872790948243
 20
4011.128032019788
 30
0.0
 10
3821.336712962208
 20
4011.128032019788
 30
0.0
 10
3838.31938572822
 20
4023.160376118767
 30
0.0
 10
3856.474117027435
 20
4025.671964953142
 30
0.0
1001
REVIT
1002
{
1070
     1
1000
168250
1002
}
1002
{
1070
     2
1000
-2000051
1002
}
1002
{
1070
     3
1000
-2000077
1002
}
  0
SPLINE
  5
102
330
70
100
AcDbEntity
  8
A-DETL
100
AcDbSpline
210
0.0
220
0.0
230
1.0
 70
     8
 71
     3
 72
     9
 73
     5
 74
     0
 42
0.000000001
 43
0.0000000001
 40
1.26491885648576
 40
1.26491885648576
 40
1.26491885648576
 40
1.26491885648576
 40
1.414213562373095
 40
2.82842712474619
 40
2.82842712474619
 40
2.82842712474619
 40
2.82842712474619
 10
3788.127544244675
 20
4028.494472570894
 30
0.0
 10
3787.961154573064
 20
4027.711541503712
 30
0.0
 10
3787.035754993758
 20
4019.419786761754
 30
0.0
 10
3795.801723136311
 20
4011.128032019752
 30
0.0
 10
3802.872790948244
 20
4011.128032019789
 30
0.0
1001
REVIT
1002
{
1070
     1
1000
168250
1002
}
1002
{
1070
     2
1000
-2000051
1002
}
1002
{
1070
     3
1000
-2000077
1002
}
  0
SPLINE
  5
103
330
70
100
AcDbEntity
  8
A-DETL
100
AcDbSpline
210
0.0
220
0.0
230
1.0
 70
     8
 71
     3
 72
     8
 73
     4
 74
     0
 42
0.000000001
 43
0.0000000001
 40
0.4488354222762667
 40
0.4488354222762667
 40
0.4488354222762667
 40
0.4488354222762667
 40
1.155393189960691
 40
1.155393189960691
 40
1.155393189960691
 40
1.155393189960691
 10
3856.201142574715
 20
4026.622590739659
 30
0.0
 10
3852.729748546709
 20
4027.121307269537
 30
0.0
 10
3849.276228188673
 20
4027.765213508494
 30
0.0
 10
3845.836157415453
 20
4028.518372145533
 30
0.0
1001
REVIT
1002
{
1070
     1
1000
168250
1002
}
1002
{
1070
     2
1000
-2000051
1002
}
1002
{
1070
     3
1000
-2000077
1002
}
  0
SPLINE
  5
104
330
70
100
AcDbEntity
  8
A-DETL
100
AcDbSpline
210
0.0
220
0.0
230
1.0
 70
     8
 71
     3
 72
     8
 73
     4
 74
     0
 42
0.000000001
 43
0.0000000001
 40
2.348627493790399
 40
2.348627493790399
 40
2.348627493790399
 40
2.348627493790399
 40
2.669354444992591
 40
2.669354444992591
 40
2.669354444992591
 40
2.669354444992591
 10
3870.022880644164
 20
4028.424984248748
 30
0.0
 10
3868.516605947871
 20
4027.466630654521
 30
0.0
 10
3866.913530768255
 20
4027.004547087786
 30
0.0
 10
3865.291274268769
 20
4026.642126559884
 30
0.0
1001
REVIT
1002
{
1070
     1
1000
168250
1002
}
1002
{
1070
     2
1000
-2000051
1002
}
1002
{
1070
     3
1000
-2000077
1002
}
  0
INSERT
  5
110
330
70
100
AcDbEntity
  8
A-DETL-GENF
100
AcDbBlockReference
  2
FP Timber Nog Packer1 - Variable-173500-W-TRSIL-17-H - Pipe Penetration Detail _Hor__
 10
3857.872790948253
 20
3663.628032019789
 30
0.0
 50
89.9999999999992
1001
REVIT
1002
{
1070
     1
1000
173499
1002
}
1002
{
1070
     5
1000
44489
1002
}
1002
{
1070
     2
1000
-2002000
1002
}
  0
INSERT
  5
126
330
70
100
AcDbEntity
  8
A-DETL-GENF
100
AcDbBlockReference
  2
TRS Interlocking profile - Interlocking 260-113920-W-TRSIL-17-H - Pipe Penetration Detail _Hor__
 10
3905.515793485304
 20
3124.032126794848
 30
0.0
 50
269.9999999999998
1001
REVIT
1002
{
1070
     1
1000
168499
1002
}
1002
{
1070
     5
1000
113920
1002
}
1002
{
1070
     2
1000
-2002000
1002
}
  0
HATCH
  5
12C
330
70
100
AcDbEntity
  8
A-DETL-GENF
100
AcDbHatch
 10
0.0
 20
0.0
 30
0.0
210
0.0
220
0.0
230
1.0
  2
FP_1
 70
     0
 71
     0
 91
        1
 92
        0
 93
        5
 72
     1
 10
3884.833161647736
 20
3785.655912616441
 11
3902.833161647735
 21
3785.655912616441
 72
     1
 10
3902.833161647735
 20
3785.655912616441
 11
3902.833161647738
 21
4028.485850018705
 72
     1
 10
3902.833161647738
 20
4028.485850018705
 11
3884.833161647737
 21
4028.485850018705
 72
     1
 10
3884.833161647737
 20
4028.485850018705
 11
3884.833161647736
 21
3786.200504731965
 72
     1
 10
3884.833161647736
 20
3786.200504731965
 11
3884.833161647736
 21
3785.655912616441
 97
        0
 75
     0
 76
     2
 52
0.0
 41
1.0
 77
     0
 78
     2
 53
0.0
 43
0.0
 44
0.0
 45
0.0
 46
11.0
 79
     0
 53
90.0
 43
0.0
 44
0.0
 45
-11.0
 46
0.0000000000000007
 79
     0
 98
        1
 10
0.0
 20
0.0
1001
REVIT
1002
{
1070
     1
1000
170423
1002
}
1002
{
1070
     5
1000
14996
1002
}
1002
{
1070
     2
1000
-2002000
1002
}
  0
LINE
  5
12E
330
70
100
AcDbEntity
  8
A-DETL-THIN
100
AcDbLine
 10
3884.833161647732
 20
4028.485850018699
 30
0.0
 11
3884.833161647731
 21
3785.655912616436
 31
0.0
1001
REVIT
1002
{
1070
     1
1000
170423
1002
}
1002
{
1070
     5
1000
14996
1002
}
1002
{
1070
     2
1000
-2000051
1002
}
1002
{
1070
     3
1000
-2000042
1002
}
  0
LINE
  5
12F
330
70
100
AcDbEntity
  8
A-DETL-THIN
100
AcDbLine
 10
3884.833161647731
 20
3785.655912616436
 30
0.0
 11
3902.83316164773
 21
3785.655912616436
 31
0.0
1001
REVIT
1002
{
1070
     1
1000
170423
1002
}
1002
{
1070
     5
1000
14996
1002
}
1002
{
1070
     2
1000
-2000051
1002
}
1002
{
1070
     3
1000
-2000042
1002
}
  0
LINE
  5
130
330
70
100
AcDbEntity
  8
A-DETL-THIN
100
AcDbLine
 10
3902.83316164773
 20
3785.655912616436
 30
0.0
 11
3902.833161647732
 21
4028.485850018699
 31
0.0
1001
REVIT
1002
{
1070
     1
1000
170423
1002
}
1002
{
1070
     5
1000
14996
1002
}
1002
{
1070
     2
1000
-2000051
1002
}
1002
{
1070
     3
1000
-2000042
1002
}
  0
LINE
  5
131
330
70
100
AcDbEntity
  8
A-DETL-THIN
100
AcDbLine
 10
3877.872790948254
 20
3456.82549522824
 30
0.0
 11
3877.872790948251
 21
3738.171138344415
 31
0.0
1001
REVIT
1002
{
1070
     1
1000
168209
1002
}
1002
{
1070
     2
1000
-2000051
1002
}
1002
{
1070
     3
1000
-2000042
1002
}
  0
LINE
  5
132
330
70
100
AcDbEntity
  8
A-DETL-THIN
100
AcDbLine
 10
3877.872790948251
 20
3778.22603218433
 30
0.0
 11
3877.872790948248
 21
4028.485850018699
 31
0.0
1001
REVIT
1002
{
1070
     1
1000
168209
1002
}
1002
{
1070
     2
1000
-2000051
1002
}
1002
{
1070
     3
1000
-2000042
1002
}
  0
HATCH
  5
13D
330
70
100
AcDbEntity
  8
A-DETL-GENF
100
AcDbHatch
 10
0.0
 20
0.0
 30
0.0
210
0.0
220
0.0
230
1.0
  2
FP_2
 70
     0
 71
     0
 91
        2
 92
        0
 93
        5
 72
     1
 10
3774.872790948248
 20
3456.825495228243
 11
3787.872790948246
 21
3456.825495228243
 72
     1
 10
3787.872790948246
 20
3456.825495228243
 11
3787.872790948245
 21
3742.887838479894
 72
     1
 10
3787.872790948245
 20
3742.887838479894
 11
3774.872790948246
 21
3743.569139610573
 72
     1
 10
3774.872790948246
 20
3743.569139610573
 11
3774.872790948247
 21
3598.81027589176
 72
     1
 10
3774.872790948247
 20
3598.81027589176
 11
3774.872790948248
 21
3456.825495228243
 97
        0
 92
        0
 93
        5
 72
     1
 10
3787.872790948245
 20
3782.94273231981
 11
3787.872790948244
 21
4028.485850018705
 72
     1
 10
3787.872790948244
 20
4028.485850018705
 11
3774.872790948246
 21
4028.485850018705
 72
     1
 10
3774.872790948246
 20
4028.485850018705
 11
3774.872790948246
 21
3783.62403345049
 72
     1
 10
3774.872790948246
 20
3783.62403345049
 11
3784.084243242574
 21
3783.141281691773
 72
     1
 10
3784.084243242574
 20
3783.141281691773
 11
3787.872790948245
 21
3782.94273231981
 97
        0
 75
     0
 76
     2
 52
0.0
 41
1.0
 77
     0
 78
     9
 53
0.0
 43
0.0
 44
0.0
 45
20.32
 46
5.08
 79
     5
 49
1.675999999999999
 49
-13.564
 49
1.675999999999999
 49
-13.564
 49
-81.28
 53
0.0
 43
0.0
 44
0.0
 45
20.32
 46
5.08
 79
     6
 49
-30.48
 49
1.675999999999999
 49
-28.804
 49
1.675999999999999
 49
-13.564
 49
-35.56
 53
0.0
 43
0.0
 44
0.0
 45
20.32
 46
5.08
 79
     5
 49
-76.2
 49
1.675999999999999
 49
-8.483999999999999
 49
1.675999999999999
 49
-23.724
 53
120.0
 43
7.62
 44
2.54
 45
-14.55940905122494
 46
15.0576362048998
 79
     5
 49
1.675999999999999
 49
-13.564
 49
1.675999999999999
 49
-13.564
 49
-81.27999999999998
 53
120.0
 43
7.62
 44
2.54
 45
-14.55940905122494
 46
15.0576362048998
 79
     6
 49
-30.48
 49
1.675999999999999
 49
-28.804
 49
1.675999999999999
 49
-13.564
 49
-35.56
 53
120.0
 43
7.62
 44
2.54
 45
-14.55940905122494
 46
15.0576362048998
 79
     5
 49
-76.19999999999999
 49
1.675999999999999
 49
-8.483999999999998
 49
1.675999999999999
 49
-23.724
 53
240.0
 43
10.16
 44
12.7
 45
-5.760590948775045
 46
-20.1376362048998
 79
     5
 49
1.675999999999999
 49
-13.564
 49
1.675999999999999
 49
-13.564
 49
-81.28
 53
240.0
 43
10.16
 44
12.7
 45
-5.760590948775045
 46
-20.1376362048998
 79
     6
 49
-30.48
 49
1.675999999999999
 49
-28.804
 49
1.675999999999999
 49
-13.564
 49
-35.56
 53
240.0
 43
10.16
 44
12.7
 45
-5.760590948775045
 46
-20.1376362048998
 79
     5
 49
-76.2
 49
1.675999999999999
 49
-8.483999999999999
 49
1.675999999999999
 49
-23.724
 98
        1
 10
0.0
 20
0.0
1001
REVIT
1002
{
1070
     1
1000
168228
1002
}
1002
{
1070
     5
1000
17941
1002
}
1002
{
1070
     2
1000
-2002000
1002
}
  0
LINE
  5
13E
330
70
100
AcDbEntity
  8
A-DETL
100
AcDbLine
 10
3774.872790948241
 20
4028.485850018699
 30
0.0
 11
3774.872790948242
 21
3783.624033450485
 31
0.0
1001
REVIT
1002
{
1070
     1
1000
168228
1002
}
1002
{
1070
     5
1000
17941
1002
}
1002
{
1070
     2
1000
-2000051
1002
}
1002
{
1070
     3
1000
16210
1002
}
  0
LINE
  5
13F
330
70
100
AcDbEntity
  8
A-DETL
100
AcDbLine
 10
3774.872790948242
 20
3743.569139610568
 30
0.0
 11
3774.872790948244
 21
3456.825495228238
 31
0.0
1001
REVIT
1002
{
1070
     1
1000
168228
1002
}
1002
{
1070
     5
1000
17941
1002
}
1002
{
1070
     2
1000
-2000051
1002
}
1002
{
1070
     3
1000
16210
1002
}
  0
LINE
  5
140
330
70
100
AcDbEntity
  8
A-DETL
100
AcDbLine
 10
3787.872790948241
 20
3456.825495228238
 30
0.0
 11
3787.87279094824
 21
3742.887838479889
 31
0.0
1001
REVIT
1002
{
1070
     1
1000
168228
1002
}
1002
{
1070
     5
1000
17941
1002
}
1002
{
1070
     2
1000
-2000051
1002
}
1002
{
1070
     3
1000
16210
1002
}
  0
LINE
  5
141
330
70
100
AcDbEntity
  8
A-DETL
100
AcDbLine
 10
3787.87279094824
 20
3782.942732319805
 30
0.0
 11
3787.872790948239
 21
4028.485850018699
 31
0.0
1001
REVIT
1002
{
1070
     1
1000
168228
1002
}
1002
{
1070
     5
1000
17941
1002
}
1002
{
1070
     2
1000
-2000051
1002
}
1002
{
1070
     3
1000
16210
1002
}
  0
INSERT
  5
148
330
70
100
AcDbEntity
  8
A-DETL-GENF
100
AcDbBlockReference
  2
HP_WProof - Building Wrap - HP_WProof - Building Wrap-130950-W-TRSIL-17-H - Pipe Penetration Detail _Hor__
 10
3880.226417541487
 20
3421.82549522824
 30
0.0
 50
180.0
1001
REVIT
1002
{
1070
     1
1000
168238
1002
}
1002
{
1070
     5
1000
59792
1002
}
1002
{
1070
     2
1000
-2002000
1002
}
  0
INSERT
  5
155
330
70
100
AcDbEntity
  8
A-DETL-GENF
100
AcDbBlockReference
  2
TRS Interlocking profile - Interlocking 260-V1-W-TRSIL-17-H - Pipe Penetration Detail _Hor__
 10
3905.515793485303
 20
2860.907126794848
 30
0.0
 50
269.9999999999998
1001
REVIT
1002
{
1070
     1
1000
168248
1002
}
1002
{
1070
     5
1000
113920
1002
}
1002
{
1070
     2
1000
-2002000
1002
}
  0
HATCH
  5
15A
330
70
100
AcDbEntity
  8
A-DETL-GENF
100
AcDbHatch
 10
0.0
 20
0.0
 30
0.0
210
0.0
220
0.0
230
1.0
  2
FP_1
 70
     0
 71
     0
 91
        1
 92
        0
 93
        4
 72
     1
 10
3902.833161647735
 20
3456.825495228246
 11
3902.833161647738
 21
3728.54534267829
 72
     1
 10
3902.833161647738
 20
3728.54534267829
 11
3884.833161647738
 21
3728.54534267829
 72
     1
 10
3884.833161647738
 20
3728.54534267829
 11
3884.833161647737
 21
3456.825495228246
 72
     1
 10
3884.833161647737
 20
3456.825495228246
 11
3902.833161647735
 21
3456.825495228246
 97
        0
 75
     0
 76
     2
 52
0.0
 41
1.0
 77
     0
 78
     2
 53
0.0
 43
0.0
 44
0.0
 45
0.0
 46
11.0
 79
     0
 53
90.0
 43
0.0
 44
0.0
 45
-11.0
 46
0.0000000000000007
 79
     0
 98
        1
 10
0.0
 20
0.0
1001
REVIT
1002
{
1070
     1
1000
168264
1002
}
1002
{
1070
     5
1000
14996
1002
}
1002
{
1070
     2
1000
-2002000
1002
}
  0
LINE
  5
15B
330
70
100
AcDbEntity
  8
A-DETL-THIN
100
AcDbLine
 10
3902.833161647733
 20
3728.545342678284
 30
0.0
 11
3884.833161647733
 21
3728.545342678284
 31
0.0
1001
REVIT
1002
{
1070
     1
1000
168264
1002
}
1002
{
1070
     5
1000
14996
1002
}
1002
{
1070
     2
1000
-2000051
1002
}
1002
{
1070
     3
1000
-2000042
1002
}
  0
LINE
  5
15C
330
70
100
AcDbEntity
  8
A-DETL-THIN
100
AcDbLine
 10
3884.833161647733
 20
3728.545342678284
 30
0.0
 11
3884.833161647732
 21
3456.82549522824
 31
0.0
1001
REVIT
1002
{
1070
     1
1000
168264
1002
}
1002
{
1070
     5
1000
14996
1002
}
1002
{
1070
     2
1000
-2000051
1002
}
1002
{
1070
     3
1000
-2000042
1002
}
  0
LINE
  5
15D
330
70
100
AcDbEntity
  8
A-DETL-THIN
100
AcDbLine
 10
3902.833161647731
 20
3456.82549522824
 30
0.0
 11
3902.833161647733
 21
3728.545342678284
 31
0.0
1001
REVIT
1002
{
1070
     1
1000
168264
1002
}
1002
{
1070
     5
1000
14996
1002
}
1002
{
1070
     2
1000
-2000051
1002
}
1002
{
1070
     3
1000
-2000042
1002
}
  0
INSERT
  5
166
330
70
100
AcDbEntity
  8
A-DETL-GENF
100
AcDbBlockReference
  2
FP - Break Line - FP - Break Line-168850-W-TRSIL-17-H - Pipe Penetration Detail _Hor__
 10
3853.62697356781
 20
3456.825495228244
 30
0.0
1001
REVIT
1002
{
1070
     1
1000
168196
1002
}
1002
{
1070
     5
1000
59790
1002
}
1002
{
1070
     2
1000
-2002000
1002
}
  0
INSERT
  5
171
330
70
100
AcDbEntity
  8
A-DETL-GENF
100
AcDbBlockReference
  2
TRS Interlocking profile - Interlocking 260-V2-W-TRSIL-17-H - Pipe Penetration Detail _Hor__
 10
3905.515793485305
 20
3387.157126794849
 30
0.0
 50
269.9999999999998
1001
REVIT
1002
{
1070
     1
1000
168606
1002
}
1002
{
1070
     5
1000
113920
1002
}
1002
{
1070
     2
1000
-2002000
1002
}
  0
INSERT
  5
17A
330
70
100
AcDbEntity
  8
A-DETL-GENF
100
AcDbBlockReference
  2
FP - Break Line - FP - Break Line-168802-W-TRSIL-17-H - Pipe Penetration Detail _Hor__
 10
3855.760230067448
 20
4028.485850018696
 30
0.0
1001
REVIT
1002
{
1070
     1
1000
168218
1002
}
1002
{
1070
     5
1000
59790
1002
}
1002
{
1070
     2
1000
-2002000
1002
}
  0
LINE
  5
17B
330
70
100
AcDbEntity
  8
A-DETL-THIN
100
AcDbLine
 10
4013.993832508546
 20
3771.092230682461
 30
0.0
 11
3953.195326687212
 21
3774.278545356284
 31
0.0
1001
REVIT
1002
{
1070
     1
1000
169018
1002
}
1002
{
1070
     5
1000
17873
1002
}
1002
{
1070
     2
1000
-2000051
1002
}
1002
{
1070
     3
1000
-2000042
1002
}
  0
LINE
  5
17C
330
70
100
AcDbEntity
  8
A-DETL-THIN
100
AcDbLine
 10
3943.042019079507
 20
3774.810657660381
 30
0.0
 11
3704.418676734628
 21
3787.316377117774
 31
0.0
1001
REVIT
1002
{
1070
     1
1000
169018
1002
}
1002
{
1070
     5
1000
17873
1002
}
1002
{
1070
     2
1000
-2000051
1002
}
1002
{
1070
     3
1000
-2000042
1002
}
  0
SPLINE
  5
17D
330
70
100
AcDbEntity
  8
A-DETL-THIN
100
AcDbSpline
210
0.0
220
0.0
230
1.0
 70
     8
 71
     3
 72
    15
 73
    11
 74
     0
 42
0.000000001
 43
0.0000000001
 40
0.0
 40
0.0
 40
0.0
 40
0.0
 40
0.1111111111111111
 40
0.2222222222222222
 40
0.4444444444444445
 40
0.5555555555555556
 40
0.6666666666666666
 40
0.7777777777777778
 40
0.8888888888888889
 40
1.0
 40
1.0
 40
1.0
 40
1.0
 10
3704.418676734628
 20
3787.316377117774
 30
0.0
 10
3705.343833564433
 20
3786.990390670756
 30
0.0
 10
3706.979941845196
 20
3786.24647574688
 30
0.0
 10
3709.395336891349
 20
3784.390877779765
 30
0.0
 10
3710.525499664435
 20
3781.983627633609
 30
0.0
 10
3710.370430164456
 20
3779.02472530841
 30
0.0
 10
3709.611511902937
 20
3776.529722474988
 30
0.0
 10
3708.209977504893
 20
3773.758893552052
 30
0.0
 10
3706.165826970306
 20
3770.712238539586
 30
0.0
 10
3704.374649189563
 20
3768.497251138265
 30
0.0
 10
3703.371957609768
 20
3767.343786422682
 30
0.0
1001
REVIT
1002
{
1070
     1
1000
169018
1002
}
1002
{
1070
     5
1000
17873
1002
}
1002
{
1070
     2
1000
-2000051
1002
}
1002
{
1070
     3
1000
-2000042
1002
}
  0
SPLINE
  5
17E
330
70
100
AcDbEntity
  8
A-DETL-THIN
100
AcDbSpline
210
0.0
220
0.0
230
1.0
 70
     8
 71
     3
 72
    16
 73
    12
 74
     0
 42
0.000000001
 43
0.0000000001
 40
0.0
 40
0.0
 40
0.0
 40
0.0
 40
0.1111111111111111
 40
0.2222222222222222
 40
0.3333333333333333
 40
0.4444444444444445
 40
0.5555555555555556
 40
0.6666666666666666
 40
0.7777777777777778
 40
0.8888888888888889
 40
1.0
 40
1.0
 40
1.0
 40
1.0
 10
3703.371957609769
 20
3767.343786422683
 30
0.0
 10
3702.35827825609
 20
3766.135730411197
 30
0.0
 10
3700.547566655107
 20
3763.823691817156
 30
0.0
 10
3698.481440572753
 20
3760.667854212889
 30
0.0
 10
3697.065255809523
 20
3757.824236895406
 30
0.0
 10
3696.299012365417
 20
3755.292839864718
 30
0.0
 10
3696.182710240432
 20
3753.073663120817
 30
0.0
 10
3696.716349434571
 20
3751.166706663707
 30
0.0
 10
3697.899929947833
 20
3749.571970493391
 30
0.0
 10
3699.733451780217
 20
3748.289454609863
 30
0.0
 10
3701.389093881222
 20
3747.642590878706
 30
0.0
 10
3702.32523848491
 20
3747.37119572759
 30
0.0
1001
REVIT
1002
{
1070
     1
1000
169018
1002
}
1002
{
1070
     5
1000
17873
1002
}
1002
{
1070
     2
1000
-2000051
1002
}
1002
{
1070
     3
1000
-2000042
1002
}
  0
LINE
  5
17F
330
70
100
AcDbEntity
  8
A-DETL-THIN
100
AcDbLine
 10
3702.32523848491
 20
3747.371195727591
 30
0.0
 11
3942.654205430316
 21
3734.776088272594
 31
0.0
1001
REVIT
1002
{
1070
     1
1000
169018
1002
}
1002
{
1070
     5
1000
17873
1002
}
1002
{
1070
     2
1000
-2000051
1002
}
1002
{
1070
     3
1000
-2000042
1002
}
  0
LINE
  5
180
330
70
100
AcDbEntity
  8
A-DETL-THIN
100
AcDbLine
 10
3953.453101391241
 20
3734.210142116573
 30
0.0
 11
4011.900394258829
 21
3731.147049292277
 31
0.0
1001
REVIT
1002
{
1070
     1
1000
169018
1002
}
1002
{
1070
     5
1000
17873
1002
}
1002
{
1070
     2
1000
-2000051
1002
}
1002
{
1070
     3
1000
-2000042
1002
}
  0
SPLINE
  5
181
330
70
100
AcDbEntity
  8
A-DETL-THIN
100
AcDbSpline
210
0.0
220
0.0
230
1.0
 70
     8
 71
     3
 72
    15
 73
    11
 74
     0
 42
0.000000001
 43
0.0000000001
 40
0.0
 40
0.0
 40
0.0
 40
0.0
 40
0.1111111111111111
 40
0.2222222222222222
 40
0.4444444444444445
 40
0.5555555555555556
 40
0.6666666666666666
 40
0.7777777777777778
 40
0.8888888888888889
 40
1.0
 40
1.0
 40
1.0
 40
1.0
 10
4011.900394258829
 20
3731.147049292278
 30
0.0
 10
4012.859779082513
 20
3731.319103955538
 30
0.0
 10
4014.573967074618
 20
3731.789362374954
 30
0.0
 10
4017.184016437767
 20
3733.234475585379
 30
0.0
 10
4018.566575869335
 20
3735.436483353193
 30
0.0
 10
4018.721645369312
 20
3738.395385678392
 30
0.0
 10
4018.224202528505
 20
3740.993009700983
 30
0.0
 10
4017.1130147219
 20
3743.96908100227
 30
0.0
 10
4015.388081949508
 20
3747.323599582248
 30
0.0
 10
4013.828963457381
 20
3749.812243488031
 30
0.0
 10
4012.947113383687
 20
3751.119639987371
 30
0.0
1001
REVIT
1002
{
1070
     1
1000
169018
1002
}
1002
{
1070
     5
1000
17873
1002
}
1002
{
1070
     2
1000
-2000051
1002
}
1002
{
1070
     3
1000
-2000042
1002
}
  0
SPLINE
  5
182
330
70
100
AcDbEntity
  8
A-DETL-THIN
100
AcDbSpline
210
0.0
220
0.0
230
1.0
 70
     8
 71
     3
 72
    16
 73
    12
 74
     0
 42
0.000000001
 43
0.0000000001
 40
0.0
 40
0.0
 40
0.0
 40
0.0
 40
0.1111111111111111
 40
0.2222222222222222
 40
0.3333333333333333
 40
0.4444444444444445
 40
0.5555555555555556
 40
0.6666666666666666
 40
0.7777777777777778
 40
0.8888888888888889
 40
1.0
 40
1.0
 40
1.0
 40
1.0
 10
4012.947113383687
 20
3751.119639987371
 30
0.0
 10
4012.070484547433
 20
3752.371595712518
 30
0.0
 10
4010.520648255204
 20
3754.761678241957
 30
0.0
 10
4008.806157957694
 20
3758.00531527355
 30
0.0
 10
4007.701931801014
 20
3760.907465542584
 30
0.0
 10
4007.207969785167
 20
3763.468129049045
 30
0.0
 10
4007.324271910148
 20
3765.687305792946
 30
0.0
 10
4008.050838175967
 20
3767.564995774279
 30
0.0
 10
4009.387668582616
 20
3769.101198993049
 30
0.0
 10
4011.334763130094
 20
3770.295915449249
 30
0.0
 10
4013.039668922304
 20
3770.864735245011
 30
0.0
 10
4013.993832508545
 20
3771.092230682461
 30
0.0
1001
REVIT
1002
{
1070
     1
1000
169018
1002
}
1002
{
1070
     5
1000
17873
1002
}
1002
{
1070
     2
1000
-2000051
1002
}
1002
{
1070
     3
1000
-2000042
1002
}
  0
SPLINE
  5
184
330
70
100
AcDbEntity
  8
A-DETL-MEDM
100
AcDbSpline
210
0.0
220
0.0
230
1.0
 70
     8
 71
     2
 72
     6
 73
     3
 74
     0
 42
0.000000001
 43
0.0000000001
 40
0.0
 40
0.0
 40
0.0
 40
0.0552375468970511
 40
0.0552375468970511
 40
0.0552375468970511
 10
3704.418676734628
 20
3787.316377117774
 30
0.0
 10
3691.622579219238
 20
3784.123637751579
 30
0.0
 10
3703.371957609769
 20
3767.343786422683
 30
0.0
1001
REVIT
1002
{
1070
     1
1000
170142
1002
}
1002
{
1070
     2
1000
-2000051
1002
}
1002
{
1070
     3
1000
-2000043
1002
}
  0
SPLINE
  5
185
330
70
100
AcDbEntity
  8
A-DETL-MEDM
100
AcDbSpline
210
0.0
220
0.0
230
1.0
 70
     8
 71
     2
 72
     6
 73
     3
 74
     0
 42
0.000000001
 43
0.0000000001
 40
0.0
 40
0.0
 40
0.0
 40
0.0552375468970511
 40
0.0552375468970511
 40
0.0552375468970511
 10
4013.993832508547
 20
3771.092230682461
 30
0.0
 10
4026.386099523309
 20
3766.579425067469
 30
0.0
 10
4012.947113383688
 20
3751.119639987371
 30
0.0
1001
REVIT
1002
{
1070
     1
1000
170187
1002
}
1002
{
1070
     2
1000
-2000051
1002
}
1002
{
1070
     3
1000
-2000043
1002
}
  0
LINE
  5
186
330
70
100
AcDbEntity
  8
A-DETL-THIN
100
AcDbLine
 10
3697.979535513689
 20
3749.601689061733
 30
0.0
 11
4016.270261264121
 21
3732.920778958764
 31
0.0
1001
REVIT
1002
{
1070
     1
1000
170198
1002
}
1002
{
1070
     2
1000
-2000051
1002
}
1002
{
1070
     3
1000
-2000042
1002
}
  0
LINE
  5
187
330
70
100
AcDbEntity
  8
A-DETL-THIN
100
AcDbLine
 10
4009.91369833116
 20
3769.303316761879
 30
0.0
 11
3708.278530234145
 21
3785.111346075511
 31
0.0
1001
REVIT
1002
{
1070
     1
1000
170201
1002
}
1002
{
1070
     2
1000
-2000051
1002
}
1002
{
1070
     3
1000
-2000042
1002
}
  0
LINE
  5
188
330
70
100
AcDbEntity
  8
A-DETL
100
AcDbLine
 10
3882.568183980242
 20
3865.124039711942
 30
0.0
 11
3882.568183980242
 21
3780.124039711942
 31
0.0
1001
REVIT
1002
{
1070
     1
1000
170686
1002
}
1002
{
1070
     2
1000
-2000051
1002
}
1002
{
1070
     3
1000
15813
1002
}
  0
LINE
  5
189
330
70
100
AcDbEntity
  8
A-DETL
100
AcDbLine
 10
3882.568183980242
 20
3780.124039711942
 30
0.0
 11
3931.770979744186
 21
3777.545430451437
 31
0.0
1001
REVIT
1002
{
1070
     1
1000
170799
1002
}
1002
{
1070
     2
1000
-2000051
1002
}
1002
{
1070
     3
1000
15813
1002
}
  0
LINE
  5
18A
330
70
100
AcDbEntity
  8
A-DETL
100
AcDbLine
 10
3882.193078056078
 20
3655.172219383957
 30
0.0
 11
3882.193078056078
 21
3735.797219383957
 31
0.0
1001
REVIT
1002
{
1070
     1
1000
170951
1002
}
1002
{
1070
     2
1000
-2000051
1002
}
1002
{
1070
     3
1000
15813
1002
}
  0
LINE
  5
18B
330
70
100
AcDbEntity
  8
A-DETL
100
AcDbLine
 10
3882.193078056078
 20
3735.797219383957
 30
0.0
 11
3932.124554793807
 21
3733.18042157181
 31
0.0
1001
REVIT
1002
{
1070
     1
1000
171007
1002
}
1002
{
1070
     2
1000
-2000051
1002
}
1002
{
1070
     3
1000
15813
1002
}
  0
LINE
  5
18C
330
70
100
AcDbEntity
  8
A-DETL-THIN
100
AcDbLine
 10
3935.069873778056
 20
3818.889060880686
 30
0.0
 11
3935.069873778056
 21
3818.73803270723
 31
0.0
1001
REVIT
1002
{
1070
     1
1000
174738
1002
}
1002
{
1070
     5
1000
17873
1002
}
1002
{
1070
     2
1000
-2000051
1002
}
1002
{
1070
     3
1000
-2000042
1002
}
  0
LINE
  5
18D
330
70
100
AcDbEntity
  8
A-DETL-THIN
100
AcDbLine
 10
3935.069873778056
 20
3807.926607110397
 30
0.0
 11
3935.069873778056
 21
3780.218074339805
 31
0.0
1001
REVIT
1002
{
1070
     1
1000
174738
1002
}
1002
{
1070
     5
1000
17873
1002
}
1002
{
1070
     2
1000
-2000051
1002
}
1002
{
1070
     3
1000
-2000042
1002
}
  0
LINE
  5
18E
330
70
100
AcDbEntity
  8
A-DETL-THIN
100
AcDbLine
 10
3935.069873778056
 20
3780.218074339805
 30
0.0
 11
3943.279643317561
 21
3779.787818549814
 31
0.0
1001
REVIT
1002
{
1070
     1
1000
174738
1002
}
1002
{
1070
     5
1000
17873
1002
}
1002
{
1070
     2
1000
-2000051
1002
}
1002
{
1070
     3
1000
-2000042
1002
}
  0
LINE
  5
18F
330
70
100
AcDbEntity
  8
A-DETL-THIN
100
AcDbLine
 10
3953.45310139124
 20
3779.254650204543
 30
0.0
 11
3955.042464473147
 21
3779.171355214946
 31
0.0
1001
REVIT
1002
{
1070
     1
1000
174738
1002
}
1002
{
1070
     5
1000
17873
1002
}
1002
{
1070
     2
1000
-2000051
1002
}
1002
{
1070
     3
1000
-2000042
1002
}
  0
LINE
  5
190
330
70
100
AcDbEntity
  8
A-DETL-THIN
100
AcDbLine
 10
3955.042464473147
 20
3779.171355214946
 30
0.0
 11
3955.042464473147
 21
3784.171355214946
 31
0.0
1001
REVIT
1002
{
1070
     1
1000
174738
1002
}
1002
{
1070
     5
1000
17873
1002
}
1002
{
1070
     2
1000
-2000051
1002
}
1002
{
1070
     3
1000
-2000042
1002
}
  0
LINE
  5
191
330
70
100
AcDbEntity
  8
A-DETL-THIN
100
AcDbLine
 10
3955.042464473147
 20
3784.171355214946
 30
0.0
 11
3940.069873778055
 21
3784.95603544339
 31
0.0
1001
REVIT
1002
{
1070
     1
1000
174738
1002
}
1002
{
1070
     5
1000
17873
1002
}
1002
{
1070
     2
1000
-2000051
1002
}
1002
{
1070
     3
1000
-2000042
1002
}
  0
LINE
  5
192
330
70
100
AcDbEntity
  8
A-DETL-THIN
100
AcDbLine
 10
3940.069873778055
 20
3784.95603544339
 30
0.0
 11
3940.069873778055
 21
3798.847974672314
 31
0.0
1001
REVIT
1002
{
1070
     1
1000
174738
1002
}
1002
{
1070
     5
1000
17873
1002
}
1002
{
1070
     2
1000
-2000051
1002
}
1002
{
1070
     3
1000
-2000042
1002
}
  0
LINE
  5
193
330
70
100
AcDbEntity
  8
A-DETL-THIN
100
AcDbLine
 10
3940.069873778055
 20
3798.847974672313
 30
0.0
 11
3937.775317166565
 21
3817.314657758674
 31
0.0
1001
REVIT
1002
{
1070
     1
1000
174738
1002
}
1002
{
1070
     5
1000
17873
1002
}
1002
{
1070
     2
1000
-2000051
1002
}
1002
{
1070
     3
1000
-2000042
1002
}
  0
ARC
  5
194
330
70
100
AcDbEntity
  8
A-DETL-THIN
100
AcDbCircle
 10
3935.652715787296
 20
3816.778903416806
 30
0.0
 40
2.189170922998425
100
AcDbArc
 50
14.16583877554721
 51
105.4405692389638
1001
REVIT
1002
{
1070
     1
1000
174738
1002
}
1002
{
1070
     5
1000
17873
1002
}
1002
{
1070
     2
1000
-2000051
1002
}
1002
{
1070
     3
1000
-2000042
1002
}
  0
ARC
  5
195
330
70
100
AcDbEntity
  8
A-DETL-THIN
100
AcDbCircle
 10
3935.652715787296
 20
3693.680593412858
 30
0.0
 40
2.189170922998098
100
AcDbArc
 50
254.5594307610353
 51
345.8341612244674
1001
REVIT
1002
{
1070
     1
1000
174749
1002
}
1002
{
1070
     5
1000
17873
1002
}
1002
{
1070
     2
1000
-2000051
1002
}
1002
{
1070
     3
1000
-2000042
1002
}
  0
LINE
  5
196
330
70
100
AcDbEntity
  8
A-DETL-THIN
100
AcDbLine
 10
3937.775317166565
 20
3693.144839070991
 30
0.0
 11
3940.069873778055
 21
3711.611522157351
 31
0.0
1001
REVIT
1002
{
1070
     1
1000
174749
1002
}
1002
{
1070
     5
1000
17873
1002
}
1002
{
1070
     2
1000
-2000051
1002
}
1002
{
1070
     3
1000
-2000042
1002
}
  0
LINE
  5
197
330
70
100
AcDbEntity
  8
A-DETL-THIN
100
AcDbLine
 10
3940.069873778055
 20
3711.611522157351
 30
0.0
 11
3940.069873778055
 21
3725.503461386274
 31
0.0
1001
REVIT
1002
{
1070
     1
1000
174749
1002
}
1002
{
1070
     5
1000
17873
1002
}
1002
{
1070
     2
1000
-2000051
1002
}
1002
{
1070
     3
1000
-2000042
1002
}
  0
LINE
  5
198
330
70
100
AcDbEntity
  8
A-DETL-THIN
100
AcDbLine
 10
3940.069873778055
 20
3725.503461386274
 30
0.0
 11
3955.042464473147
 21
3724.71878115783
 31
0.0
1001
REVIT
1002
{
1070
     1
1000
174749
1002
}
1002
{
1070
     5
1000
17873
1002
}
1002
{
1070
     2
1000
-2000051
1002
}
1002
{
1070
     3
1000
-2000042
1002
}
  0
LINE
  5
199
330
70
100
AcDbEntity
  8
A-DETL-THIN
100
AcDbLine
 10
3955.042464473147
 20
3724.71878115783
 30
0.0
 11
3955.042464473147
 21
3729.194703365
 31
0.0
1001
REVIT
1002
{
1070
     1
1000
174749
1002
}
1002
{
1070
     5
1000
17873
1002
}
1002
{
1070
     2
1000
-2000051
1002
}
1002
{
1070
     3
1000
-2000042
1002
}
  0
LINE
  5
19A
330
70
100
AcDbEntity
  8
A-DETL-THIN
100
AcDbLine
 10
3955.042464473147
 20
3729.194703365
 30
0.0
 11
3953.195326687214
 21
3729.291507754391
 31
0.0
1001
REVIT
1002
{
1070
     1
1000
174749
1002
}
1002
{
1070
     5
1000
17873
1002
}
1002
{
1070
     2
1000
-2000051
1002
}
1002
{
1070
     3
1000
-2000042
1002
}
  0
LINE
  5
19B
330
70
100
AcDbEntity
  8
A-DETL-THIN
100
AcDbLine
 10
3942.401004820538
 20
3729.85721419229
 30
0.0
 11
3935.069873778056
 21
3730.241422489859
 31
0.0
1001
REVIT
1002
{
1070
     1
1000
174749
1002
}
1002
{
1070
     5
1000
17873
1002
}
1002
{
1070
     2
1000
-2000051
1002
}
1002
{
1070
     3
1000
-2000042
1002
}
  0
LINE
  5
19C
330
70
100
AcDbEntity
  8
A-DETL-THIN
100
AcDbLine
 10
3935.069873778056
 20
3730.241422489859
 30
0.0
 11
3935.069873778056
 21
3702.462268255354
 31
0.0
1001
REVIT
1002
{
1070
     1
1000
174749
1002
}
1002
{
1070
     5
1000
17873
1002
}
1002
{
1070
     2
1000
-2000051
1002
}
1002
{
1070
     3
1000
-2000042
1002
}
  0
LINE
  5
19D
330
70
100
AcDbEntity
  8
A-DETL-THIN
100
AcDbLine
 10
3935.069873778056
 20
3691.65084265852
 30
0.0
 11
3935.069873778056
 21
3691.570435948978
 31
0.0
1001
REVIT
1002
{
1070
     1
1000
174749
1002
}
1002
{
1070
     5
1000
17873
1002
}
1002
{
1070
     2
1000
-2000051
1002
}
1002
{
1070
     3
1000
-2000042
1002
}
  0
INSERT
  5
1A6
330
70
100
AcDbEntity
  8
A-DETL-GENF
100
AcDbBlockReference
  2
4811_Air Seal w Foam - Airseal on PEF Backing Rod-172310-W-TRSIL-17-H - Pipe Penetration Detail _Hor__
 10
3945.922778990439
 20
3776.600711423398
 30
0.0
 50
176.9999999999999
1001
REVIT
1002
{
1070
     1
1000
174744
1002
}
1002
{
1070
     5
1000
59784
1002
}
1002
{
1070
     2
1000
-2002000
1002
}
  0
INSERT
  5
1AF
330
70
100
AcDbEntity
  8
A-DETL-GENF
100
AcDbBlockReference
  2
4811_Air Seal w Foam - Airseal on PEF Backing Rod-172733-W-TRSIL-17-H - Pipe Penetration Detail _Hor__
 10
3945.980664672038
 20
3732.689463181302
 30
0.0
 50
176.9999999999985
1001
REVIT
1002
{
1070
     1
1000
174755
1002
}
1002
{
1070
     5
1000
59784
1002
}
1002
{
1070
     2
1000
-2002000
1002
}
  0
INSERT
  5
1B8
330
70
100
AcDbEntity
  8
A-DETL-GENF
100
AcDbBlockReference
  2
4811_Air Seal w Foam - Airseal on PEF Backing Rod-V3-W-TRSIL-17-H - Pipe Penetration Detail _Hor__
 10
3933.16020175925
 20
3811.355422889067
 30
0.0
 50
269.9999999999985
1001
REVIT
1002
{
1070
     1
1000
174779
1002
}
1002
{
1070
     5
1000
59784
1002
}
1002
{
1070
     2
1000
-2002000
1002
}
  0
INSERT
  5
1C1
330
70
100
AcDbEntity
  8
A-DETL-GENF
100
AcDbBlockReference
  2
4811_Air Seal w Foam - Airseal on PEF Backing Rod-V4-W-TRSIL-17-H - Pipe Penetration Detail _Hor__
 10
3933.16020175925
 20
3699.033452476685
 30
0.0
 50
90.00000000000147
1001
REVIT
1002
{
1070
     1
1000
174780
1002
}
1002
{
1070
     5
1000
59784
1002
}
1002
{
1070
     2
1000
-2002000
1002
}
  0
LINE
  5
1C3
330
70
100
AcDbEntity
  8
G-ANNO-TEXT
100
AcDbLine
 10
3630.043539851028
 20
3623.53735039679
 30
0.0
 11
3602.328284888018
 21
3623.53735039679
 31
0.0
1001
REVIT
1002
{
1070
     1
1000
168210
1002
}
1002
{
1070
     5
1000
16489
1002
}
1002
{
1070
     2
1000
-2000300
1002
}
  0
LINE
  5
1C4
330
70
100
AcDbEntity
  8
G-ANNO-TEXT
100
AcDbLine
 10
3779.334155377863
 20
3623.537350396792
 30
0.0
 11
3764.334155377864
 21
3625.512137860603
 31
0.0
1001
REVIT
1002
{
1070
     1
1000
168210
1002
}
1002
{
1070
     5
1000
16489
1002
}
1002
{
1070
     2
1000
-2000300
1002
}
  0
LINE
  5
1C5
330
70
100
AcDbEntity
  8
G-ANNO-TEXT
100
AcDbLine
 10
3764.334155377864
 20
3625.512137860603
 30
0.0
 11
3764.334155377864
 21
3621.562562932981
 31
0.0
1001
REVIT
1002
{
1070
     1
1000
168210
1002
}
1002
{
1070
     5
1000
16489
1002
}
1002
{
1070
     2
1000
-2000300
1002
}
  0
LINE
  5
1C6
330
70
100
AcDbEntity
  8
G-ANNO-TEXT
100
AcDbLine
 10
3764.334155377864
 20
3621.562562932981
 30
0.0
 11
3779.334155377863
 21
3623.537350396792
 31
0.0
1001
REVIT
1002
{
1070
     1
1000
168210
1002
}
1002
{
1070
     5
1000
16489
1002
}
1002
{
1070
     2
1000
-2000300
1002
}
  0
HATCH
  5
1C7
330
70
100
AcDbEntity
  8
G-ANNO-TEXT
100
AcDbHatch
 10
0.0
 20
0.0
 30
0.0
210
0.0
220
0.0
230
1.0
  2
SOLID
 70
     1
 71
     0
 91
        1
 92
        0
 93
        3
 72
     1
 10
3779.334155377863
 20
3623.537350396792
 11
3764.334155377864
 21
3625.512137860603
 72
     1
 10
3764.334155377864
 20
3625.512137860603
 11
3764.334155377864
 21
3621.562562932981
 72
     1
 10
3764.334155377864
 20
3621.562562932981
 11
3779.334155377863
 21
3623.537350396792
 97
        0
 75
     0
 76
     1
 98
        1
 10
0.0
 20
0.0
450
        0
451
        0
460
0.0
461
0.0
452
        0
462
0.0
453
        0
470

1001
REVIT
1002
{
1070
     1
1000
168210
1002
}
1002
{
1070
     5
1000
16489
1002
}
1002
{
1070
     2
1000
-2000300
1002
}
  0
LINE
  5
1C8
330
70
100
AcDbEntity
  8
G-ANNO-TEXT
100
AcDbLine
 10
3779.334155377863
 20
3623.537350396792
 30
0.0
 11
3630.043539851028
 21
3623.53735039679
 31
0.0
1001
REVIT
1002
{
1070
     1
1000
168210
1002
}
1002
{
1070
     5
1000
16489
1002
}
1002
{
1070
     2
1000
-2000300
1002
}
  0
MTEXT
  5
1CA
330
70
100
AcDbEntity
  8
G-ANNO-TEXT
100
AcDbMText
 10
3495.232191138018
 20
3629.787350396789
 30
0.0
 40
12.5
 41
123.740465625
 46
0.0
 71
     1
 72
     1
  1
Internal lining
  7
Century Gothic
 73
     2
 44
1.0
1001
REVIT
1002
{
1070
     1
1000
168210
1002
}
1002
{
1070
     5
1000
16489
1002
}
1002
{
1070
     2
1000
-2000300
1002
}
  0
LINE
  5
1CB
330
70
100
AcDbEntity
  8
G-ANNO-TEXT
100
AcDbLine
 10
3882.8919617691
 20
3841.728256708275
 30
0.0
 11
3894.317643081887
 21
3851.645594660862
 31
0.0
1001
REVIT
1002
{
1070
     1
1000
168212
1002
}
1002
{
1070
     5
1000
16489
1002
}
1002
{
1070
     2
1000
-2000300
1002
}
  0
LINE
  5
1CC
330
70
100
AcDbEntity
  8
G-ANNO-TEXT
100
AcDbLine
 10
3894.317643081887
 20
3851.645594660862
 30
0.0
 11
3891.361526493223
 21
3854.264853491738
 31
0.0
1001
REVIT
1002
{
1070
     1
1000
168212
1002
}
1002
{
1070
     5
1000
16489
1002
}
1002
{
1070
     2
1000
-2000300
1002
}
  0
LINE
  5
1CD
330
70
100
AcDbEntity
  8
G-ANNO-TEXT
100
AcDbLine
 10
3891.361526493223
 20
3854.264853491738
 30
0.0
 11
3882.8919617691
 21
3841.728256708275
 31
0.0
1001
REVIT
1002
{
1070
     1
1000
168212
1002
}
1002
{
1070
     5
1000
16489
1002
}
1002
{
1070
     2
1000
-2000300
1002
}
  0
HATCH
  5
1CE
330
70
100
AcDbEntity
  8
G-ANNO-TEXT
100
AcDbHatch
 10
0.0
 20
0.0
 30
0.0
210
0.0
220
0.0
230
1.0
  2
SOLID
 70
     1
 71
     0
 91
        1
 92
        0
 93
        3
 72
     1
 10
3882.8919617691
 20
3841.728256708275
 11
3894.317643081887
 21
3851.645594660862
 72
     1
 10
3894.317643081887
 20
3851.645594660862
 11
3891.361526493223
 21
3854.264853491738
 72
     1
 10
3891.361526493223
 20
3854.264853491738
 11
3882.8919617691
 21
3841.728256708275
 97
        0
 75
     0
 76
     1
 98
        1
 10
0.0
 20
0.0
450
        0
451
        0
460
0.0
461
0.0
452
        0
462
0.0
453
        0
470

1001
REVIT
1002
{
1070
     1
1000
168212
1002
}
1002
{
1070
     5
1000
16489
1002
}
1002
{
1070
     2
1000
-2000300
1002
}
  0
LINE
  5
1CF
330
70
100
AcDbEntity
  8
G-ANNO-TEXT
100
AcDbLine
 10
3977.182420171504
 20
3948.145226635265
 30
0.0
 11
4051.843929319885
 21
3948.145226635262
 31
0.0
1001
REVIT
1002
{
1070
     1
1000
168212
1002
}
1002
{
1070
     5
1000
16489
1002
}
1002
{
1070
     2
1000
-2000300
1002
}
  0
LINE
  5
1D0
330
70
100
AcDbEntity
  8
G-ANNO-TEXT
100
AcDbLine
 10
3882.8919617691
 20
3841.728256708275
 30
0.0
 11
3977.182420171504
 21
3948.145226635265
 31
0.0
1001
REVIT
1002
{
1070
     1
1000
168212
1002
}
1002
{
1070
     5
1000
16489
1002
}
1002
{
1070
     2
1000
-2000300
1002
}
  0
MTEXT
  5
1D1
330
70
100
AcDbEntity
  8
G-ANNO-TEXT
100
AcDbMText
 10
4056.843929319886
 20
3954.39522663526
 30
0.0
 40
12.5
 41
200.5822125
 46
0.0
 71
     1
 72
     1
  1
Flexible flashing tape 
  7
Century Gothic
 73
     2
 44
1.0
1001
REVIT
1002
{
1070
     1
1000
168212
1002
}
1002
{
1070
     5
1000
16489
1002
}
1002
{
1070
     2
1000
-2000300
1002
}
  0
MTEXT
  5
1D2
330
70
100
AcDbEntity
  8
G-ANNO-TEXT
100
AcDbMText
 10
4056.843929319886
 20
3933.55928913526
 30
0.0
 40
12.5
 41
185.791078125
 46
0.0
 71
     1
 72
     1
  1
bandage all roundfi
  7
Century Gothic
 73
     2
 44
1.0
1001
REVIT
1002
{
1070
     1
1000
168212
1002
}
1002
{
1070
     5
1000
16489
1002
}
1002
{
1070
     2
1000
-2000300
1002
}
  0
LINE
  5
1D3
330
70
100
AcDbEntity
  8
G-ANNO-TEXT
100
AcDbLine
 10
3716.155949910976
 20
3980.511644013212
 30
0.0
 11
3676.74234738802
 21
3980.511644013212
 31
0.0
1001
REVIT
1002
{
1070
     1
1000
168215
1002
}
1002
{
1070
     5
1000
16489
1002
}
1002
{
1070
     2
1000
-2000300
1002
}
  0
LINE
  5
1D4
330
70
100
AcDbEntity
  8
G-ANNO-TEXT
100
AcDbLine
 10
3896.880741161857
 20
3980.511644013218
 30
0.0
 11
3881.880741161857
 21
3982.486431477028
 31
0.0
1001
REVIT
1002
{
1070
     1
1000
168215
1002
}
1002
{
1070
     5
1000
16489
1002
}
1002
{
1070
     2
1000
-2000300
1002
}
  0
LINE
  5
1D5
330
70
100
AcDbEntity
  8
G-ANNO-TEXT
100
AcDbLine
 10
3881.880741161857
 20
3982.486431477028
 30
0.0
 11
3881.880741161857
 21
3978.536856549406
 31
0.0
1001
REVIT
1002
{
1070
     1
1000
168215
1002
}
1002
{
1070
     5
1000
16489
1002
}
1002
{
1070
     2
1000
-2000300
1002
}
  0
LINE
  5
1D6
330
70
100
AcDbEntity
  8
G-ANNO-TEXT
100
AcDbLine
 10
3881.880741161857
 20
3978.536856549406
 30
0.0
 11
3896.880741161857
 21
3980.511644013218
 31
0.0
1001
REVIT
1002
{
1070
     1
1000
168215
1002
}
1002
{
1070
     5
1000
16489
1002
}
1002
{
1070
     2
1000
-2000300
1002
}
  0
HATCH
  5
1D7
330
70
100
AcDbEntity
  8
G-ANNO-TEXT
100
AcDbHatch
 10
0.0
 20
0.0
 30
0.0
210
0.0
220
0.0
230
1.0
  2
SOLID
 70
     1
 71
     0
 91
        1
 92
        0
 93
        3
 72
     1
 10
3896.880741161857
 20
3980.511644013218
 11
3881.880741161857
 21
3982.486431477028
 72
     1
 10
3881.880741161857
 20
3982.486431477028
 11
3881.880741161857
 21
3978.536856549406
 72
     1
 10
3881.880741161857
 20
3978.536856549406
 11
3896.880741161857
 21
3980.511644013218
 97
        0
 75
     0
 76
     1
 98
        1
 10
0.0
 20
0.0
450
        0
451
        0
460
0.0
461
0.0
452
        0
462
0.0
453
        0
470

1001
REVIT
1002
{
1070
     1
1000
168215
1002
}
1002
{
1070
     5
1000
16489
1002
}
1002
{
1070
     2
1000
-2000300
1002
}
  0
LINE
  5
1D8
330
70
100
AcDbEntity
  8
G-ANNO-TEXT
100
AcDbLine
 10
3896.880741161857
 20
3980.511644013218
 30
0.0
 11
3716.155949910976
 21
3980.511644013212
 31
0.0
1001
REVIT
1002
{
1070
     1
1000
168215
1002
}
1002
{
1070
     5
1000
16489
1002
}
1002
{
1070
     2
1000
-2000300
1002
}
  0
MTEXT
  5
1D9
330
70
100
AcDbEntity
  8
G-ANNO-TEXT
100
AcDbMText
 10
3495.232191138018
 20
3986.761644013211
 30
0.0
 40
12.5
 41
213.930309375
 46
0.0
 71
     1
 72
     1
  1
Vertical support cavity 
  7
Century Gothic
 73
     2
 44
1.0
1001
REVIT
1002
{
1070
     1
1000
168215
1002
}
1002
{
1070
     5
1000
16489
1002
}
1002
{
1070
     2
1000
-2000300
1002
}
  0
MTEXT
  5
1DA
330
70
100
AcDbEntity
  8
G-ANNO-TEXT
100
AcDbMText
 10
3495.232191138018
 20
3965.925706513211
 30
0.0
 40
12.5
 41
246.7594125
 46
0.0
 71
     1
 72
     1
  1
battens @ 600mm crs max.
  7
Century Gothic
 73
     2
 44
1.0
1001
REVIT
1002
{
1070
     1
1000
168215
1002
}
1002
{
1070
     5
1000
16489
1002
}
1002
{
1070
     2
1000
-2000300
1002
}
  0
LINE
  5
1DB
330
70
100
AcDbEntity
  8
G-ANNO-TEXT
100
AcDbLine
 10
3643.58090819117
 20
3875.257345285348
 30
0.0
 11
3604.411878638018
 21
3875.257345285348
 31
0.0
1001
REVIT
1002
{
1070
     1
1000
168216
1002
}
1002
{
1070
     5
1000
16489
1002
}
1002
{
1070
     2
1000
-2000300
1002
}
  0
LINE
  5
1DC
330
70
100
AcDbEntity
  8
G-ANNO-TEXT
100
AcDbLine
 10
3879.705545862009
 20
3875.25734528535
 30
0.0
 11
3864.70554586201
 21
3877.232132749161
 31
0.0
1001
REVIT
1002
{
1070
     1
1000
168216
1002
}
1002
{
1070
     5
1000
16489
1002
}
1002
{
1070
     2
1000
-2000300
1002
}
  0
LINE
  5
1DD
330
70
100
AcDbEntity
  8
G-ANNO-TEXT
100
AcDbLine
 10
3864.70554586201
 20
3877.232132749161
 30
0.0
 11
3864.70554586201
 21
3873.282557821539
 31
0.0
1001
REVIT
1002
{
1070
     1
1000
168216
1002
}
1002
{
1070
     5
1000
16489
1002
}
1002
{
1070
     2
1000
-2000300
1002
}
  0
LINE
  5
1DE
330
70
100
AcDbEntity
  8
G-ANNO-TEXT
100
AcDbLine
 10
3864.70554586201
 20
3873.282557821539
 30
0.0
 11
3879.705545862009
 21
3875.25734528535
 31
0.0
1001
REVIT
1002
{
1070
     1
1000
168216
1002
}
1002
{
1070
     5
1000
16489
1002
}
1002
{
1070
     2
1000
-2000300
1002
}
  0
HATCH
  5
1DF
330
70
100
AcDbEntity
  8
G-ANNO-TEXT
100
AcDbHatch
 10
0.0
 20
0.0
 30
0.0
210
0.0
220
0.0
230
1.0
  2
SOLID
 70
     1
 71
     0
 91
        1
 92
        0
 93
        3
 72
     1
 10
3879.705545862009
 20
3875.25734528535
 11
3864.70554586201
 21
3877.232132749161
 72
     1
 10
3864.70554586201
 20
3877.232132749161
 11
3864.70554586201
 21
3873.282557821539
 72
     1
 10
3864.70554586201
 20
3873.282557821539
 11
3879.705545862009
 21
3875.25734528535
 97
        0
 75
     0
 76
     1
 98
        1
 10
0.0
 20
0.0
450
        0
451
        0
460
0.0
461
0.0
452
        0
462
0.0
453
        0
470

1001
REVIT
1002
{
1070
     1
1000
168216
1002
}
1002
{
1070
     5
1000
16489
1002
}
1002
{
1070
     2
1000
-2000300
1002
}
  0
LINE
  5
1E0
330
70
100
AcDbEntity
  8
G-ANNO-TEXT
100
AcDbLine
 10
3879.705545862009
 20
3875.25734528535
 30
0.0
 11
3643.58090819117
 21
3875.257345285348
 31
0.0
1001
REVIT
1002
{
1070
     1
1000
168216
1002
}
1002
{
1070
     5
1000
16489
1002
}
1002
{
1070
     2
1000
-2000300
1002
}
  0
MTEXT
  5
1E1
330
70
100
AcDbEntity
  8
G-ANNO-TEXT
100
AcDbMText
 10
3495.232191138018
 20
3881.507345285348
 30
0.0
 40
12.5
 41
126.26578125
 46
0.0
 71
     1
 72
     1
  1
Wall underlay
  7
Century Gothic
 73
     2
 44
1.0
1001
REVIT
1002
{
1070
     1
1000
168216
1002
}
1002
{
1070
     5
1000
16489
1002
}
1002
{
1070
     2
1000
-2000300
1002
}
  0
LINE
  5
1E2
330
70
100
AcDbEntity
  8
G-ANNO-TEXT
100
AcDbLine
 10
3930.130425396314
 20
3565.511644013213
 30
0.0
 11
3945.130425396314
 21
3563.536856549402
 31
0.0
1001
REVIT
1002
{
1070
     1
1000
168275
1002
}
1002
{
1070
     5
1000
16489
1002
}
1002
{
1070
     2
1000
-2000300
1002
}
  0
LINE
  5
1E3
330
70
100
AcDbEntity
  8
G-ANNO-TEXT
100
AcDbLine
 10
3945.130425396314
 20
3563.536856549402
 30
0.0
 11
3945.130425396314
 21
3567.486431477024
 31
0.0
1001
REVIT
1002
{
1070
     1
1000
168275
1002
}
1002
{
1070
     5
1000
16489
1002
}
1002
{
1070
     2
1000
-2000300
1002
}
  0
LINE
  5
1E4
330
70
100
AcDbEntity
  8
G-ANNO-TEXT
100
AcDbLine
 10
3945.130425396314
 20
3567.486431477024
 30
0.0
 11
3930.130425396314
 21
3565.511644013213
 31
0.0
1001
REVIT
1002
{
1070
     1
1000
168275
1002
}
1002
{
1070
     5
1000
16489
1002
}
1002
{
1070
     2
1000
-2000300
1002
}
  0
HATCH
  5
1E5
330
70
100
AcDbEntity
  8
G-ANNO-TEXT
100
AcDbHatch
 10
0.0
 20
0.0
 30
0.0
210
0.0
220
0.0
230
1.0
  2
SOLID
 70
     1
 71
     0
 91
        1
 92
        0
 93
        3
 72
     1
 10
3930.130425396314
 20
3565.511644013213
 11
3945.130425396314
 21
3563.536856549402
 72
     1
 10
3945.130425396314
 20
3563.536856549402
 11
3945.130425396314
 21
3567.486431477024
 72
     1
 10
3945.130425396314
 20
3567.486431477024
 11
3930.130425396314
 21
3565.511644013213
 97
        0
 75
     0
 76
     1
 98
        1
 10
0.0
 20
0.0
450
        0
451
        0
460
0.0
461
0.0
452
        0
462
0.0
453
        0
470

1001
REVIT
1002
{
1070
     1
1000
168275
1002
}
1002
{
1070
     5
1000
16489
1002
}
1002
{
1070
     2
1000
-2000300
1002
}
  0
LINE
  5
1E6
330
70
100
AcDbEntity
  8
G-ANNO-TEXT
100
AcDbLine
 10
3930.130425396314
 20
3565.511644013213
 30
0.0
 11
4051.843929319885
 21
3565.511644013213
 31
0.0
1001
REVIT
1002
{
1070
     1
1000
168275
1002
}
1002
{
1070
     5
1000
16489
1002
}
1002
{
1070
     2
1000
-2000300
1002
}
  0
MTEXT
  5
1E7
330
70
100
AcDbEntity
  8
G-ANNO-TEXT
100
AcDbMText
 10
4056.843929319885
 20
3571.761644013211
 30
0.0
 40
12.5
 41
245.316375
 46
0.0
 71
     1
 72
     1
  1
TRS Interlocking Horizontal 
  7
Century Gothic
 73
     2
 44
1.0
1001
REVIT
1002
{
1070
     1
1000
168275
1002
}
1002
{
1070
     5
1000
16489
1002
}
1002
{
1070
     2
1000
-2000300
1002
}
  0
MTEXT
  5
1E8
330
70
100
AcDbEntity
  8
G-ANNO-TEXT
100
AcDbMText
 10
4056.843929319885
 20
3550.92570651321
 30
0.0
 40
12.5
 41
87.30376874999999
 46
0.0
 71
     1
 72
     1
  1
Cladding
  7
Century Gothic
 73
     2
 44
1.0
1001
REVIT
1002
{
1070
     1
1000
168275
1002
}
1002
{
1070
     5
1000
16489
1002
}
1002
{
1070
     2
1000
-2000300
1002
}
  0
LINE
  5
1E9
330
70
100
AcDbEntity
  8
G-ANNO-TEXT
100
AcDbLine
 10
3716.155949910974
 20
3543.011644013212
 30
0.0
 11
3676.742347388018
 21
3543.011644013213
 31
0.0
1001
REVIT
1002
{
1070
     1
1000
168276
1002
}
1002
{
1070
     5
1000
16489
1002
}
1002
{
1070
     2
1000
-2000300
1002
}
  0
LINE
  5
1EA
330
70
100
AcDbEntity
  8
G-ANNO-TEXT
100
AcDbLine
 10
3896.880741161857
 20
3543.011644013218
 30
0.0
 11
3881.880741161857
 21
3544.986431477028
 31
0.0
1001
REVIT
1002
{
1070
     1
1000
168276
1002
}
1002
{
1070
     5
1000
16489
1002
}
1002
{
1070
     2
1000
-2000300
1002
}
  0
LINE
  5
1EB
330
70
100
AcDbEntity
  8
G-ANNO-TEXT
100
AcDbLine
 10
3881.880741161857
 20
3544.986431477028
 30
0.0
 11
3881.880741161857
 21
3541.036856549407
 31
0.0
1001
REVIT
1002
{
1070
     1
1000
168276
1002
}
1002
{
1070
     5
1000
16489
1002
}
1002
{
1070
     2
1000
-2000300
1002
}
  0
LINE
  5
1EC
330
70
100
AcDbEntity
  8
G-ANNO-TEXT
100
AcDbLine
 10
3881.880741161857
 20
3541.036856549407
 30
0.0
 11
3896.880741161857
 21
3543.011644013218
 31
0.0
1001
REVIT
1002
{
1070
     1
1000
168276
1002
}
1002
{
1070
     5
1000
16489
1002
}
1002
{
1070
     2
1000
-2000300
1002
}
  0
HATCH
  5
1ED
330
70
100
AcDbEntity
  8
G-ANNO-TEXT
100
AcDbHatch
 10
0.0
 20
0.0
 30
0.0
210
0.0
220
0.0
230
1.0
  2
SOLID
 70
     1
 71
     0
 91
        1
 92
        0
 93
        3
 72
     1
 10
3896.880741161857
 20
3543.011644013218
 11
3881.880741161857
 21
3544.986431477028
 72
     1
 10
3881.880741161857
 20
3544.986431477028
 11
3881.880741161857
 21
3541.036856549407
 72
     1
 10
3881.880741161857
 20
3541.036856549407
 11
3896.880741161857
 21
3543.011644013218
 97
        0
 75
     0
 76
     1
 98
        1
 10
0.0
 20
0.0
450
        0
451
        0
460
0.0
461
0.0
452
        0
462
0.0
453
        0
470

1001
REVIT
1002
{
1070
     1
1000
168276
1002
}
1002
{
1070
     5
1000
16489
1002
}
1002
{
1070
     2
1000
-2000300
1002
}
  0
LINE
  5
1EE
330
70
100
AcDbEntity
  8
G-ANNO-TEXT
100
AcDbLine
 10
3896.880741161857
 20
3543.011644013218
 30
0.0
 11
3716.155949910974
 21
3543.011644013212
 31
0.0
1001
REVIT
1002
{
1070
     1
1000
168276
1002
}
1002
{
1070
     5
1000
16489
1002
}
1002
{
1070
     2
1000
-2000300
1002
}
  0
MTEXT
  5
1EF
330
70
100
AcDbEntity
  8
G-ANNO-TEXT
100
AcDbMText
 10
3495.232191138017
 20
3549.261644013211
 30
0.0
 40
12.5
 41
213.930309375
 46
0.0
 71
     1
 72
     1
  1
Vertical support cavity 
  7
Century Gothic
 73
     2
 44
1.0
1001
REVIT
1002
{
1070
     1
1000
168276
1002
}
1002
{
1070
     5
1000
16489
1002
}
1002
{
1070
     2
1000
-2000300
1002
}
  0
MTEXT
  5
1F0
330
70
100
AcDbEntity
  8
G-ANNO-TEXT
100
AcDbMText
 10
3495.232191138017
 20
3528.425706513211
 30
0.0
 40
12.5
 41
246.7594125
 46
0.0
 71
     1
 72
     1
  1
battens @ 600mm crs max.
  7
Century Gothic
 73
     2
 44
1.0
1001
REVIT
1002
{
1070
     1
1000
168276
1002
}
1002
{
1070
     5
1000
16489
1002
}
1002
{
1070
     2
1000
-2000300
1002
}
  0
LINE
  5
1F1
330
70
100
AcDbEntity
  8
G-ANNO-TEXT
100
AcDbLine
 10
3608.007191138019
 20
3812.655957375069
 30
0.0
 11
3607.68609738802
 21
3812.655957375069
 31
0.0
1001
REVIT
1002
{
1070
     1
1000
168277
1002
}
1002
{
1070
     5
1000
16489
1002
}
1002
{
1070
     2
1000
-2000300
1002
}
  0
LINE
  5
1F2
330
70
100
AcDbEntity
  8
G-ANNO-TEXT
100
AcDbLine
 10
3838.927642282648
 20
3812.655957375069
 30
0.0
 11
3823.927642282649
 21
3814.63074483888
 31
0.0
1001
REVIT
1002
{
1070
     1
1000
168277
1002
}
1002
{
1070
     5
1000
16489
1002
}
1002
{
1070
     2
1000
-2000300
1002
}
  0
LINE
  5
1F3
330
70
100
AcDbEntity
  8
G-ANNO-TEXT
100
AcDbLine
 10
3823.927642282649
 20
3814.63074483888
 30
0.0
 11
3823.927642282649
 21
3810.681169911258
 31
0.0
1001
REVIT
1002
{
1070
     1
1000
168277
1002
}
1002
{
1070
     5
1000
16489
1002
}
1002
{
1070
     2
1000
-2000300
1002
}
  0
LINE
  5
1F4
330
70
100
AcDbEntity
  8
G-ANNO-TEXT
100
AcDbLine
 10
3823.927642282649
 20
3810.681169911258
 30
0.0
 11
3838.927642282648
 21
3812.655957375069
 31
0.0
1001
REVIT
1002
{
1070
     1
1000
168277
1002
}
1002
{
1070
     5
1000
16489
1002
}
1002
{
1070
     2
1000
-2000300
1002
}
  0
HATCH
  5
1F5
330
70
100
AcDbEntity
  8
G-ANNO-TEXT
100
AcDbHatch
 10
0.0
 20
0.0
 30
0.0
210
0.0
220
0.0
230
1.0
  2
SOLID
 70
     1
 71
     0
 91
        1
 92
        0
 93
        3
 72
     1
 10
3838.927642282648
 20
3812.655957375069
 11
3823.927642282649
 21
3814.63074483888
 72
     1
 10
3823.927642282649
 20
3814.63074483888
 11
3823.927642282649
 21
3810.681169911258
 72
     1
 10
3823.927642282649
 20
3810.681169911258
 11
3838.927642282648
 21
3812.655957375069
 97
        0
 75
     0
 76
     1
 98
        1
 10
0.0
 20
0.0
450
        0
451
        0
460
0.0
461
0.0
452
        0
462
0.0
453
        0
470

1001
REVIT
1002
{
1070
     1
1000
168277
1002
}
1002
{
1070
     5
1000
16489
1002
}
1002
{
1070
     2
1000
-2000300
1002
}
  0
LINE
  5
1F6
330
70
100
AcDbEntity
  8
G-ANNO-TEXT
100
AcDbLine
 10
3838.927642282648
 20
3812.655957375069
 30
0.0
 11
3608.007191138019
 21
3812.655957375069
 31
0.0
1001
REVIT
1002
{
1070
     1
1000
168277
1002
}
1002
{
1070
     5
1000
16489
1002
}
1002
{
1070
     2
1000
-2000300
1002
}
  0
MTEXT
  5
1F7
330
70
100
AcDbEntity
  8
G-ANNO-TEXT
100
AcDbMText
 10
3495.232191138018
 20
3818.905957375068
 30
0.0
 40
12.5
 41
130.234134375
 46
0.0
 71
     1
 72
     1
  1
Nogs for fixing
  7
Century Gothic
 73
     2
 44
1.0
1001
REVIT
1002
{
1070
     1
1000
168277
1002
}
1002
{
1070
     5
1000
16489
1002
}
1002
{
1070
     2
1000
-2000300
1002
}
  0
LINE
  5
1F8
330
70
100
AcDbEntity
  8
G-ANNO-TEXT
100
AcDbLine
 10
3938.287110516263
 20
3795.537809511978
 30
0.0
 11
3949.28037090316
 21
3805.932424059573
 31
0.0
1001
REVIT
1002
{
1070
     1
1000
173290
1002
}
1002
{
1070
     5
1000
16489
1002
}
1002
{
1070
     2
1000
-2000300
1002
}
  0
LINE
  5
1F9
330
70
100
AcDbEntity
  8
G-ANNO-TEXT
100
AcDbLine
 10
3949.28037090316
 20
3805.932424059573
 30
0.0
 11
3946.215460427669
 21
3808.423501313722
 31
0.0
1001
REVIT
1002
{
1070
     1
1000
173290
1002
}
1002
{
1070
     5
1000
16489
1002
}
1002
{
1070
     2
1000
-2000300
1002
}
  0
LINE
  5
1FA
330
70
100
AcDbEntity
  8
G-ANNO-TEXT
100
AcDbLine
 10
3946.215460427669
 20
3808.423501313722
 30
0.0
 11
3938.287110516263
 21
3795.537809511978
 31
0.0
1001
REVIT
1002
{
1070
     1
1000
173290
1002
}
1002
{
1070
     5
1000
16489
1002
}
1002
{
1070
     2
1000
-2000300
1002
}
  0
HATCH
  5
1FB
330
70
100
AcDbEntity
  8
G-ANNO-TEXT
100
AcDbHatch
 10
0.0
 20
0.0
 30
0.0
210
0.0
220
0.0
230
1.0
  2
SOLID
 70
     1
 71
     0
 91
        1
 92
        0
 93
        3
 72
     1
 10
3938.287110516263
 20
3795.537809511978
 11
3949.28037090316
 21
3805.932424059573
 72
     1
 10
3949.28037090316
 20
3805.932424059573
 11
3946.215460427669
 21
3808.423501313722
 72
     1
 10
3946.215460427669
 20
3808.423501313722
 11
3938.287110516263
 21
3795.537809511978
 97
        0
 75
     0
 76
     1
 98
        1
 10
0.0
 20
0.0
450
        0
451
        0
460
0.0
461
0.0
452
        0
462
0.0
453
        0
470

1001
REVIT
1002
{
1070
     1
1000
173290
1002
}
1002
{
1070
     5
1000
16489
1002
}
1002
{
1070
     2
1000
-2000300
1002
}
  0
LINE
  5
1FC
330
70
100
AcDbEntity
  8
G-ANNO-TEXT
100
AcDbLine
 10
3981.940984665526
 20
3849.247591476014
 30
0.0
 11
4051.843929319885
 21
3849.247591476014
 31
0.0
1001
REVIT
1002
{
1070
     1
1000
173290
1002
}
1002
{
1070
     5
1000
16489
1002
}
1002
{
1070
     2
1000
-2000300
1002
}
  0
LINE
  5
1FD
330
70
100
AcDbEntity
  8
G-ANNO-TEXT
100
AcDbLine
 10
3938.287110516263
 20
3795.537809511978
 30
0.0
 11
3981.940984665526
 21
3849.247591476014
 31
0.0
1001
REVIT
1002
{
1070
     1
1000
173290
1002
}
1002
{
1070
     5
1000
16489
1002
}
1002
{
1070
     2
1000
-2000300
1002
}
  0
MTEXT
  5
1FE
330
70
100
AcDbEntity
  8
G-ANNO-TEXT
100
AcDbMText
 10
4056.843929319886
 20
3855.497591476013
 30
0.0
 40
12.5
 41
290.4112968749999
 46
0.0
 71
     1
 72
     1
  1
PVC flange adhered/sealed to 
  7
Century Gothic
 73
     2
 44
1.0
1001
REVIT
1002
{
1070
     1
1000
173290
1002
}
1002
{
1070
     5
1000
16489
1002
}
1002
{
1070
     2
1000
-2000300
1002
}
  0
MTEXT
  5
1FF
330
70
100
AcDbEntity
  8
G-ANNO-TEXT
100
AcDbMText
 10
4056.843929319886
 20
3834.661653976013
 30
0.0
 40
12.5
 41
232.3290375
 46
0.0
 71
     1
 72
     1
  1
TRS Interlocking cladding
  7
Century Gothic
 73
     2
 44
1.0
1001
REVIT
1002
{
1070
     1
1000
173290
1002
}
1002
{
1070
     5
1000
16489
1002
}
1002
{
1070
     2
1000
-2000300
1002
}
  0
LINE
  5
200
330
70
100
AcDbEntity
  8
G-ANNO-TEXT
100
AcDbLine
 10
3628.212191138019
 20
3720.587207452408
 30
0.0
 11
3627.926722388019
 21
3720.587207452408
 31
0.0
1001
REVIT
1002
{
1070
     1
1000
173296
1002
}
1002
{
1070
     5
1000
16489
1002
}
1002
{
1070
     2
1000
-2000300
1002
}
  0
LINE
  5
201
330
70
100
AcDbEntity
  8
G-ANNO-TEXT
100
AcDbLine
 10
3713.438524077957
 20
3751.869257893388
 30
0.0
 11
3702.019795573411
 21
3741.943915336744
 31
0.0
1001
REVIT
1002
{
1070
     1
1000
173296
1002
}
1002
{
1070
     5
1000
16489
1002
}
1002
{
1070
     2
1000
-2000300
1002
}
  0
LINE
  5
202
330
70
100
AcDbEntity
  8
G-ANNO-TEXT
100
AcDbLine
 10
3702.019795573411
 20
3741.943915336744
 30
0.0
 11
3704.977746994859
 21
3739.326728775328
 31
0.0
1001
REVIT
1002
{
1070
     1
1000
173296
1002
}
1002
{
1070
     5
1000
16489
1002
}
1002
{
1070
     2
1000
-2000300
1002
}
  0
LINE
  5
203
330
70
100
AcDbEntity
  8
G-ANNO-TEXT
100
AcDbLine
 10
3704.977746994859
 20
3739.326728775328
 30
0.0
 11
3713.438524077957
 21
3751.869257893388
 31
0.0
1001
REVIT
1002
{
1070
     1
1000
173296
1002
}
1002
{
1070
     5
1000
16489
1002
}
1002
{
1070
     2
1000
-2000300
1002
}
  0
HATCH
  5
204
330
70
100
AcDbEntity
  8
G-ANNO-TEXT
100
AcDbHatch
 10
0.0
 20
0.0
 30
0.0
210
0.0
220
0.0
230
1.0
  2
SOLID
 70
     1
 71
     0
 91
        1
 92
        0
 93
        3
 72
     1
 10
3713.438524077957
 20
3751.869257893388
 11
3702.019795573411
 21
3741.943915336744
 72
     1
 10
3702.019795573411
 20
3741.943915336744
 11
3704.977746994859
 21
3739.326728775328
 72
     1
 10
3704.977746994859
 20
3739.326728775328
 11
3713.438524077957
 21
3751.869257893388
 97
        0
 75
     0
 76
     1
 98
        1
 10
0.0
 20
0.0
450
        0
451
        0
460
0.0
461
0.0
452
        0
462
0.0
453
        0
470

1001
REVIT
1002
{
1070
     1
1000
173296
1002
}
1002
{
1070
     5
1000
16489
1002
}
1002
{
1070
     2
1000
-2000300
1002
}
  0
LINE
  5
205
330
70
100
AcDbEntity
  8
G-ANNO-TEXT
100
AcDbLine
 10
3685.760259508083
 20
3720.58720745241
 30
0.0
 11
3628.212191138019
 21
3720.587207452408
 31
0.0
1001
REVIT
1002
{
1070
     1
1000
173296
1002
}
1002
{
1070
     5
1000
16489
1002
}
1002
{
1070
     2
1000
-2000300
1002
}
  0
LINE
  5
206
330
70
100
AcDbEntity
  8
G-ANNO-TEXT
100
AcDbLine
 10
3713.438524077957
 20
3751.869257893388
 30
0.0
 11
3685.760259508083
 21
3720.58720745241
 31
0.0
1001
REVIT
1002
{
1070
     1
1000
173296
1002
}
1002
{
1070
     5
1000
16489
1002
}
1002
{
1070
     2
1000
-2000300
1002
}
  0
MTEXT
  5
207
330
70
100
AcDbEntity
  8
G-ANNO-TEXT
100
AcDbMText
 10
3495.232191138018
 20
3726.837207452408
 30
0.0
 40
12.5
 41
154.765771875
 46
0.0
 71
     1
 72
     1
  1
Pipe penetration
  7
Century Gothic
 73
     2
 44
1.0
1001
REVIT
1002
{
1070
     1
1000
173296
1002
}
1002
{
1070
     5
1000
16489
1002
}
1002
{
1070
     2
1000
-2000300
1002
}
  0
DIMENSION
  5
21D
330
70
100
AcDbEntity
  8
A-ANNO-DIMS
100
AcDbDimension
280
     0
  2
DIMBLOCK1-W-TRSIL-17-H - Pipe Penetration Detail _Hor__
 10
3727.97285639892
 20
3742.532233104151
 30
0.0
 11
3727.97285639892
 21
3703.080132561968
 31
0.0
 70
    32
  1
75 min.\Xall round
 71
     5
 42
78.9042010843591
 73
     0
 74
     0
 75
     0
  3
01_-_Diagonal
100
AcDbAlignedDimension
 13
3762.928444371425
 23
3663.628032019789
 33
0.0
 14
3742.972856398917
 24
3742.532233104149
 34
0.0
 50
89.99999999999991
100
AcDbRotatedDimension
1001
ACAD
1000
DSTYLE
1002
{
1070
    49
1040
81.38856455356307
1002
}
1001
REVIT
1002
{
1070
     1
1000
173557
1002
}
1002
{
1070
     5
1000
17724
1002
}
1002
{
1070
     2
1000
-2000260
1002
}
  0
LINE
  5
22D
330
70
100
AcDbEntity
  8
G-ANNO-TEXT
100
AcDbLine
 10
3933.765368873269
 20
3697.133503260989
 30
0.0
 11
3946.356370463747
 21
3688.745031142909
 31
0.0
1001
REVIT
1002
{
1070
     1
1000
174758
1002
}
1002
{
1070
     5
1000
16489
1002
}
1002
{
1070
     2
1000
-2000300
1002
}
  0
LINE
  5
22E
330
70
100
AcDbEntity
  8
G-ANNO-TEXT
100
AcDbLine
 10
3946.356370463747
 20
3688.745031142909
 30
0.0
 11
3948.098438831829
 21
3692.289652407563
 31
0.0
1001
REVIT
1002
{
1070
     1
1000
174758
1002
}
1002
{
1070
     5
1000
16489
1002
}
1002
{
1070
     2
1000
-2000300
1002
}
  0
LINE
  5
22F
330
70
100
AcDbEntity
  8
G-ANNO-TEXT
100
AcDbLine
 10
3948.098438831829
 20
3692.289652407563
 30
0.0
 11
3933.765368873269
 21
3697.133503260989
 31
0.0
1001
REVIT
1002
{
1070
     1
1000
174758
1002
}
1002
{
1070
     5
1000
16489
1002
}
1002
{
1070
     2
1000
-2000300
1002
}
  0
HATCH
  5
230
330
70
100
AcDbEntity
  8
G-ANNO-TEXT
100
AcDbHatch
 10
0.0
 20
0.0
 30
0.0
210
0.0
220
0.0
230
1.0
  2
SOLID
 70
     1
 71
     0
 91
        1
 92
        0
 93
        3
 72
     1
 10
3933.765368873269
 20
3697.133503260989
 11
3946.356370463747
 21
3688.745031142909
 72
     1
 10
3946.356370463747
 20
3688.745031142909
 11
3948.098438831829
 21
3692.289652407563
 72
     1
 10
3948.098438831829
 20
3692.289652407563
 11
3933.765368873269
 21
3697.133503260989
 97
        0
 75
     0
 76
     1
 98
        1
 10
0.0
 20
0.0
450
        0
451
        0
460
0.0
461
0.0
452
        0
462
0.0
453
        0
470

1001
REVIT
1002
{
1070
     1
1000
174758
1002
}
1002
{
1070
     5
1000
16489
1002
}
1002
{
1070
     2
1000
-2000300
1002
}
  0
LINE
  5
231
330
70
100
AcDbEntity
  8
G-ANNO-TEXT
100
AcDbLine
 10
3995.778564195621
 20
3666.655994407772
 30
0.0
 11
4051.760568408234
 21
3666.655994407773
 31
0.0
1001
REVIT
1002
{
1070
     1
1000
174758
1002
}
1002
{
1070
     5
1000
16489
1002
}
1002
{
1070
     2
1000
-2000300
1002
}
  0
LINE
  5
232
330
70
100
AcDbEntity
  8
G-ANNO-TEXT
100
AcDbLine
 10
3933.765368873269
 20
3697.133503260989
 30
0.0
 11
3995.778564195621
 21
3666.655994407772
 31
0.0
1001
REVIT
1002
{
1070
     1
1000
174758
1002
}
1002
{
1070
     5
1000
16489
1002
}
1002
{
1070
     2
1000
-2000300
1002
}
  0
LINE
  5
233
330
70
100
AcDbEntity
  8
G-ANNO-TEXT
100
AcDbLine
 10
3947.890228420184
 20
3730.372915958374
 30
0.0
 11
3955.323713376972
 21
3717.195545700071
 31
0.0
1001
REVIT
1002
{
1070
     1
1000
174758
1002
}
1002
{
1070
     5
1000
16489
1002
}
1002
{
1070
     2
1000
-2000300
1002
}
  0
LINE
  5
234
330
70
100
AcDbEntity
  8
G-ANNO-TEXT
100
AcDbLine
 10
3955.323713376972
 20
3717.195545700071
 30
0.0
 11
3958.480977906494
 21
3719.568481181606
 31
0.0
1001
REVIT
1002
{
1070
     1
1000
174758
1002
}
1002
{
1070
     5
1000
16489
1002
}
1002
{
1070
     2
1000
-2000300
1002
}
  0
LINE
  5
235
330
70
100
AcDbEntity
  8
G-ANNO-TEXT
100
AcDbLine
 10
3958.480977906494
 20
3719.568481181606
 30
0.0
 11
3947.890228420184
 21
3730.372915958374
 31
0.0
1001
REVIT
1002
{
1070
     1
1000
174758
1002
}
1002
{
1070
     5
1000
16489
1002
}
1002
{
1070
     2
1000
-2000300
1002
}
  0
HATCH
  5
236
330
70
100
AcDbEntity
  8
G-ANNO-TEXT
100
AcDbHatch
 10
0.0
 20
0.0
 30
0.0
210
0.0
220
0.0
230
1.0
  2
SOLID
 70
     1
 71
     0
 91
        1
 92
        0
 93
        3
 72
     1
 10
3947.890228420184
 20
3730.372915958374
 11
3955.323713376972
 21
3717.195545700071
 72
     1
 10
3955.323713376972
 20
3717.195545700071
 11
3958.480977906494
 21
3719.568481181606
 72
     1
 10
3958.480977906494
 20
3719.568481181606
 11
3947.890228420184
 21
3730.372915958374
 97
        0
 75
     0
 76
     1
 98
        1
 10
0.0
 20
0.0
450
        0
451
        0
460
0.0
461
0.0
452
        0
462
0.0
453
        0
470

1001
REVIT
1002
{
1070
     1
1000
174758
1002
}
1002
{
1070
     5
1000
16489
1002
}
1002
{
1070
     2
1000
-2000300
1002
}
  0
LINE
  5
237
330
70
100
AcDbEntity
  8
G-ANNO-TEXT
100
AcDbLine
 10
3995.778564195621
 20
3666.655994407772
 30
0.0
 11
4051.760568408234
 21
3666.655994407773
 31
0.0
1001
REVIT
1002
{
1070
     1
1000
174758
1002
}
1002
{
1070
     5
1000
16489
1002
}
1002
{
1070
     2
1000
-2000300
1002
}
  0
LINE
  5
238
330
70
100
AcDbEntity
  8
G-ANNO-TEXT
100
AcDbLine
 10
3947.890228420184
 20
3730.372915958374
 30
0.0
 11
3995.778564195621
 21
3666.655994407772
 31
0.0
1001
REVIT
1002
{
1070
     1
1000
174758
1002
}
1002
{
1070
     5
1000
16489
1002
}
1002
{
1070
     2
1000
-2000300
1002
}
  0
MTEXT
  5
239
330
70
100
AcDbEntity
  8
G-ANNO-TEXT
100
AcDbMText
 10
4056.760568408233
 20
3672.905994407771
 30
0.0
 40
12.5
 41
243.15181875
 46
0.0
 71
     1
 72
     1
  1
Sealant over backing rods
  7
Century Gothic
 73
     2
 44
1.0
1001
REVIT
1002
{
1070
     1
1000
174758
1002
}
1002
{
1070
     5
1000
16489
1002
}
1002
{
1070
     2
1000
-2000300
1002
}
  0
VIEWPORT
  5
23B
330
6C
100
AcDbEntity
 67
     1
  8
G-ANNO-NPLT
100
AcDbViewport
 10
148.0990619339515
 20
76.52371223879834
 30
0.0
 40
162.2425722050658
 41
268.328417853421
 68
    -1
 69
     2
 12
3895.838621650682
 22
3531.728171428401
 13
0.0
 23
0.0
 14
0.0
 24
0.0
 15
0.0
 25
0.0
 16
0.0
 26
0.0
 36
1.0
 17
0.0
 27
0.0
 37
0.0
 42
0.0
 43
0.0
 44
0.0
 45
1341.642089267105
 50
0.0
 51
0.0
 72
  1000
 90
    32768
  1

281
     0
 71
     1
 74
     1
110
0.0
120
0.0
130
0.0
111
1.0
121
0.0
131
0.0
112
0.0
122
1.0
132
0.0
 79
     0
146
0.0
170
     0
 61
     5
292
     1
282
     1
141
0.0
142
0.0
 63
   250
421
  3355443
  0
VIEWPORT
  5
23D
330
6C
100
AcDbEntity
 67
     1
  8
0
100
AcDbViewport
 10
6.0
 20
4.5
 30
0.0
 40
12.0
 41
9.0
 68
    -1
 69
     1
 12
6.0
 22
4.5
 13
0.0
 23
0.0
 14
0.0
 24
0.0
 15
0.0
 25
0.0
 16
0.0
 26
0.0
 36
1.0
 17
0.0
 27
0.0
 37
0.0
 42
50.0
 43
0.0
 44
0.0
 45
12.0
 50
0.0
 51
0.0
 72
   100
 90
    32800
  1

281
     0
 71
     1
 74
     1
110
0.0
120
0.0
130
0.0
111
1.0
121
0.0
131
0.0
112
0.0
122
1.0
132
0.0
 79
     0
146
0.0
170
     0
 61
     5
292
     1
282
     1
141
0.0
142
0.0
 63
   250
421
  3355443
  0
INSERT
  5
26E
330
6C
100
AcDbEntity
 67
     1
  8
G-ANNO-TTLB
100
AcDbBlockReference
  2
Titleblock A4 The roofing store - Titleblock A4 The roofing store-2694-Pipe Penetration Detail _Hor__
 10
0.0
 20
0.0
 30
0.0
1001
REVIT
1002
{
1070
     1
1000
174895
1002
}
1002
{
1070
     5
1000
2694
1002
}
1002
{
1070
     2
1000
-2000280
1002
}
  0
MTEXT
  5
270
330
6C
100
AcDbEntity
 67
     1
  8
G-ANNO-TTLB
100
AcDbMText
 10
258.5275146630469
 20
12.52446433240663
 30
0.0
 40
4.0
 41
36.6531525
 46
0.0
 71
     1
 72
     1
  1
W-TRSIL-17-H
  7
Century Gothic_2
 73
     2
 44
1.0
1001
REVIT
1002
{
1070
     1
1000
174895
1002
}
1002
{
1070
     5
1000
2694
1002
}
1002
{
1070
     2
1000
-2000280
1002
}
  0
MTEXT
  5
272
330
6C
100
AcDbEntity
 67
     1
  8
G-ANNO-TTLB
100
AcDbMText
 10
76.05126760874208
 20
10.95227683240663
 30
0.0
 40
3.5
 41
75.97592437499999
 46
0.0
 71
     1
 72
     1
  1
Pipe Penetration Detail (Hor.)
  7
Century Gothic_3
 73
     2
 44
1.0
1001
REVIT
1002
{
1070
     1
1000
174895
1002
}
1002
{
1070
     5
1000
2694
1002
}
1002
{
1070
     2
1000
-2000280
1002
}
  0
MTEXT
  5
273
330
6C
100
AcDbEntity
 67
     1
  8
G-ANNO-TTLB
100
AcDbMText
 10
271.6845146630469
 20
20.51531106318182
 30
0.0
 40
1.8
 41
22.2227775
 46
0.0
 71
     1
 72
     1
  1
Date: 10/11/2020
  7
Century Gothic_1
 73
     2
 44
1.0
1001
REVIT
1002
{
1070
     1
1000
174895
1002
}
1002
{
1070
     5
1000
2694
1002
}
1002
{
1070
     2
1000
-2000280
1002
}
  0
MTEXT
  5
275
330
6C
100
AcDbEntity
 67
     1
  8
G-ANNO-TTLB
100
AcDbMText
 10
75.81756651341409
 20
19.95645689651516
 30
0.0
 40
4.999999999999999
 41
63.814325
 46
0.0
 71
     1
 72
     1
  1
TRS Interlocking
  7
Century Gothic_4
 73
     2
 44
1.0
1001
REVIT
1002
{
1070
     1
1000
174895
1002
}
1002
{
1070
     5
1000
2694
1002
}
1002
{
1070
     2
1000
-2000280
1002
}
  0
ENDSEC
  0
SECTION
  2
OBJECTS
  0
DICTIONARY
  5
C
330
0
100
AcDbDictionary
281
     1
  3
ACAD_CIP_PREVIOUS_PRODUCT_INFO
350
79
  3
ACAD_COLOR
350
63
  3
ACAD_DETAILVIEWSTYLE
350
6A
  3
ACAD_GROUP
350
D
  3
ACAD_IMAGE_DICT
350
242
  3
ACAD_IMAGE_VARS
350
7A
  3
ACAD_LAYOUT
350
62
  3
ACAD_MATERIAL
350
10
  3
ACAD_MLEADERSTYLE
350
66
  3
ACAD_MLINESTYLE
350
5F
  3
ACAD_PLOTSETTINGS
350
61
  3
ACAD_PLOTSTYLENAME
350
E
  3
ACAD_SCALELIST
350
42
  3
ACAD_SECTIONVIEWSTYLE
350
68
  3
ACAD_TABLESTYLE
350
64
  3
ACAD_VISUALSTYLE
350
29
  3
ACDB_RECOMPOSE_DATA
350
27F
  3
AcDbVariableDictionary
350
7B
  3
REVIT_DICTIONARY
350
276
  0
DICTIONARY
  5
27B
330
70
100
AcDbDictionary
280
     1
281
     1
  3
ACAD_SORTENTS
360
27C
  0
IMAGEDEF_REACTOR
  5
245
330
244
100
AcDbRasterImageDefReactor
 90
        2
330
244
  0
XRECORD
  5
79
102
{ACAD_REACTORS
330
C
102
}
330
C
100
AcDbXrecord
280
     1
300
RVT
300
2019
300
RVT2019
  0
DICTIONARY
  5
63
102
{ACAD_REACTORS
330
C
102
}
330
C
100
AcDbDictionary
281
     1
  0
DICTIONARY
  5
6A
102
{ACAD_REACTORS
330
C
102
}
330
C
100
AcDbDictionary
281
     1
  3
Imperial24
350
6B
  0
DICTIONARY
  5
D
102
{ACAD_REACTORS
330
C
102
}
330
C
100
AcDbDictionary
281
     1
  0
DICTIONARY
  5
242
102
{ACAD_REACTORS
330
C
102
}
330
C
100
AcDbDictionary
281
     1
  3
TRSInterlockingCladdingDetails-TheRoofingStore_w-107754
350
243
  0
RASTERVARIABLES
  5
7A
102
{ACAD_REACTORS
330
C
102
}
330
C
100
AcDbRasterVariables
 90
        0
 70
     0
 71
     1
 72
     1
  0
DICTIONARY
  5
62
102
{ACAD_REACTORS
330
C
102
}
330
C
100
AcDbDictionary
281
     1
  3
Layout1
350
6F
  3
Layout2
350
77
  3
Model
350
73
  0
DICTIONARY
  5
10
102
{ACAD_REACTORS
330
C
102
}
330
C
100
AcDbDictionary
281
     1
  3
ByBlock
350
19
  3
ByLayer
350
11
  3
Global
350
21
  0
DICTIONARY
  5
66
102
{ACAD_REACTORS
330
C
102
}
330
C
100
AcDbDictionary
281
     1
  3
Standard
350
67
  0
DICTIONARY
  5
5F
102
{ACAD_REACTORS
330
C
102
}
330
C
100
AcDbDictionary
281
     1
  3
Standard
350
60
  0
DICTIONARY
  5
61
102
{ACAD_REACTORS
330
C
102
}
330
C
100
AcDbDictionary
281
     1
  0
ACDBDICTIONARYWDFLT
  5
E
102
{ACAD_REACTORS
330
C
102
}
330
C
100
AcDbDictionary
281
     1
  3
Normal
350
F
100
AcDbDictionaryWithDefault
340
F
  0
DICTIONARY
  5
42
102
{ACAD_REACTORS
330
C
102
}
330
C
100
AcDbDictionary
281
     1
  3
A0
350
43
  3
A1
350
44
  3
A2
350
45
  3
A3
350
46
  3
A4
350
47
  3
A5
350
48
  3
A6
350
49
  3
A7
350
4A
  3
A8
350
4B
  3
A9
350
4C
  3
B0
350
4D
  3
B1
350
4E
  3
B2
350
4F
  3
B3
350
50
  3
B4
350
51
  3
B5
350
52
  3
B6
350
53
  0
DICTIONARY
  5
68
102
{ACAD_REACTORS
330
C
102
}
330
C
100
AcDbDictionary
281
     1
  3
Imperial24
350
69
  0
DICTIONARY
  5
64
102
{ACAD_REACTORS
330
C
102
}
330
C
100
AcDbDictionary
281
     1
  3
Standard
350
65
  0
DICTIONARY
  5
29
102
{ACAD_REACTORS
330
C
102
}
330
C
100
AcDbDictionary
281
     1
  3
2dWireframe
350
2F
  3
Basic
350
2E
  3
Brighten
350
35
  3
ColorChange
350
39
  3
Conceptual
350
32
  3
Dim
350
34
  3
EdgeColorOff
350
41
  3
Facepattern
350
38
  3
Flat
350
2A
  3
FlatWithEdges
350
2B
  3
Gouraud
350
2C
  3
GouraudWithEdges
350
2D
  3
Hidden
350
31
  3
JitterOff
350
3F
  3
Linepattern
350
37
  3
OverhangOff
350
40
  3
Realistic
350
33
  3
Shaded
350
3E
  3
Shaded with edges
350
3D
  3
Shades of Gray
350
3A
  3
Sketchy
350
3B
  3
Thicken
350
36
  3
Wireframe
350
30
  3
X-Ray
350
3C
  0
XRECORD
  5
27F
102
{ACAD_REACTORS
330
C
102
}
330
C
100
AcDbXrecord
280
     1
 90
        1
330
65
  0
DICTIONARY
  5
7B
102
{ACAD_REACTORS
330
C
102
}
330
C
100
AcDbDictionary
281
     1
  3
CANNOSCALE
350
80
  3
CMLEADERSTYLE
350
7D
  3
CTABLESTYLE
350
7C
  3
CVIEWDETAILSTYLE
350
7E
  3
CVIEWSECTIONSTYLE
350
7F
  0
DICTIONARY
  5
276
102
{ACAD_REACTORS
330
C
102
}
330
C
100
AcDbDictionary
281
     1
  3
DRAWING_TOOL
350
27A
  3
REVIT_CATEGORY_MAPPING
350
278
  3
REVIT_SUB_CATEGORY_MAPPING
350
279
  3
REVIT_TYPE_MAPPING
350
277
  0
SORTENTSTABLE
  5
27C
102
{ACAD_REACTORS
330
27B
102
}
330
27B
100
AcDbSortentsTable
330
70
  0
ACDBDETAILVIEWSTYLE
  5
6B
102
{ACAD_XDICTIONARY
360
2B4
102
}
102
{ACAD_REACTORS
330
6A
102
}
330
6A
100
AcDbModelDocViewStyle
 70
     0
  3
Imperial24
290
     0
100
AcDbDetailViewStyle
 70
     0
 71
     0
 90
        3
 71
     1
340
55
 62
   256
 40
0.24
340
0
 62
   256
 40
0.24
300

 40
0.36
280
     3
 71
     2
340
5D
 90
       25
 62
   256
 71
     3
340
55
 62
   256
 40
0.24
 90
        1
 40
0.75
 90
        1
300
%<\AcVar ViewType \f "%tc1">% %<\AcVar ViewDetailId>%\PSCALE %<\AcVar ViewScale \f "%sn">%
 71
     4
340
5D
 90
       25
 62
   256
340
5D
 90
       25
 62
   256
280
     0
  0
IMAGEDEF
  5
243
102
{ACAD_REACTORS
330
242
330
245
102
}
330
242
100
AcDbRasterImageDef
 90
        0
  1
E:\CAD Files\TRS Interlocking Panel\Custom Detail with TRS Weatherboard 20201110\TRSInterlockingCladdingDetails-TheRoofingStore_w-107754.jpg
 10
2863.0
 20
400.0
 11
0.0846666666666667
 21
0.0846666666666667
280
     1
281
     5
  0
LAYOUT
  5
6F
102
{ACAD_REACTORS
330
62
102
}
330
62
100
AcDbPlotSettings
  1

  2

  4

  6

 40
0.0
 41
0.0
 42
0.0
 43
0.0
 44
0.0
 45
0.0
 46
0.0
 47
0.0
 48
0.0
 49
0.0
140
0.0
141
0.0
142
1.0
143
1.0
 70
   688
 72
     0
 73
     0
 74
     5
  7

 75
    16
147
1.0
 76
     0
 77
     2
 78
   300
148
0.0
149
0.0
100
AcDbLayout
  1
Layout1
 70
     1
 71
     1
 10
0.0
 20
0.0
 11
12.0
 21
9.0
 12
0.0
 22
0.0
 32
0.0
 14
0.0
 24
0.0
 34
0.0
 15
0.0
 25
0.0
 35
0.0
146
0.0
 13
0.0
 23
0.0
 33
0.0
 16
1.0
 26
0.0
 36
0.0
 17
0.0
 27
1.0
 37
0.0
 76
     0
330
6C
  0
LAYOUT
  5
77
102
{ACAD_REACTORS
330
62
102
}
330
62
100
AcDbPlotSettings
  1

  2

  4

  6

 40
0.0
 41
0.0
 42
0.0
 43
0.0
 44
0.0
 45
0.0
 46
0.0
 47
0.0
 48
0.0
 49
0.0
140
0.0
141
0.0
142
1.0
143
1.0
 70
   688
 72
     0
 73
     0
 74
     5
  7

 75
    16
147
1.0
 76
     0
 77
     2
 78
   300
148
0.0
149
0.0
100
AcDbLayout
  1
Layout2
 70
     1
 71
     2
 10
0.0
 20
0.0
 11
12.0
 21
9.0
 12
0.0
 22
0.0
 32
0.0
 14
0.0
 24
0.0
 34
0.0
 15
0.0
 25
0.0
 35
0.0
146
0.0
 13
0.0
 23
0.0
 33
0.0
 16
1.0
 26
0.0
 36
0.0
 17
0.0
 27
1.0
 37
0.0
 76
     0
330
74
  0
LAYOUT
  5
73
102
{ACAD_REACTORS
330
62
102
}
330
62
100
AcDbPlotSettings
  1

  2

  4

  6

 40
0.0
 41
0.0
 42
0.0
 43
0.0
 44
0.0
 45
0.0
 46
0.0
 47
0.0
 48
0.0
 49
0.0
140
0.0
141
0.0
142
1.0
143
1.0
 70
  1712
 72
     0
 73
     0
 74
     0
  7

 75
     0
147
1.0
 76
     0
 77
     2
 78
   300
148
0.0
149
0.0
100
AcDbLayout
  1
Model
 70
     1
 71
     0
 10
0.0
 20
0.0
 11
12.0
 21
9.0
 12
0.0
 22
0.0
 32
0.0
 14
0.0
 24
0.0
 34
0.0
 15
0.0
 25
0.0
 35
0.0
146
0.0
 13
0.0
 23
0.0
 33
0.0
 16
1.0
 26
0.0
 36
0.0
 17
0.0
 27
1.0
 37
0.0
 76
     0
330
70
  0
MATERIAL
  5
19
102
{ACAD_XDICTIONARY
360
1A
102
}
102
{ACAD_REACTORS
330
10
102
}
330
10
100
AcDbMaterial
  1
ByBlock
 72
     0
 43
0.0208333333333333
 43
0.0
 43
0.0
 43
0.0
 43
0.0
 43
0.0208333333333333
 43
0.0
 43
0.0
 43
0.0
 43
0.0
 43
1.0
 43
0.0
 43
0.0
 43
0.0
 43
0.0
 43
1.0
 77
     0
 47
0.0208333333333333
 47
0.0
 47
0.0
 47
0.0
 47
0.0
 47
0.0208333333333333
 47
0.0
 47
0.0
 47
0.0
 47
0.0
 47
1.0
 47
0.0
 47
0.0
 47
0.0
 47
0.0
 47
1.0
171
     0
 49
0.0208333333333333
 49
0.0
 49
0.0
 49
0.0
 49
0.0
 49
0.0208333333333333
 49
0.0
 49
0.0
 49
0.0
 49
0.0
 49
1.0
 49
0.0
 49
0.0
 49
0.0
 49
0.0
 49
1.0
175
     0
142
0.0208333333333333
142
0.0
142
0.0
142
0.0
142
0.0
142
0.0208333333333333
142
0.0
142
0.0
142
0.0
142
0.0
142
1.0
142
0.0
142
0.0
142
0.0
142
0.0
142
1.0
179
     0
144
0.0208333333333333
144
0.0
144
0.0
144
0.0
144
0.0
144
0.0208333333333333
144
0.0
144
0.0
144
0.0
144
0.0
144
1.0
144
0.0
144
0.0
144
0.0
144
0.0
144
1.0
147
0.0208333333333333
147
0.0
147
0.0
147
0.0
147
0.0
147
0.0208333333333333
147
0.0
147
0.0
147
0.0
147
0.0
147
1.0
147
0.0
147
0.0
147
0.0
147
0.0
147
1.0
  0
MATERIAL
  5
11
102
{ACAD_XDICTIONARY
360
12
102
}
102
{ACAD_REACTORS
330
10
102
}
330
10
100
AcDbMaterial
  1
ByLayer
 72
     0
 43
0.0208333333333333
 43
0.0
 43
0.0
 43
0.0
 43
0.0
 43
0.0208333333333333
 43
0.0
 43
0.0
 43
0.0
 43
0.0
 43
1.0
 43
0.0
 43
0.0
 43
0.0
 43
0.0
 43
1.0
 77
     0
 47
0.0208333333333333
 47
0.0
 47
0.0
 47
0.0
 47
0.0
 47
0.0208333333333333
 47
0.0
 47
0.0
 47
0.0
 47
0.0
 47
1.0
 47
0.0
 47
0.0
 47
0.0
 47
0.0
 47
1.0
171
     0
 49
0.0208333333333333
 49
0.0
 49
0.0
 49
0.0
 49
0.0
 49
0.0208333333333333
 49
0.0
 49
0.0
 49
0.0
 49
0.0
 49
1.0
 49
0.0
 49
0.0
 49
0.0
 49
0.0
 49
1.0
175
     0
142
0.0208333333333333
142
0.0
142
0.0
142
0.0
142
0.0
142
0.0208333333333333
142
0.0
142
0.0
142
0.0
142
0.0
142
1.0
142
0.0
142
0.0
142
0.0
142
0.0
142
1.0
179
     0
144
0.0208333333333333
144
0.0
144
0.0
144
0.0
144
0.0
144
0.0208333333333333
144
0.0
144
0.0
144
0.0
144
0.0
144
1.0
144
0.0
144
0.0
144
0.0
144
0.0
144
1.0
147
0.0208333333333333
147
0.0
147
0.0
147
0.0
147
0.0
147
0.0208333333333333
147
0.0
147
0.0
147
0.0
147
0.0
147
1.0
147
0.0
147
0.0
147
0.0
147
0.0
147
1.0
  0
MATERIAL
  5
21
102
{ACAD_XDICTIONARY
360
22
102
}
102
{ACAD_REACTORS
330
10
102
}
330
10
100
AcDbMaterial
  1
Global
 72
     0
 43
0.0208333333333333
 43
0.0
 43
0.0
 43
0.0
 43
0.0
 43
0.0208333333333333
 43
0.0
 43
0.0
 43
0.0
 43
0.0
 43
1.0
 43
0.0
 43
0.0
 43
0.0
 43
0.0
 43
1.0
 77
     0
 47
0.0208333333333333
 47
0.0
 47
0.0
 47
0.0
 47
0.0
 47
0.0208333333333333
 47
0.0
 47
0.0
 47
0.0
 47
0.0
 47
1.0
 47
0.0
 47
0.0
 47
0.0
 47
0.0
 47
1.0
171
     0
 49
0.0208333333333333
 49
0.0
 49
0.0
 49
0.0
 49
0.0
 49
0.0208333333333333
 49
0.0
 49
0.0
 49
0.0
 49
0.0
 49
1.0
 49
0.0
 49
0.0
 49
0.0
 49
0.0
 49
1.0
175
     0
142
0.0208333333333333
142
0.0
142
0.0
142
0.0
142
0.0
142
0.0208333333333333
142
0.0
142
0.0
142
0.0
142
0.0
142
1.0
142
0.0
142
0.0
142
0.0
142
0.0
142
1.0
179
     0
144
0.0208333333333333
144
0.0
144
0.0
144
0.0
144
0.0
144
0.0208333333333333
144
0.0
144
0.0
144
0.0
144
0.0
144
1.0
144
0.0
144
0.0
144
0.0
144
0.0
144
1.0
147
0.0208333333333333
147
0.0
147
0.0
147
0.0
147
0.0
147
0.0208333333333333
147
0.0
147
0.0
147
0.0
147
0.0
147
1.0
147
0.0
147
0.0
147
0.0
147
0.0
147
1.0
  0
MLEADERSTYLE
  5
67
102
{ACAD_XDICTIONARY
360
2B0
102
}
102
{ACAD_REACTORS
330
66
102
}
330
66
100
AcDbMLeaderStyle
179
     2
170
     2
171
     1
172
     0
 90
        2
 40
0.0
 41
0.0
173
     1
 91
-1056964608
340
5B
 92
       -2
290
     1
 42
0.09
291
     1
 43
0.36
  3
Standard
 44
0.18
300

342
55
174
     1
178
     6
175
     1
176
     0
 93
-1056964608
 45
0.18
292
     0
297
     0
 46
0.18
 94
-1056964608
 47
1.0
 49
1.0
140
1.0
293
     1
141
0.0
294
     1
177
     0
142
1.0
295
     0
296
     0
143
0.125
271
     0
272
     9
273
     9
  0
MLINESTYLE
  5
60
102
{ACAD_REACTORS
330
5F
102
}
330
5F
100
AcDbMlineStyle
  2
STANDARD
 70
     0
  3

 62
   256
 51
90.0
 52
90.0
 71
     2
 49
0.5
 62
   256
  6
BYLAYER
 49
-0.5
 62
   256
  6
BYLAYER
  0
ACDBPLACEHOLDER
  5
F
102
{ACAD_REACTORS
330
E
102
}
330
E
  0
SCALE
  5
43
102
{ACAD_REACTORS
330
42
102
}
330
42
100
AcDbScale
 70
     0
300
1:1
140
1.0
141
1.0
290
     1
  0
SCALE
  5
44
102
{ACAD_REACTORS
330
42
102
}
330
42
100
AcDbScale
 70
     0
300
1/128" = 1'-0"
140
0.0078125
141
12.0
290
     0
  0
SCALE
  5
45
102
{ACAD_REACTORS
330
42
102
}
330
42
100
AcDbScale
 70
     0
300
1/64" = 1'-0"
140
0.015625
141
12.0
290
     0
  0
SCALE
  5
46
102
{ACAD_REACTORS
330
42
102
}
330
42
100
AcDbScale
 70
     0
300
1/32" = 1'-0"
140
0.03125
141
12.0
290
     0
  0
SCALE
  5
47
102
{ACAD_REACTORS
330
42
102
}
330
42
100
AcDbScale
 70
     0
300
1/16" = 1'-0"
140
0.0625
141
12.0
290
     0
  0
SCALE
  5
48
102
{ACAD_REACTORS
330
42
102
}
330
42
100
AcDbScale
 70
     0
300
3/32" = 1'-0"
140
0.09375
141
12.0
290
     0
  0
SCALE
  5
49
102
{ACAD_REACTORS
330
42
102
}
330
42
100
AcDbScale
 70
     0
300
1/8" = 1'-0"
140
0.125
141
12.0
290
     0
  0
SCALE
  5
4A
102
{ACAD_REACTORS
330
42
102
}
330
42
100
AcDbScale
 70
     0
300
3/16" = 1'-0"
140
0.1875
141
12.0
290
     0
  0
SCALE
  5
4B
102
{ACAD_REACTORS
330
42
102
}
330
42
100
AcDbScale
 70
     0
300
1/4" = 1'-0"
140
0.25
141
12.0
290
     0
  0
SCALE
  5
4C
102
{ACAD_REACTORS
330
42
102
}
330
42
100
AcDbScale
 70
     0
300
3/8" = 1'-0"
140
0.375
141
12.0
290
     0
  0
SCALE
  5
4D
102
{ACAD_REACTORS
330
42
102
}
330
42
100
AcDbScale
 70
     0
300
1/2" = 1'-0"
140
0.5
141
12.0
290
     0
  0
SCALE
  5
4E
102
{ACAD_REACTORS
330
42
102
}
330
42
100
AcDbScale
 70
     0
300
3/4" = 1'-0"
140
0.75
141
12.0
290
     0
  0
SCALE
  5
4F
102
{ACAD_REACTORS
330
42
102
}
330
42
100
AcDbScale
 70
     0
300
1" = 1'-0"
140
1.0
141
12.0
290
     0
  0
SCALE
  5
50
102
{ACAD_REACTORS
330
42
102
}
330
42
100
AcDbScale
 70
     0
300
1-1/2" = 1'-0"
140
1.5
141
12.0
290
     0
  0
SCALE
  5
51
102
{ACAD_REACTORS
330
42
102
}
330
42
100
AcDbScale
 70
     0
300
3" = 1'-0"
140
3.0
141
12.0
290
     0
  0
SCALE
  5
52
102
{ACAD_REACTORS
330
42
102
}
330
42
100
AcDbScale
 70
     0
300
6" = 1'-0"
140
6.0
141
12.0
290
     0
  0
SCALE
  5
53
102
{ACAD_REACTORS
330
42
102
}
330
42
100
AcDbScale
 70
     0
300
1'-0" = 1'-0"
140
12.0
141
12.0
290
     0
  0
ACDBSECTIONVIEWSTYLE
  5
69
102
{ACAD_XDICTIONARY
360
2B2
102
}
102
{ACAD_REACTORS
330
68
102
}
330
68
100
AcDbModelDocViewStyle
 70
     0
  3
Imperial24
290
     0
100
AcDbSectionViewStyle
 70
     0
 71
     0
 90
       78
 71
     1
340
55
 62
   256
 40
0.24
340
0
340
0
 62
   256
 40
0.24
300
I, O, Q, S, X, Z
 40
0.48
 90
        3
 40
0.18
 90
        1
 71
     2
340
5D
 90
       25
 62
   256
340
5D
 90
       50
 62
   256
 40
0.24
 40
0.0
 40
0.24
 71
     3
340
55
 62
   256
 40
0.24
 90
        1
 40
0.75
 90
        1
300
%<\AcVar ViewType \f "%tc1">% %<\AcVar ViewSectionStartId>%-%<\AcVar ViewSectionEndId>%\PSCALE %<\AcVar ViewScale \f "%sn">%
 71
     4
 62
   256
 62
   257
300
ANSI31
 40
1.0
 90
        0
290
     0
290
     0
 90
        6
 40
0.0
 40
1.570796326794896
 40
0.2617993877991494
 40
1.308996938995747
 40
-0.2617993877991494
 40
1.832595714594046
  0
TABLESTYLE
  5
65
102
{ACAD_XDICTIONARY
360
27D
102
}
102
{ACAD_REACTORS
330
64
102
}
330
64
100
AcDbTableStyle
280
     0
  3
Standard
 70
     0
 71
     0
 40
0.06
 41
0.06
280
     0
281
     0
  7
Standard
140
0.18
170
     2
 62
     0
 63
     7
283
     0
 90
      512
 91
        0
  1

274
    -2
284
     1
 64
     0
275
    -2
285
     1
 65
     0
276
    -2
286
     1
 66
     0
277
    -2
287
     1
 67
     0
278
    -2
288
     1
 68
     0
279
    -2
289
     1
 69
     0
  7
Standard
140
0.25
170
     5
 62
     0
 63
     7
283
     0
 90
      512
 91
        0
  1

274
    -2
284
     1
 64
     0
275
    -2
285
     1
 65
     0
276
    -2
286
     1
 66
     0
277
    -2
287
     1
 67
     0
278
    -2
288
     1
 68
     0
279
    -2
289
     1
 69
     0
  7
Standard
140
0.18
170
     5
 62
     0
 63
     7
283
     0
 90
      512
 91
        0
  1

274
    -2
284
     1
 64
     0
275
    -2
285
     1
 65
     0
276
    -2
286
     1
 66
     0
277
    -2
287
     1
 67
     0
278
    -2
288
     1
 68
     0
279
    -2
289
     1
 69
     0
  0
VISUALSTYLE
  5
2F
102
{ACAD_XDICTIONARY
360
28A
102
}
102
{ACAD_REACTORS
330
29
102
}
330
29
100
AcDbVisualStyle
  2
2dWireframe
 70
     4
177
     2
291
     0
 71
     0
176
     1
 72
     2
176
     1
 73
     0
176
     1
 90
        0
176
     1
 40
0.6
176
     1
 41
30.0
176
     1
 63
     7
421
 16777215
176
     1
 74
     1
176
     1
 91
        4
176
     1
 64
     7
176
     1
 65
   257
176
     1
 75
     1
176
     1
175
     1
176
     1
 42
1.0
176
     1
 92
        0
176
     1
 66
   257
176
     1
 43
1.0
176
     1
 76
     1
176
     1
 77
     6
176
     1
 78
     2
176
     1
 67
     7
176
     1
 79
     5
176
     1
170
     0
176
     1
171
     0
176
     1
290
     0
176
     1
 93
        1
176
     1
 44
0.0
176
     1
173
     0
176
     1
1001
ACAD
1000
AcDbSavedByObjectVersion
1070
     0
  0
VISUALSTYLE
  5
2E
102
{ACAD_XDICTIONARY
360
288
102
}
102
{ACAD_REACTORS
330
29
102
}
330
29
100
AcDbVisualStyle
  2
Basic
 70
     7
177
     2
291
     1
 71
     1
176
     1
 72
     0
176
     1
 73
     1
176
     1
 90
        0
176
     1
 40
0.6
176
     1
 41
30.0
176
     1
 63
     7
421
 16777215
176
     1
 74
     0
176
     1
 91
        4
176
     1
 64
     7
176
     1
 65
   257
176
     1
 75
     1
176
     1
175
     1
176
     1
 42
1.0
176
     1
 92
        8
176
     1
 66
     7
176
     1
 43
1.0
176
     1
 76
     1
176
     1
 77
     6
176
     1
 78
     2
176
     1
 67
     7
176
     1
 79
     5
176
     1
170
     0
176
     1
171
     0
176
     1
290
     0
176
     1
 93
        1
176
     1
 44
0.0
176
     1
173
     0
176
     1
1001
ACAD
1000
AcDbSavedByObjectVersion
1070
     0
  0
VISUALSTYLE
  5
35
102
{ACAD_XDICTIONARY
360
296
102
}
102
{ACAD_REACTORS
330
29
102
}
330
29
100
AcDbVisualStyle
  2
Brighten
 70
    12
177
     2
291
     1
 71
     2
176
     1
 72
     2
176
     1
 73
     0
176
     1
 90
        0
176
     1
 40
0.6
176
     1
 41
30.0
176
     1
 63
     7
421
 16777215
176
     1
 74
     1
176
     1
 91
        4
176
     1
 64
     7
176
     1
 65
   257
176
     1
 75
     1
176
     1
175
     1
176
     1
 42
1.0
176
     1
 92
        8
176
     1
 66
     7
176
     1
 43
1.0
176
     1
 76
     1
176
     1
 77
     6
176
     1
 78
     2
176
     1
 67
     7
176
     1
 79
     5
176
     1
170
     0
176
     1
171
     0
176
     1
290
     0
176
     1
 93
        1
176
     1
 44
50.0
176
     1
173
     0
176
     1
1001
ACAD
1000
AcDbSavedByObjectVersion
1070
     0
  0
VISUALSTYLE
  5
39
102
{ACAD_XDICTIONARY
360
29E
102
}
102
{ACAD_REACTORS
330
29
102
}
330
29
100
AcDbVisualStyle
  2
ColorChange
 70
    16
177
     2
291
     1
 71
     2
176
     1
 72
     2
176
     1
 73
     3
176
     1
 90
        0
176
     1
 40
0.6
176
     1
 41
30.0
176
     1
 63
     8
421
  8421504
176
     1
 74
     1
176
     1
 91
        4
176
     1
 64
     7
176
     1
 65
   257
176
     1
 75
     1
176
     1
175
     1
176
     1
 42
1.0
176
     1
 92
        8
176
     1
 66
     8
424
  8421504
176
     1
 43
1.0
176
     1
 76
     1
176
     1
 77
     6
176
     1
 78
     2
176
     1
 67
     7
176
     1
 79
     5
176
     1
170
     0
176
     1
171
     0
176
     1
290
     0
176
     1
 93
        1
176
     1
 44
0.0
176
     1
173
     0
176
     1
1001
ACAD
1000
AcDbSavedByObjectVersion
1070
     0
  0
VISUALSTYLE
  5
32
102
{ACAD_XDICTIONARY
360
290
102
}
102
{ACAD_REACTORS
330
29
102
}
330
29
100
AcDbVisualStyle
  2
Conceptual
 70
     9
177
     2
291
     0
 71
     3
176
     1
 72
     2
176
     1
 73
     0
176
     1
 90
        0
176
     1
 40
0.6
176
     1
 41
30.0
176
     1
 63
     7
421
 16777215
176
     1
 74
     2
176
     1
 91
        2
176
     1
 64
     7
176
     1
 65
   257
176
     1
 75
     1
176
     1
175
     1
176
     1
 42
179.0
176
     1
 92
        8
176
     1
 66
     7
176
     1
 43
1.0
176
     1
 76
     1
176
     1
 77
     6
176
     1
 78
     2
176
     1
 67
     7
176
     1
 79
     3
176
     1
170
     0
176
     1
171
     0
176
     1
290
     0
176
     1
 93
        1
176
     1
 44
0.0
176
     1
173
     0
176
     1
1001
ACAD
1000
AcDbSavedByObjectVersion
1070
     0
  0
VISUALSTYLE
  5
34
102
{ACAD_XDICTIONARY
360
294
102
}
102
{ACAD_REACTORS
330
29
102
}
330
29
100
AcDbVisualStyle
  2
Dim
 70
    11
177
     2
291
     1
 71
     2
176
     1
 72
     2
176
     1
 73
     0
176
     1
 90
        0
176
     1
 40
0.6
176
     1
 41
30.0
176
     1
 63
     7
421
 16777215
176
     1
 74
     1
176
     1
 91
        4
176
     1
 64
     7
176
     1
 65
   257
176
     1
 75
     1
176
     1
175
     1
176
     1
 42
1.0
176
     1
 92
        8
176
     1
 66
     7
176
     1
 43
1.0
176
     1
 76
     1
176
     1
 77
     6
176
     1
 78
     2
176
     1
 67
     7
176
     1
 79
     5
176
     1
170
     0
176
     1
171
     0
176
     1
290
     0
176
     1
 93
        1
176
     1
 44
-50.0
176
     1
173
     0
176
     1
1001
ACAD
1000
AcDbSavedByObjectVersion
1070
     0
  0
VISUALSTYLE
  5
41
102
{ACAD_XDICTIONARY
360
2AE
102
}
102
{ACAD_REACTORS
330
29
102
}
330
29
100
AcDbVisualStyle
  2
EdgeColorOff
 70
    22
177
     2
291
     1
 71
     2
176
     0
 72
     2
176
     0
 73
     0
176
     0
 90
        0
176
     0
 40
0.6
176
     0
 41
30.0
176
     0
 63
     7
421
 16777215
176
     0
 74
     1
176
     0
 91
        4
176
     0
 64
     7
176
     0
 65
   257
176
     0
 75
     1
176
     0
175
     1
176
     0
 42
1.0
176
     0
 92
        8
176
     2
 66
     7
176
     0
 43
1.0
176
     0
 76
     1
176
     0
 77
     6
176
     0
 78
     2
176
     0
 67
     7
176
     0
 79
     5
176
     0
170
     0
176
     0
171
     0
176
     0
290
     0
176
     0
 93
        1
176
     0
 44
0.0
176
     0
173
     0
176
     0
1001
ACAD
1000
AcDbSavedByObjectVersion
1070
     0
  0
VISUALSTYLE
  5
38
102
{ACAD_XDICTIONARY
360
29C
102
}
102
{ACAD_REACTORS
330
29
102
}
330
29
100
AcDbVisualStyle
  2
Facepattern
 70
    15
177
     2
291
     1
 71
     2
176
     1
 72
     2
176
     1
 73
     0
176
     1
 90
        0
176
     1
 40
0.6
176
     1
 41
30.0
176
     1
 63
     7
421
 16777215
176
     1
 74
     1
176
     1
 91
        4
176
     1
 64
     7
176
     1
 65
   257
176
     1
 75
     1
176
     1
175
     1
176
     1
 42
1.0
176
     1
 92
        8
176
     1
 66
     7
176
     1
 43
1.0
176
     1
 76
     1
176
     1
 77
     6
176
     1
 78
     2
176
     1
 67
     7
176
     1
 79
     5
176
     1
170
     0
176
     1
171
     0
176
     1
290
     0
176
     1
 93
        1
176
     1
 44
0.0
176
     1
173
     0
176
     1
1001
ACAD
1000
AcDbSavedByObjectVersion
1070
     0
  0
VISUALSTYLE
  5
2A
102
{ACAD_XDICTIONARY
360
280
102
}
102
{ACAD_REACTORS
330
29
102
}
330
29
100
AcDbVisualStyle
  2
Flat
 70
     0
177
     2
291
     1
 71
     2
176
     1
 72
     1
176
     1
 73
     1
176
     1
 90
        2
176
     1
 40
0.6
176
     1
 41
30.0
176
     1
 63
     7
421
 16777215
176
     1
 74
     0
176
     1
 91
        0
176
     1
 64
     7
176
     1
 65
   257
176
     1
 75
     1
176
     1
175
     1
176
     1
 42
1.0
176
     1
 92
        8
176
     1
 66
     7
176
     1
 43
1.0
176
     1
 76
     1
176
     1
 77
     6
176
     1
 78
     2
176
     1
 67
     7
176
     1
 79
     5
176
     1
170
     0
176
     1
171
     0
176
     1
290
     0
176
     1
 93
       13
176
     1
 44
0.0
176
     1
173
     0
176
     1
1001
ACAD
1000
AcDbSavedByObjectVersion
1070
     0
  0
VISUALSTYLE
  5
2B
102
{ACAD_XDICTIONARY
360
282
102
}
102
{ACAD_REACTORS
330
29
102
}
330
29
100
AcDbVisualStyle
  2
FlatWithEdges
 70
     1
177
     2
291
     1
 71
     2
176
     1
 72
     1
176
     1
 73
     1
176
     1
 90
        2
176
     1
 40
0.6
176
     1
 41
30.0
176
     1
 63
     7
421
 16777215
176
     1
 74
     1
176
     1
 91
        0
176
     1
 64
     7
176
     1
 65
   257
176
     1
 75
     1
176
     1
175
     1
176
     1
 42
1.0
176
     1
 92
        0
176
     1
 66
   257
176
     1
 43
1.0
176
     1
 76
     1
176
     1
 77
     6
176
     1
 78
     2
176
     1
 67
     7
176
     1
 79
     5
176
     1
170
     0
176
     1
171
     0
176
     1
290
     0
176
     1
 93
       13
176
     1
 44
0.0
176
     1
173
     0
176
     1
1001
ACAD
1000
AcDbSavedByObjectVersion
1070
     0
  0
VISUALSTYLE
  5
2C
102
{ACAD_XDICTIONARY
360
284
102
}
102
{ACAD_REACTORS
330
29
102
}
330
29
100
AcDbVisualStyle
  2
Gouraud
 70
     2
177
     2
291
     1
 71
     2
176
     1
 72
     2
176
     1
 73
     1
176
     1
 90
        2
176
     1
 40
0.6
176
     1
 41
30.0
176
     1
 63
     7
421
 16777215
176
     1
 74
     0
176
     1
 91
        0
176
     1
 64
     7
176
     1
 65
   257
176
     1
 75
     1
176
     1
175
     1
176
     1
 42
1.0
176
     1
 92
        0
176
     1
 66
     7
176
     1
 43
1.0
176
     1
 76
     1
176
     1
 77
     6
176
     1
 78
     2
176
     1
 67
     7
176
     1
 79
     5
176
     1
170
     0
176
     1
171
     0
176
     1
290
     0
176
     1
 93
       13
176
     1
 44
0.0
176
     1
173
     0
176
     1
1001
ACAD
1000
AcDbSavedByObjectVersion
1070
     0
  0
VISUALSTYLE
  5
2D
102
{ACAD_XDICTIONARY
360
286
102
}
102
{ACAD_REACTORS
330
29
102
}
330
29
100
AcDbVisualStyle
  2
GouraudWithEdges
 70
     3
177
     2
291
     1
 71
     2
176
     1
 72
     2
176
     1
 73
     1
176
     1
 90
        2
176
     1
 40
0.6
176
     1
 41
30.0
176
     1
 63
     7
421
 16777215
176
     1
 74
     1
176
     1
 91
        0
176
     1
 64
     7
176
     1
 65
   257
176
     1
 75
     1
176
     1
175
     1
176
     1
 42
1.0
176
     1
 92
        0
176
     1
 66
   257
176
     1
 43
1.0
176
     1
 76
     1
176
     1
 77
     6
176
     1
 78
     2
176
     1
 67
     7
176
     1
 79
     5
176
     1
170
     0
176
     1
171
     0
176
     1
290
     0
176
     1
 93
       13
176
     1
 44
0.0
176
     1
173
     0
176
     1
1001
ACAD
1000
AcDbSavedByObjectVersion
1070
     0
  0
VISUALSTYLE
  5
31
102
{ACAD_XDICTIONARY
360
28E
102
}
102
{ACAD_REACTORS
330
29
102
}
330
29
100
AcDbVisualStyle
  2
Hidden
 70
     6
177
     2
291
     0
 71
     1
176
     1
 72
     2
176
     1
 73
     2
176
     1
 90
        0
176
     1
 40
0.6
176
     1
 41
30.0
176
     1
 63
     7
421
 16777215
176
     1
 74
     2
176
     1
 91
        2
176
     1
 64
     7
176
     1
 65
   257
176
     1
 75
     2
176
     1
175
     1
176
     1
 42
40.0
176
     1
 92
        0
176
     1
 66
   257
176
     1
 43
1.0
176
     1
 76
     1
176
     1
 77
     6
176
     1
 78
     2
176
     1
 67
     7
176
     1
 79
     3
176
     1
170
     0
176
     1
171
     0
176
     1
290
     0
176
     1
 93
        1
176
     1
 44
0.0
176
     1
173
     0
176
     1
1001
ACAD
1000
AcDbSavedByObjectVersion
1070
     0
  0
VISUALSTYLE
  5
3F
102
{ACAD_XDICTIONARY
360
2AA
102
}
102
{ACAD_REACTORS
330
29
102
}
330
29
100
AcDbVisualStyle
  2
JitterOff
 70
    20
177
     2
291
     1
 71
     2
176
     0
 72
     2
176
     0
 73
     0
176
     0
 90
        0
176
     0
 40
0.6
176
     0
 41
30.0
176
     0
 63
     7
421
 16777215
176
     0
 74
     1
176
     0
 91
        4
176
     0
 64
     7
176
     0
 65
   257
176
     0
 75
     1
176
     0
175
     1
176
     0
 42
1.0
176
     0
 92
       10
176
     2
 66
     7
176
     0
 43
1.0
176
     0
 76
     1
176
     0
 77
     6
176
     0
 78
     2
176
     0
 67
     7
176
     0
 79
     5
176
     0
170
     0
176
     0
171
     0
176
     0
290
     0
176
     0
 93
        1
176
     0
 44
0.0
176
     0
173
     0
176
     0
1001
ACAD
1000
AcDbSavedByObjectVersion
1070
     0
  0
VISUALSTYLE
  5
37
102
{ACAD_XDICTIONARY
360
29A
102
}
102
{ACAD_REACTORS
330
29
102
}
330
29
100
AcDbVisualStyle
  2
Linepattern
 70
    14
177
     2
291
     1
 71
     2
176
     1
 72
     2
176
     1
 73
     0
176
     1
 90
        0
176
     1
 40
0.6
176
     1
 41
30.0
176
     1
 63
     7
421
 16777215
176
     1
 74
     1
176
     1
 91
        4
176
     1
 64
     7
176
     1
 65
   257
176
     1
 75
     7
176
     1
175
     7
176
     1
 42
1.0
176
     1
 92
        8
176
     1
 66
     7
176
     1
 43
1.0
176
     1
 76
     1
176
     1
 77
     6
176
     1
 78
     2
176
     1
 67
     7
176
     1
 79
     5
176
     1
170
     0
176
     1
171
     0
176
     1
290
     0
176
     1
 93
        1
176
     1
 44
0.0
176
     1
173
     0
176
     1
1001
ACAD
1000
AcDbSavedByObjectVersion
1070
     0
  0
VISUALSTYLE
  5
40
102
{ACAD_XDICTIONARY
360
2AC
102
}
102
{ACAD_REACTORS
330
29
102
}
330
29
100
AcDbVisualStyle
  2
OverhangOff
 70
    21
177
     2
291
     1
 71
     2
176
     0
 72
     2
176
     0
 73
     0
176
     0
 90
        0
176
     0
 40
0.6
176
     0
 41
30.0
176
     0
 63
     7
421
 16777215
176
     0
 74
     1
176
     0
 91
        4
176
     0
 64
     7
176
     0
 65
   257
176
     0
 75
     1
176
     0
175
     1
176
     0
 42
1.0
176
     0
 92
        9
176
     2
 66
     7
176
     0
 43
1.0
176
     0
 76
     1
176
     0
 77
     6
176
     0
 78
     2
176
     0
 67
     7
176
     0
 79
     5
176
     0
170
     0
176
     0
171
     0
176
     0
290
     0
176
     0
 93
        1
176
     0
 44
0.0
176
     0
173
     0
176
     0
1001
ACAD
1000
AcDbSavedByObjectVersion
1070
     0
  0
VISUALSTYLE
  5
33
102
{ACAD_XDICTIONARY
360
292
102
}
102
{ACAD_REACTORS
330
29
102
}
330
29
100
AcDbVisualStyle
  2
Realistic
 70
     8
177
     2
291
     0
 71
     2
176
     1
 72
     3
176
     1
 73
     0
176
     1
 90
        2
176
     1
 40
0.6
176
     1
 41
30.0
176
     1
 63
     7
421
 16777215
176
     1
 74
     0
176
     1
 91
        0
176
     1
 64
     7
176
     1
 65
   257
176
     1
 75
     1
176
     1
175
     1
176
     1
 42
1.0
176
     1
 92
        8
176
     1
 66
   257
176
     1
 43
1.0
176
     1
 76
     1
176
     1
 77
     6
176
     1
 78
     2
176
     1
 67
     7
176
     1
 79
     3
176
     1
170
     0
176
     1
171
     0
176
     1
290
     0
176
     1
 93
       13
176
     1
 44
0.0
176
     1
173
     0
176
     1
1001
ACAD
1000
AcDbSavedByObjectVersion
1070
     0
  0
VISUALSTYLE
  5
3E
102
{ACAD_XDICTIONARY
360
2A8
102
}
102
{ACAD_REACTORS
330
29
102
}
330
29
100
AcDbVisualStyle
  2
Shaded
 70
    27
177
     2
291
     0
 71
     2
176
     1
 72
     2
176
     1
 73
     1
176
     1
 90
        2
176
     1
 40
0.6
176
     1
 41
30.0
176
     1
 63
     7
421
 16777215
176
     1
 74
     0
176
     1
 91
        4
176
     1
 64
     7
176
     1
 65
   257
176
     1
 75
     1
176
     1
175
     1
176
     1
 42
1.0
176
     1
 92
        8
176
     1
 66
   257
176
     1
 43
1.0
176
     1
 76
     1
176
     1
 77
     6
176
     1
 78
     2
176
     1
 67
     8
425
  7895160
176
     1
 79
     3
176
     1
170
     0
176
     1
171
     0
176
     1
290
     0
176
     1
 93
        5
176
     1
 44
0.0
176
     1
173
     0
176
     1
1001
ACAD
1000
AcDbSavedByObjectVersion
1070
     0
  0
VISUALSTYLE
  5
3D
102
{ACAD_XDICTIONARY
360
2A6
102
}
102
{ACAD_REACTORS
330
29
102
}
330
29
100
AcDbVisualStyle
  2
Shaded with edges
 70
    26
177
     2
291
     0
 71
     2
176
     1
 72
     2
176
     1
 73
     1
176
     1
 90
        2
176
     1
 40
0.6
176
     1
 41
30.0
176
     1
 63
     7
421
 16777215
176
     1
 74
     1
176
     1
 91
        2
176
     1
 64
     7
176
     1
 65
   257
176
     1
 75
     2
176
     1
175
     1
176
     1
 42
1.0
176
     1
 92
        8
176
     1
 66
   257
176
     1
 43
1.0
176
     1
 76
     1
176
     1
 77
     6
176
     1
 78
     2
176
     1
 67
     7
176
     1
 79
     3
176
     1
170
     0
176
     1
171
     0
176
     1
290
     0
176
     1
 93
        5
176
     1
 44
0.0
176
     1
173
     0
176
     1
1001
ACAD
1000
AcDbSavedByObjectVersion
1070
     0
  0
VISUALSTYLE
  5
3A
102
{ACAD_XDICTIONARY
360
2A0
102
}
102
{ACAD_REACTORS
330
29
102
}
330
29
100
AcDbVisualStyle
  2
Shades of Gray
 70
    23
177
     2
291
     0
 71
     2
176
     1
 72
     2
176
     1
 73
     3
176
     1
 90
        0
176
     1
 40
0.6
176
     1
 41
30.0
176
     1
 63
     7
421
 16777215
176
     1
 74
     2
176
     1
 91
        2
176
     1
 64
     7
176
     1
 65
     7
176
     1
 75
     1
176
     1
175
     1
176
     1
 42
40.0
176
     1
 92
        8
176
     1
 66
     7
176
     1
 43
1.0
176
     1
 76
     1
176
     1
 77
     6
176
     1
 78
     2
176
     1
 67
     7
176
     1
 79
     3
176
     1
170
     0
176
     1
171
     0
176
     1
290
     0
176
     1
 93
        1
176
     1
 44
0.0
176
     1
173
     0
176
     1
1001
ACAD
1000
AcDbSavedByObjectVersion
1070
     0
  0
VISUALSTYLE
  5
3B
102
{ACAD_XDICTIONARY
360
2A2
102
}
102
{ACAD_REACTORS
330
29
102
}
330
29
100
AcDbVisualStyle
  2
Sketchy
 70
    24
177
     2
291
     0
 71
     1
176
     1
 72
     2
176
     1
 73
     2
176
     1
 90
        0
176
     1
 40
0.6
176
     1
 41
30.0
176
     1
 63
     7
421
 16777215
176
     1
 74
     2
176
     1
 91
        2
176
     1
 64
     7
176
     1
 65
     7
176
     1
 75
     1
176
     1
175
     1
176
     1
 42
40.0
176
     1
 92
       11
176
     1
 66
     7
176
     1
 43
1.0
176
     1
 76
     1
176
     1
 77
     6
176
     1
 78
     2
176
     1
 67
     7
176
     1
 79
     6
176
     1
170
     0
176
     1
171
     0
176
     1
290
     0
176
     1
 93
        1
176
     1
 44
0.0
176
     1
173
     0
176
     1
1001
ACAD
1000
AcDbSavedByObjectVersion
1070
     0
  0
VISUALSTYLE
  5
36
102
{ACAD_XDICTIONARY
360
298
102
}
102
{ACAD_REACTORS
330
29
102
}
330
29
100
AcDbVisualStyle
  2
Thicken
 70
    13
177
     2
291
     1
 71
     2
176
     1
 72
     2
176
     1
 73
     0
176
     1
 90
        0
176
     1
 40
0.6
176
     1
 41
30.0
176
     1
 63
     7
421
 16777215
176
     1
 74
     1
176
     1
 91
        4
176
     1
 64
     7
176
     1
 65
   257
176
     1
 75
     1
176
     1
175
     1
176
     1
 42
1.0
176
     1
 92
       12
176
     1
 66
     7
176
     1
 43
1.0
176
     1
 76
     1
176
     1
 77
     6
176
     1
 78
     2
176
     1
 67
     7
176
     1
 79
     5
176
     1
170
     0
176
     1
171
     0
176
     1
290
     0
176
     1
 93
        1
176
     1
 44
0.0
176
     1
173
     0
176
     1
1001
ACAD
1000
AcDbSavedByObjectVersion
1070
     0
  0
VISUALSTYLE
  5
30
102
{ACAD_XDICTIONARY
360
28C
102
}
102
{ACAD_REACTORS
330
29
102
}
330
29
100
AcDbVisualStyle
  2
Wireframe
 70
     5
177
     2
291
     0
 71
     0
176
     1
 72
     2
176
     1
 73
     0
176
     1
 90
        0
176
     1
 40
0.6
176
     1
 41
30.0
176
     1
 63
     7
421
 16777215
176
     1
 74
     1
176
     1
 91
        4
176
     1
 64
     7
176
     1
 65
   257
176
     1
 75
     1
176
     1
175
     1
176
     1
 42
1.0
176
     1
 92
        0
176
     1
 66
   257
176
     1
 43
1.0
176
     1
 76
     1
176
     1
 77
     6
176
     1
 78
     2
176
     1
 67
     7
176
     1
 79
     3
176
     1
170
     0
176
     1
171
     0
176
     1
290
     0
176
     1
 93
        1
176
     1
 44
0.0
176
     1
173
     0
176
     1
1001
ACAD
1000
AcDbSavedByObjectVersion
1070
     0
  0
VISUALSTYLE
  5
3C
102
{ACAD_XDICTIONARY
360
2A4
102
}
102
{ACAD_REACTORS
330
29
102
}
330
29
100
AcDbVisualStyle
  2
X-Ray
 70
    25
177
     2
291
     0
 71
     2
176
     1
 72
     2
176
     1
 73
     1
176
     1
 90
        1
176
     1
 40
0.5
176
     1
 41
30.0
176
     1
 63
     7
421
 16777215
176
     1
 74
     1
176
     1
 91
        0
176
     1
 64
     7
176
     1
 65
   257
176
     1
 75
     1
176
     1
175
     1
176
     1
 42
1.0
176
     1
 92
        8
176
     1
 66
     7
176
     1
 43
1.0
176
     1
 76
     1
176
     1
 77
     6
176
     1
 78
     2
176
     1
 67
     7
176
     1
 79
     3
176
     1
170
     0
176
     1
171
     0
176
     1
290
     0
176
     1
 93
       13
176
     1
 44
0.0
176
     1
173
     0
176
     1
1001
ACAD
1000
AcDbSavedByObjectVersion
1070
     0
  0
DICTIONARYVAR
  5
80
102
{ACAD_REACTORS
330
7B
102
}
330
7B
100
DictionaryVariables
280
     0
  1
1:1
  0
DICTIONARYVAR
  5
7D
102
{ACAD_REACTORS
330
7B
102
}
330
7B
100
DictionaryVariables
280
     0
  1
STANDARD
  0
DICTIONARYVAR
  5
7C
102
{ACAD_REACTORS
330
7B
102
}
330
7B
100
DictionaryVariables
280
     0
  1
STANDARD
  0
DICTIONARYVAR
  5
7E
102
{ACAD_REACTORS
330
7B
102
}
330
7B
100
DictionaryVariables
280
     0
  1
Imperial24
  0
DICTIONARYVAR
  5
7F
102
{ACAD_REACTORS
330
7B
102
}
330
7B
100
DictionaryVariables
280
     0
  1
Imperial24
  0
XRECORD
  5
27A
102
{ACAD_REACTORS
330
276
102
}
330
276
100
AcDbXrecord
280
     1
  1
BUILDING_ID
  1
TRS Interlocking Cladding Details
  1
FLOOR_ID
  1
174890
  0
XRECORD
  5
278
102
{ACAD_REACTORS
330
276
102
}
330
276
100
AcDbXrecord
280
     1
  1
-2000051
  1
Lines
  1
-2000260
  1
Dimensions
  1
-2000280
  1
Title Blocks
  1
-2000300
  1
Text Notes
  1
-2002000
  1
Detail Items
  0
XRECORD
  5
279
102
{ACAD_REACTORS
330
276
102
}
330
276
100
AcDbXrecord
280
     1
  1
-2000042
  1
Thin Lines
  1
-2000043
  1
Medium Lines
  1
-2000077
  1
Insulation Batting Lines
  1
-2000281
  1
Thin Lines
  1
-2000282
  1
Medium Lines
  1
15798
  1
Light Lines
  1
15813
  1
Thin Lines Dashed
  1
16110
  1
Building Wrap
  1
16210
  1
01 - Black 1
  1
16257
  1
Wide Lines
  1
16362
  1
Thin Lines
  1
19822
  1
FPA_Sect_Sealant
  0
XRECORD
  5
277
102
{ACAD_REACTORS
330
276
102
}
330
276
100
AcDbXrecord
280
     1
  1
113920
  1
TRS Interlocking profile : Interlocking 260
  1
14996
  1
Filled region : Crosshatch 3mm
  1
16489
  1
Text : Century Gothic 2.5mm
  1
17724
  1
Linear Dimension Style : 01 - Diagonal
  1
17873
  1
Filled region : White- Solid
  1
17941
  1
Filled region : Plasterboard
  1
2694
  1
Titleblock A4 The roofing store : Titleblock A4 The roofing store
  1
44489
  1
FP Timber Nog Packer1 : Variable
  1
59784
  1
4811_Air Seal w Foam : Airseal on PEF Backing Rod
  1
59790
  1
FP - Break Line : FP - Break Line
  1
59792
  1
HP_WProof - Building Wrap : HP_WProof - Building Wrap
  0
DICTIONARY
  5
2B4
330
6B
100
AcDbDictionary
280
     1
281
     1
  3
ACAD_XREC_ROUNDTRIP
360
2B5
  0
DICTIONARY
  5
1A
330
19
100
AcDbDictionary
280
     1
281
     1
  3
BUMPTILE
360
1C
  3
DIFFUSETILE
360
1B
  3
OPACITYTILE
360
1F
  3
REFLECTIONTILE
360
1E
  3
REFRACTIONTILE
360
20
  3
SPECULARTILE
360
1D
  0
DICTIONARY
  5
12
330
11
100
AcDbDictionary
280
     1
281
     1
  3
BUMPTILE
360
14
  3
DIFFUSETILE
360
13
  3
OPACITYTILE
360
17
  3
REFLECTIONTILE
360
16
  3
REFRACTIONTILE
360
18
  3
SPECULARTILE
360
15
  0
DICTIONARY
  5
22
330
21
100
AcDbDictionary
280
     1
281
     1
  3
BUMPTILE
360
24
  3
DIFFUSETILE
360
23
  3
OPACITYTILE
360
27
  3
REFLECTIONTILE
360
26
  3
REFRACTIONTILE
360
28
  3
SPECULARTILE
360
25
  0
DICTIONARY
  5
2B0
330
67
100
AcDbDictionary
280
     1
281
     1
  3
ACAD_XREC_ROUNDTRIP
360
2B1
  0
DICTIONARY
  5
2B2
330
69
100
AcDbDictionary
280
     1
281
     1
  3
ACAD_XREC_ROUNDTRIP
360
2B3
  0
DICTIONARY
  5
27D
330
65
100
AcDbDictionary
280
     1
281
     1
  3
ACAD_ROUNDTRIP_2008_TABLESTYLE_CELLSTYLEMAP
360
27E
  0
DICTIONARY
  5
28A
330
2F
100
AcDbDictionary
280
     1
281
     1
  3
ACAD_XREC_ROUNDTRIP
360
28B
  0
DICTIONARY
  5
288
330
2E
100
AcDbDictionary
280
     1
281
     1
  3
ACAD_XREC_ROUNDTRIP
360
289
  0
DICTIONARY
  5
296
330
35
100
AcDbDictionary
280
     1
281
     1
  3
ACAD_XREC_ROUNDTRIP
360
297
  0
DICTIONARY
  5
29E
330
39
100
AcDbDictionary
280
     1
281
     1
  3
ACAD_XREC_ROUNDTRIP
360
29F
  0
DICTIONARY
  5
290
330
32
100
AcDbDictionary
280
     1
281
     1
  3
ACAD_XREC_ROUNDTRIP
360
291
  0
DICTIONARY
  5
294
330
34
100
AcDbDictionary
280
     1
281
     1
  3
ACAD_XREC_ROUNDTRIP
360
295
  0
DICTIONARY
  5
2AE
330
41
100
AcDbDictionary
280
     1
281
     1
  3
ACAD_XREC_ROUNDTRIP
360
2AF
  0
DICTIONARY
  5
29C
330
38
100
AcDbDictionary
280
     1
281
     1
  3
ACAD_XREC_ROUNDTRIP
360
29D
  0
DICTIONARY
  5
280
330
2A
100
AcDbDictionary
280
     1
281
     1
  3
ACAD_XREC_ROUNDTRIP
360
281
  0
DICTIONARY
  5
282
330
2B
100
AcDbDictionary
280
     1
281
     1
  3
ACAD_XREC_ROUNDTRIP
360
283
  0
DICTIONARY
  5
284
330
2C
100
AcDbDictionary
280
     1
281
     1
  3
ACAD_XREC_ROUNDTRIP
360
285
  0
DICTIONARY
  5
286
330
2D
100
AcDbDictionary
280
     1
281
     1
  3
ACAD_XREC_ROUNDTRIP
360
287
  0
DICTIONARY
  5
28E
330
31
100
AcDbDictionary
280
     1
281
     1
  3
ACAD_XREC_ROUNDTRIP
360
28F
  0
DICTIONARY
  5
2AA
330
3F
100
AcDbDictionary
280
     1
281
     1
  3
ACAD_XREC_ROUNDTRIP
360
2AB
  0
DICTIONARY
  5
29A
330
37
100
AcDbDictionary
280
     1
281
     1
  3
ACAD_XREC_ROUNDTRIP
360
29B
  0
DICTIONARY
  5
2AC
330
40
100
AcDbDictionary
280
     1
281
     1
  3
ACAD_XREC_ROUNDTRIP
360
2AD
  0
DICTIONARY
  5
292
330
33
100
AcDbDictionary
280
     1
281
     1
  3
ACAD_XREC_ROUNDTRIP
360
293
  0
DICTIONARY
  5
2A8
330
3E
100
AcDbDictionary
280
     1
281
     1
  3
ACAD_XREC_ROUNDTRIP
360
2A9
  0
DICTIONARY
  5
2A6
330
3D
100
AcDbDictionary
280
     1
281
     1
  3
ACAD_XREC_ROUNDTRIP
360
2A7
  0
DICTIONARY
  5
2A0
330
3A
100
AcDbDictionary
280
     1
281
     1
  3
ACAD_XREC_ROUNDTRIP
360
2A1
  0
DICTIONARY
  5
2A2
330
3B
100
AcDbDictionary
280
     1
281
     1
  3
ACAD_XREC_ROUNDTRIP
360
2A3
  0
DICTIONARY
  5
298
330
36
100
AcDbDictionary
280
     1
281
     1
  3
ACAD_XREC_ROUNDTRIP
360
299
  0
DICTIONARY
  5
28C
330
30
100
AcDbDictionary
280
     1
281
     1
  3
ACAD_XREC_ROUNDTRIP
360
28D
  0
DICTIONARY
  5
2A4
330
3C
100
AcDbDictionary
280
     1
281
     1
  3
ACAD_XREC_ROUNDTRIP
360
2A5
  0
XRECORD
  5
2B5
102
{ACAD_REACTORS
330
2B4
102
}
330
2B4
100
AcDbXrecord
280
     1
102
DISPLAYNAME
  1
Imperial24
102
FLAGS
 90
        0
  0
XRECORD
  5
1C
102
{ACAD_REACTORS
330
1A
102
}
330
1A
100
AcDbXrecord
280
     1
270
     1
271
     1
  0
XRECORD
  5
1B
102
{ACAD_REACTORS
330
1A
102
}
330
1A
100
AcDbXrecord
280
     1
270
     1
271
     1
  0
XRECORD
  5
1F
102
{ACAD_REACTORS
330
1A
102
}
330
1A
100
AcDbXrecord
280
     1
270
     1
271
     1
  0
XRECORD
  5
1E
102
{ACAD_REACTORS
330
1A
102
}
330
1A
100
AcDbXrecord
280
     1
270
     1
271
     1
  0
XRECORD
  5
20
102
{ACAD_REACTORS
330
1A
102
}
330
1A
100
AcDbXrecord
280
     1
270
     1
271
     1
  0
XRECORD
  5
1D
102
{ACAD_REACTORS
330
1A
102
}
330
1A
100
AcDbXrecord
280
     1
270
     1
271
     1
  0
XRECORD
  5
14
102
{ACAD_REACTORS
330
12
102
}
330
12
100
AcDbXrecord
280
     1
270
     1
271
     1
  0
XRECORD
  5
13
102
{ACAD_REACTORS
330
12
102
}
330
12
100
AcDbXrecord
280
     1
270
     1
271
     1
  0
XRECORD
  5
17
102
{ACAD_REACTORS
330
12
102
}
330
12
100
AcDbXrecord
280
     1
270
     1
271
     1
  0
XRECORD
  5
16
102
{ACAD_REACTORS
330
12
102
}
330
12
100
AcDbXrecord
280
     1
270
     1
271
     1
  0
XRECORD
  5
18
102
{ACAD_REACTORS
330
12
102
}
330
12
100
AcDbXrecord
280
     1
270
     1
271
     1
  0
XRECORD
  5
15
102
{ACAD_REACTORS
330
12
102
}
330
12
100
AcDbXrecord
280
     1
270
     1
271
     1
  0
XRECORD
  5
24
102
{ACAD_REACTORS
330
22
102
}
330
22
100
AcDbXrecord
280
     1
270
     1
271
     1
  0
XRECORD
  5
23
102
{ACAD_REACTORS
330
22
102
}
330
22
100
AcDbXrecord
280
     1
270
     1
271
     1
  0
XRECORD
  5
27
102
{ACAD_REACTORS
330
22
102
}
330
22
100
AcDbXrecord
280
     1
270
     1
271
     1
  0
XRECORD
  5
26
102
{ACAD_REACTORS
330
22
102
}
330
22
100
AcDbXrecord
280
     1
270
     1
271
     1
  0
XRECORD
  5
28
102
{ACAD_REACTORS
330
22
102
}
330
22
100
AcDbXrecord
280
     1
270
     1
271
     1
  0
XRECORD
  5
25
102
{ACAD_REACTORS
330
22
102
}
330
22
100
AcDbXrecord
280
     1
270
     1
271
     1
  0
XRECORD
  5
2B1
102
{ACAD_REACTORS
330
2B0
102
}
330
2B0
100
AcDbXrecord
280
     1
102
ACAD_ROUNDTRIP_2012_MLEADER_STYLE
298
     1
  0
XRECORD
  5
2B3
102
{ACAD_REACTORS
330
2B2
102
}
330
2B2
100
AcDbXrecord
280
     1
102
DISPLAYNAME
  1
Imperial24
102
FLAGS
 90
        0
  0
CELLSTYLEMAP
  5
27E
102
{ACAD_REACTORS
330
27D
102
}
330
27D
100
AcDbCellStyleMap
 90
        3
300
CELLSTYLE
  1
TABLEFORMAT_BEGIN
 90
        5
170
     1
 91
        0
 92
    32768
 62
   257
 93
        1
300
CONTENTFORMAT
  1
CONTENTFORMAT_BEGIN
 90
        0
 91
        0
 92
      512
 93
        0
300

 40
0.0
140
1.0
 94
        5
 62
     0
340
55
144
0.25
309
CONTENTFORMAT_END
171
     0
 94
        0
309
TABLEFORMAT_END
  1
CELLSTYLE_BEGIN
 90
        1
 91
        1
300
_TITLE
309
CELLSTYLE_END
300
CELLSTYLE
  1
TABLEFORMAT_BEGIN
 90
        5
170
     1
 91
        0
 92
        0
 62
   257
 93
        1
300
CONTENTFORMAT
  1
CONTENTFORMAT_BEGIN
 90
        0
 91
        0
 92
      512
 93
        0
300

 40
0.0
140
1.0
 94
        5
 62
     0
340
55
144
0.18
309
CONTENTFORMAT_END
171
     0
 94
        0
309
TABLEFORMAT_END
  1
CELLSTYLE_BEGIN
 90
        2
 91
        1
300
_HEADER
309
CELLSTYLE_END
300
CELLSTYLE
  1
TABLEFORMAT_BEGIN
 90
        5
170
     1
 91
        0
 92
        0
 62
   257
 93
        1
300
CONTENTFORMAT
  1
CONTENTFORMAT_BEGIN
 90
        0
 91
        0
 92
      512
 93
        0
300

 40
0.0
140
1.0
 94
        2
 62
     0
340
55
144
0.18
309
CONTENTFORMAT_END
171
     0
 94
        0
309
TABLEFORMAT_END
  1
CELLSTYLE_BEGIN
 90
        3
 91
        2
300
_DATA
309
CELLSTYLE_END
  0
XRECORD
  5
28B
102
{ACAD_REACTORS
330
28A
102
}
330
28A
100
AcDbXrecord
280
     1
102
RTVSPost2010Prop28
280
     1
102
RTVSPost2010PropOp28
 70
     1
102
RTVSPost2010Prop29
280
     1
102
RTVSPost2010PropOp29
 70
     1
102
RTVSPost2010Prop30
280
     0
102
RTVSPost2010PropOp30
 70
     1
102
RTVSPost2010Prop31
280
     0
102
RTVSPost2010PropOp31
 70
     1
102
RTVSPost2010Prop32
280
     0
102
RTVSPost2010PropOp32
 70
     1
102
RTVSPost2010Prop33
280
     0
102
RTVSPost2010PropOp33
 70
     1
102
RTVSPost2010Prop34
280
     0
102
RTVSPost2010PropOp34
 70
     1
102
RTVSPost2010Prop35
280
     0
102
RTVSPost2010PropOp35
 70
     1
102
RTVSPost2010Prop36
280
     0
102
RTVSPost2010PropOp36
 70
     1
102
RTVSPost2010Prop37
 90
       50
102
RTVSPost2010PropOp37
 70
     1
102
RTVSPost2010Prop38
140
0.0
102
RTVSPost2010PropOp38
 70
     1
102
RTVSPost2010Prop39
140
1.0
102
RTVSPost2010PropOp39
 70
     1
102
RTVSPost2010Prop40
 90
        0
102
RTVSPost2010PropOp40
 70
     1
102
RTVSPost2010Prop41ColorIndex
 90
       18
102
RTVSPost2010Prop41ColorRGB
 90
        0
102
RTVSPost2010PropOp41
 70
     1
102
RTVSPost2010Prop42
 90
       50
102
RTVSPost2010PropOp42
 70
     1
102
RTVSPost2010Prop43
 90
        3
102
RTVSPost2010PropOp43
 70
     1
102
RTVSPost2010Prop44ColorIndex
 90
        5
102
RTVSPost2010Prop44ColorRGB
 90
      255
102
RTVSPost2010PropOp44
 70
     1
102
RTVSPost2010Prop45
280
     0
102
RTVSPost2010PropOp45
 70
     1
102
RTVSPost2010Prop46
 90
       50
102
RTVSPost2010PropOp46
 70
     1
102
RTVSPost2010Prop47
 90
       50
102
RTVSPost2010PropOp47
 70
     1
102
RTVSPost2010Prop48
 90
       50
102
RTVSPost2010PropOp48
 70
     1
102
RTVSPost2010Prop49
280
     0
102
RTVSPost2010PropOp49
 70
     1
102
RTVSPost2010Prop50
 90
       50
102
RTVSPost2010PropOp50
 70
     1
102
RTVSPost2010Prop51ColorIndex
 90
      256
102
RTVSPost2010Prop51ColorRGB
 90
-16777216
102
RTVSPost2010PropOp51
 70
     0
102
RTVSPost2010Prop52
140
1.0
102
RTVSPost2010PropOp52
 70
     0
102
RTVSPost2010Prop53
 90
        2
102
RTVSPost2010PropOp53
 70
     1
102
RTVSPost2010Prop54
  1
strokes_ogs.tif
102
RTVSPost2010PropOp54
 70
     1
102
RTVSPost2010Prop55
280
     0
102
RTVSPost2010PropOp55
 70
     1
102
RTVSPost2010Prop56
140
1.0
102
RTVSPost2010PropOp56
 70
     1
102
RTVSPost2010Prop57
140
1.0
102
RTVSPost2010PropOp57
 70
     1
  0
XRECORD
  5
289
102
{ACAD_REACTORS
330
288
102
}
330
288
100
AcDbXrecord
280
     1
102
RTVSPost2010Prop28
280
     0
102
RTVSPost2010PropOp28
 70
     1
102
RTVSPost2010Prop29
280
     1
102
RTVSPost2010PropOp29
 70
     1
102
RTVSPost2010Prop30
280
     1
102
RTVSPost2010PropOp30
 70
     1
102
RTVSPost2010Prop31
280
     0
102
RTVSPost2010PropOp31
 70
     1
102
RTVSPost2010Prop32
280
     0
102
RTVSPost2010PropOp32
 70
     1
102
RTVSPost2010Prop33
280
     0
102
RTVSPost2010PropOp33
 70
     1
102
RTVSPost2010Prop34
280
     0
102
RTVSPost2010PropOp34
 70
     1
102
RTVSPost2010Prop35
280
     0
102
RTVSPost2010PropOp35
 70
     1
102
RTVSPost2010Prop36
280
     0
102
RTVSPost2010PropOp36
 70
     1
102
RTVSPost2010Prop37
 90
       50
102
RTVSPost2010PropOp37
 70
     1
102
RTVSPost2010Prop38
140
0.0
102
RTVSPost2010PropOp38
 70
     1
102
RTVSPost2010Prop39
140
1.0
102
RTVSPost2010PropOp39
 70
     1
102
RTVSPost2010Prop40
 90
        0
102
RTVSPost2010PropOp40
 70
     1
102
RTVSPost2010Prop41ColorIndex
 90
       18
102
RTVSPost2010Prop41ColorRGB
 90
        0
102
RTVSPost2010PropOp41
 70
     1
102
RTVSPost2010Prop42
 90
       50
102
RTVSPost2010PropOp42
 70
     1
102
RTVSPost2010Prop43
 90
        3
102
RTVSPost2010PropOp43
 70
     1
102
RTVSPost2010Prop44ColorIndex
 90
        5
102
RTVSPost2010Prop44ColorRGB
 90
      255
102
RTVSPost2010PropOp44
 70
     1
102
RTVSPost2010Prop45
280
     0
102
RTVSPost2010PropOp45
 70
     1
102
RTVSPost2010Prop46
 90
       50
102
RTVSPost2010PropOp46
 70
     1
102
RTVSPost2010Prop47
 90
       50
102
RTVSPost2010PropOp47
 70
     1
102
RTVSPost2010Prop48
 90
       50
102
RTVSPost2010PropOp48
 70
     1
102
RTVSPost2010Prop49
280
     0
102
RTVSPost2010PropOp49
 70
     1
102
RTVSPost2010Prop50
 90
       50
102
RTVSPost2010PropOp50
 70
     1
102
RTVSPost2010Prop51ColorIndex
 90
      256
102
RTVSPost2010Prop51ColorRGB
 90
-16777216
102
RTVSPost2010PropOp51
 70
     0
102
RTVSPost2010Prop52
140
1.0
102
RTVSPost2010PropOp52
 70
     0
102
RTVSPost2010Prop53
 90
        2
102
RTVSPost2010PropOp53
 70
     1
102
RTVSPost2010Prop54
  1
strokes_ogs.tif
102
RTVSPost2010PropOp54
 70
     1
102
RTVSPost2010Prop55
280
     0
102
RTVSPost2010PropOp55
 70
     1
102
RTVSPost2010Prop56
140
1.0
102
RTVSPost2010PropOp56
 70
     1
102
RTVSPost2010Prop57
140
1.0
102
RTVSPost2010PropOp57
 70
     1
  0
XRECORD
  5
297
102
{ACAD_REACTORS
330
296
102
}
330
296
100
AcDbXrecord
280
     1
102
RTVSPost2010Prop28
280
     0
102
RTVSPost2010PropOp28
 70
     1
102
RTVSPost2010Prop29
280
     1
102
RTVSPost2010PropOp29
 70
     1
102
RTVSPost2010Prop30
280
     1
102
RTVSPost2010PropOp30
 70
     1
102
RTVSPost2010Prop31
280
     0
102
RTVSPost2010PropOp31
 70
     1
102
RTVSPost2010Prop32
280
     0
102
RTVSPost2010PropOp32
 70
     1
102
RTVSPost2010Prop33
280
     0
102
RTVSPost2010PropOp33
 70
     1
102
RTVSPost2010Prop34
280
     0
102
RTVSPost2010PropOp34
 70
     1
102
RTVSPost2010Prop35
280
     0
102
RTVSPost2010PropOp35
 70
     1
102
RTVSPost2010Prop36
280
     0
102
RTVSPost2010PropOp36
 70
     1
102
RTVSPost2010Prop37
 90
       50
102
RTVSPost2010PropOp37
 70
     1
102
RTVSPost2010Prop38
140
0.0
102
RTVSPost2010PropOp38
 70
     1
102
RTVSPost2010Prop39
140
1.0
102
RTVSPost2010PropOp39
 70
     1
102
RTVSPost2010Prop40
 90
        0
102
RTVSPost2010PropOp40
 70
     1
102
RTVSPost2010Prop41ColorIndex
 90
       18
102
RTVSPost2010Prop41ColorRGB
 90
        0
102
RTVSPost2010PropOp41
 70
     1
102
RTVSPost2010Prop42
 90
       50
102
RTVSPost2010PropOp42
 70
     1
102
RTVSPost2010Prop43
 90
        3
102
RTVSPost2010PropOp43
 70
     1
102
RTVSPost2010Prop44ColorIndex
 90
        5
102
RTVSPost2010Prop44ColorRGB
 90
      255
102
RTVSPost2010PropOp44
 70
     1
102
RTVSPost2010Prop45
280
     0
102
RTVSPost2010PropOp45
 70
     1
102
RTVSPost2010Prop46
 90
       50
102
RTVSPost2010PropOp46
 70
     1
102
RTVSPost2010Prop47
 90
       50
102
RTVSPost2010PropOp47
 70
     1
102
RTVSPost2010Prop48
 90
       50
102
RTVSPost2010PropOp48
 70
     1
102
RTVSPost2010Prop49
280
     0
102
RTVSPost2010PropOp49
 70
     1
102
RTVSPost2010Prop50
 90
       50
102
RTVSPost2010PropOp50
 70
     1
102
RTVSPost2010Prop51ColorIndex
 90
      256
102
RTVSPost2010Prop51ColorRGB
 90
-16777216
102
RTVSPost2010PropOp51
 70
     0
102
RTVSPost2010Prop52
140
1.0
102
RTVSPost2010PropOp52
 70
     0
102
RTVSPost2010Prop53
 90
        2
102
RTVSPost2010PropOp53
 70
     1
102
RTVSPost2010Prop54
  1
strokes_ogs.tif
102
RTVSPost2010PropOp54
 70
     1
102
RTVSPost2010Prop55
280
     0
102
RTVSPost2010PropOp55
 70
     1
102
RTVSPost2010Prop56
140
1.0
102
RTVSPost2010PropOp56
 70
     1
102
RTVSPost2010Prop57
140
1.0
102
RTVSPost2010PropOp57
 70
     1
  0
XRECORD
  5
29F
102
{ACAD_REACTORS
330
29E
102
}
330
29E
100
AcDbXrecord
280
     1
102
RTVSPost2010Prop28
280
     0
102
RTVSPost2010PropOp28
 70
     1
102
RTVSPost2010Prop29
280
     1
102
RTVSPost2010PropOp29
 70
     1
102
RTVSPost2010Prop30
280
     1
102
RTVSPost2010PropOp30
 70
     1
102
RTVSPost2010Prop31
280
     0
102
RTVSPost2010PropOp31
 70
     1
102
RTVSPost2010Prop32
280
     0
102
RTVSPost2010PropOp32
 70
     1
102
RTVSPost2010Prop33
280
     0
102
RTVSPost2010PropOp33
 70
     1
102
RTVSPost2010Prop34
280
     0
102
RTVSPost2010PropOp34
 70
     1
102
RTVSPost2010Prop35
280
     0
102
RTVSPost2010PropOp35
 70
     1
102
RTVSPost2010Prop36
280
     0
102
RTVSPost2010PropOp36
 70
     1
102
RTVSPost2010Prop37
 90
       50
102
RTVSPost2010PropOp37
 70
     1
102
RTVSPost2010Prop38
140
0.0
102
RTVSPost2010PropOp38
 70
     1
102
RTVSPost2010Prop39
140
1.0
102
RTVSPost2010PropOp39
 70
     1
102
RTVSPost2010Prop40
 90
        0
102
RTVSPost2010PropOp40
 70
     1
102
RTVSPost2010Prop41ColorIndex
 90
       18
102
RTVSPost2010Prop41ColorRGB
 90
        0
102
RTVSPost2010PropOp41
 70
     1
102
RTVSPost2010Prop42
 90
       50
102
RTVSPost2010PropOp42
 70
     1
102
RTVSPost2010Prop43
 90
        3
102
RTVSPost2010PropOp43
 70
     1
102
RTVSPost2010Prop44ColorIndex
 90
        5
102
RTVSPost2010Prop44ColorRGB
 90
      255
102
RTVSPost2010PropOp44
 70
     1
102
RTVSPost2010Prop45
280
     0
102
RTVSPost2010PropOp45
 70
     1
102
RTVSPost2010Prop46
 90
       50
102
RTVSPost2010PropOp46
 70
     1
102
RTVSPost2010Prop47
 90
       50
102
RTVSPost2010PropOp47
 70
     1
102
RTVSPost2010Prop48
 90
       50
102
RTVSPost2010PropOp48
 70
     1
102
RTVSPost2010Prop49
280
     0
102
RTVSPost2010PropOp49
 70
     1
102
RTVSPost2010Prop50
 90
       50
102
RTVSPost2010PropOp50
 70
     1
102
RTVSPost2010Prop51ColorIndex
 90
      256
102
RTVSPost2010Prop51ColorRGB
 90
-16777216
102
RTVSPost2010PropOp51
 70
     0
102
RTVSPost2010Prop52
140
1.0
102
RTVSPost2010PropOp52
 70
     0
102
RTVSPost2010Prop53
 90
        2
102
RTVSPost2010PropOp53
 70
     1
102
RTVSPost2010Prop54
  1
strokes_ogs.tif
102
RTVSPost2010PropOp54
 70
     1
102
RTVSPost2010Prop55
280
     0
102
RTVSPost2010PropOp55
 70
     1
102
RTVSPost2010Prop56
140
1.0
102
RTVSPost2010PropOp56
 70
     1
102
RTVSPost2010Prop57
140
1.0
102
RTVSPost2010PropOp57
 70
     1
  0
XRECORD
  5
291
102
{ACAD_REACTORS
330
290
102
}
330
290
100
AcDbXrecord
280
     1
102
RTVSPost2010Prop28
280
     0
102
RTVSPost2010PropOp28
 70
     1
102
RTVSPost2010Prop29
280
     1
102
RTVSPost2010PropOp29
 70
     1
102
RTVSPost2010Prop30
280
     1
102
RTVSPost2010PropOp30
 70
     1
102
RTVSPost2010Prop31
280
     0
102
RTVSPost2010PropOp31
 70
     1
102
RTVSPost2010Prop32
280
     0
102
RTVSPost2010PropOp32
 70
     1
102
RTVSPost2010Prop33
280
     0
102
RTVSPost2010PropOp33
 70
     1
102
RTVSPost2010Prop34
280
     0
102
RTVSPost2010PropOp34
 70
     1
102
RTVSPost2010Prop35
280
     0
102
RTVSPost2010PropOp35
 70
     1
102
RTVSPost2010Prop36
280
     0
102
RTVSPost2010PropOp36
 70
     1
102
RTVSPost2010Prop37
 90
       50
102
RTVSPost2010PropOp37
 70
     1
102
RTVSPost2010Prop38
140
0.0
102
RTVSPost2010PropOp38
 70
     1
102
RTVSPost2010Prop39
140
1.0
102
RTVSPost2010PropOp39
 70
     1
102
RTVSPost2010Prop40
 90
        0
102
RTVSPost2010PropOp40
 70
     1
102
RTVSPost2010Prop41ColorIndex
 90
       18
102
RTVSPost2010Prop41ColorRGB
 90
        0
102
RTVSPost2010PropOp41
 70
     1
102
RTVSPost2010Prop42
 90
       50
102
RTVSPost2010PropOp42
 70
     1
102
RTVSPost2010Prop43
 90
        3
102
RTVSPost2010PropOp43
 70
     1
102
RTVSPost2010Prop44ColorIndex
 90
        5
102
RTVSPost2010Prop44ColorRGB
 90
      255
102
RTVSPost2010PropOp44
 70
     1
102
RTVSPost2010Prop45
280
     0
102
RTVSPost2010PropOp45
 70
     1
102
RTVSPost2010Prop46
 90
       50
102
RTVSPost2010PropOp46
 70
     1
102
RTVSPost2010Prop47
 90
       50
102
RTVSPost2010PropOp47
 70
     1
102
RTVSPost2010Prop48
 90
       50
102
RTVSPost2010PropOp48
 70
     1
102
RTVSPost2010Prop49
280
     0
102
RTVSPost2010PropOp49
 70
     1
102
RTVSPost2010Prop50
 90
       50
102
RTVSPost2010PropOp50
 70
     1
102
RTVSPost2010Prop51ColorIndex
 90
      256
102
RTVSPost2010Prop51ColorRGB
 90
-16777216
102
RTVSPost2010PropOp51
 70
     0
102
RTVSPost2010Prop52
140
1.0
102
RTVSPost2010PropOp52
 70
     0
102
RTVSPost2010Prop53
 90
        2
102
RTVSPost2010PropOp53
 70
     1
102
RTVSPost2010Prop54
  1
strokes_ogs.tif
102
RTVSPost2010PropOp54
 70
     1
102
RTVSPost2010Prop55
280
     0
102
RTVSPost2010PropOp55
 70
     1
102
RTVSPost2010Prop56
140
1.0
102
RTVSPost2010PropOp56
 70
     1
102
RTVSPost2010Prop57
140
1.0
102
RTVSPost2010PropOp57
 70
     1
  0
XRECORD
  5
295
102
{ACAD_REACTORS
330
294
102
}
330
294
100
AcDbXrecord
280
     1
102
RTVSPost2010Prop28
280
     0
102
RTVSPost2010PropOp28
 70
     1
102
RTVSPost2010Prop29
280
     1
102
RTVSPost2010PropOp29
 70
     1
102
RTVSPost2010Prop30
280
     1
102
RTVSPost2010PropOp30
 70
     1
102
RTVSPost2010Prop31
280
     0
102
RTVSPost2010PropOp31
 70
     1
102
RTVSPost2010Prop32
280
     0
102
RTVSPost2010PropOp32
 70
     1
102
RTVSPost2010Prop33
280
     0
102
RTVSPost2010PropOp33
 70
     1
102
RTVSPost2010Prop34
280
     0
102
RTVSPost2010PropOp34
 70
     1
102
RTVSPost2010Prop35
280
     0
102
RTVSPost2010PropOp35
 70
     1
102
RTVSPost2010Prop36
280
     0
102
RTVSPost2010PropOp36
 70
     1
102
RTVSPost2010Prop37
 90
       50
102
RTVSPost2010PropOp37
 70
     1
102
RTVSPost2010Prop38
140
0.0
102
RTVSPost2010PropOp38
 70
     1
102
RTVSPost2010Prop39
140
1.0
102
RTVSPost2010PropOp39
 70
     1
102
RTVSPost2010Prop40
 90
        0
102
RTVSPost2010PropOp40
 70
     1
102
RTVSPost2010Prop41ColorIndex
 90
       18
102
RTVSPost2010Prop41ColorRGB
 90
        0
102
RTVSPost2010PropOp41
 70
     1
102
RTVSPost2010Prop42
 90
       50
102
RTVSPost2010PropOp42
 70
     1
102
RTVSPost2010Prop43
 90
        3
102
RTVSPost2010PropOp43
 70
     1
102
RTVSPost2010Prop44ColorIndex
 90
        5
102
RTVSPost2010Prop44ColorRGB
 90
      255
102
RTVSPost2010PropOp44
 70
     1
102
RTVSPost2010Prop45
280
     0
102
RTVSPost2010PropOp45
 70
     1
102
RTVSPost2010Prop46
 90
       50
102
RTVSPost2010PropOp46
 70
     1
102
RTVSPost2010Prop47
 90
       50
102
RTVSPost2010PropOp47
 70
     1
102
RTVSPost2010Prop48
 90
       50
102
RTVSPost2010PropOp48
 70
     1
102
RTVSPost2010Prop49
280
     0
102
RTVSPost2010PropOp49
 70
     1
102
RTVSPost2010Prop50
 90
       50
102
RTVSPost2010PropOp50
 70
     1
102
RTVSPost2010Prop51ColorIndex
 90
      256
102
RTVSPost2010Prop51ColorRGB
 90
-16777216
102
RTVSPost2010PropOp51
 70
     0
102
RTVSPost2010Prop52
140
1.0
102
RTVSPost2010PropOp52
 70
     0
102
RTVSPost2010Prop53
 90
        2
102
RTVSPost2010PropOp53
 70
     1
102
RTVSPost2010Prop54
  1
strokes_ogs.tif
102
RTVSPost2010PropOp54
 70
     1
102
RTVSPost2010Prop55
280
     0
102
RTVSPost2010PropOp55
 70
     1
102
RTVSPost2010Prop56
140
1.0
102
RTVSPost2010PropOp56
 70
     1
102
RTVSPost2010Prop57
140
1.0
102
RTVSPost2010PropOp57
 70
     1
  0
XRECORD
  5
2AF
102
{ACAD_REACTORS
330
2AE
102
}
330
2AE
100
AcDbXrecord
280
     1
102
RTVSPost2010Prop28
280
     0
102
RTVSPost2010PropOp28
 70
     0
102
RTVSPost2010Prop29
280
     1
102
RTVSPost2010PropOp29
 70
     0
102
RTVSPost2010Prop30
280
     1
102
RTVSPost2010PropOp30
 70
     0
102
RTVSPost2010Prop31
280
     0
102
RTVSPost2010PropOp31
 70
     0
102
RTVSPost2010Prop32
280
     0
102
RTVSPost2010PropOp32
 70
     0
102
RTVSPost2010Prop33
280
     0
102
RTVSPost2010PropOp33
 70
     0
102
RTVSPost2010Prop34
280
     0
102
RTVSPost2010PropOp34
 70
     0
102
RTVSPost2010Prop35
280
     0
102
RTVSPost2010PropOp35
 70
     0
102
RTVSPost2010Prop36
280
     0
102
RTVSPost2010PropOp36
 70
     0
102
RTVSPost2010Prop37
 90
       50
102
RTVSPost2010PropOp37
 70
     0
102
RTVSPost2010Prop38
140
0.0
102
RTVSPost2010PropOp38
 70
     0
102
RTVSPost2010Prop39
140
1.0
102
RTVSPost2010PropOp39
 70
     0
102
RTVSPost2010Prop40
 90
        0
102
RTVSPost2010PropOp40
 70
     0
102
RTVSPost2010Prop41ColorIndex
 90
       18
102
RTVSPost2010Prop41ColorRGB
 90
        0
102
RTVSPost2010PropOp41
 70
     0
102
RTVSPost2010Prop42
 90
       50
102
RTVSPost2010PropOp42
 70
     0
102
RTVSPost2010Prop43
 90
        3
102
RTVSPost2010PropOp43
 70
     0
102
RTVSPost2010Prop44ColorIndex
 90
        5
102
RTVSPost2010Prop44ColorRGB
 90
      255
102
RTVSPost2010PropOp44
 70
     0
102
RTVSPost2010Prop45
280
     0
102
RTVSPost2010PropOp45
 70
     0
102
RTVSPost2010Prop46
 90
       50
102
RTVSPost2010PropOp46
 70
     0
102
RTVSPost2010Prop47
 90
       50
102
RTVSPost2010PropOp47
 70
     0
102
RTVSPost2010Prop48
 90
       50
102
RTVSPost2010PropOp48
 70
     0
102
RTVSPost2010Prop49
280
     0
102
RTVSPost2010PropOp49
 70
     0
102
RTVSPost2010Prop50
 90
       50
102
RTVSPost2010PropOp50
 70
     0
102
RTVSPost2010Prop51ColorIndex
 90
      256
102
RTVSPost2010Prop51ColorRGB
 90
-16777216
102
RTVSPost2010PropOp51
 70
     0
102
RTVSPost2010Prop52
140
1.0
102
RTVSPost2010PropOp52
 70
     0
102
RTVSPost2010Prop53
 90
        2
102
RTVSPost2010PropOp53
 70
     0
102
RTVSPost2010Prop54
  1
strokes_ogs.tif
102
RTVSPost2010PropOp54
 70
     0
102
RTVSPost2010Prop55
280
     0
102
RTVSPost2010PropOp55
 70
     0
102
RTVSPost2010Prop56
140
1.0
102
RTVSPost2010PropOp56
 70
     0
102
RTVSPost2010Prop57
140
1.0
102
RTVSPost2010PropOp57
 70
     0
  0
XRECORD
  5
29D
102
{ACAD_REACTORS
330
29C
102
}
330
29C
100
AcDbXrecord
280
     1
102
RTVSPost2010Prop28
280
     0
102
RTVSPost2010PropOp28
 70
     1
102
RTVSPost2010Prop29
280
     1
102
RTVSPost2010PropOp29
 70
     1
102
RTVSPost2010Prop30
280
     1
102
RTVSPost2010PropOp30
 70
     1
102
RTVSPost2010Prop31
280
     0
102
RTVSPost2010PropOp31
 70
     1
102
RTVSPost2010Prop32
280
     0
102
RTVSPost2010PropOp32
 70
     1
102
RTVSPost2010Prop33
280
     0
102
RTVSPost2010PropOp33
 70
     1
102
RTVSPost2010Prop34
280
     0
102
RTVSPost2010PropOp34
 70
     1
102
RTVSPost2010Prop35
280
     0
102
RTVSPost2010PropOp35
 70
     1
102
RTVSPost2010Prop36
280
     0
102
RTVSPost2010PropOp36
 70
     1
102
RTVSPost2010Prop37
 90
       50
102
RTVSPost2010PropOp37
 70
     1
102
RTVSPost2010Prop38
140
0.0
102
RTVSPost2010PropOp38
 70
     1
102
RTVSPost2010Prop39
140
1.0
102
RTVSPost2010PropOp39
 70
     1
102
RTVSPost2010Prop40
 90
        0
102
RTVSPost2010PropOp40
 70
     1
102
RTVSPost2010Prop41ColorIndex
 90
       18
102
RTVSPost2010Prop41ColorRGB
 90
        0
102
RTVSPost2010PropOp41
 70
     1
102
RTVSPost2010Prop42
 90
       50
102
RTVSPost2010PropOp42
 70
     1
102
RTVSPost2010Prop43
 90
        3
102
RTVSPost2010PropOp43
 70
     1
102
RTVSPost2010Prop44ColorIndex
 90
        5
102
RTVSPost2010Prop44ColorRGB
 90
      255
102
RTVSPost2010PropOp44
 70
     1
102
RTVSPost2010Prop45
280
     0
102
RTVSPost2010PropOp45
 70
     1
102
RTVSPost2010Prop46
 90
       50
102
RTVSPost2010PropOp46
 70
     1
102
RTVSPost2010Prop47
 90
       50
102
RTVSPost2010PropOp47
 70
     1
102
RTVSPost2010Prop48
 90
       50
102
RTVSPost2010PropOp48
 70
     1
102
RTVSPost2010Prop49
280
     0
102
RTVSPost2010PropOp49
 70
     1
102
RTVSPost2010Prop50
 90
       50
102
RTVSPost2010PropOp50
 70
     1
102
RTVSPost2010Prop51ColorIndex
 90
      256
102
RTVSPost2010Prop51ColorRGB
 90
-16777216
102
RTVSPost2010PropOp51
 70
     0
102
RTVSPost2010Prop52
140
1.0
102
RTVSPost2010PropOp52
 70
     0
102
RTVSPost2010Prop53
 90
        2
102
RTVSPost2010PropOp53
 70
     1
102
RTVSPost2010Prop54
  1
strokes_ogs.tif
102
RTVSPost2010PropOp54
 70
     1
102
RTVSPost2010Prop55
280
     0
102
RTVSPost2010PropOp55
 70
     1
102
RTVSPost2010Prop56
140
1.0
102
RTVSPost2010PropOp56
 70
     1
102
RTVSPost2010Prop57
140
1.0
102
RTVSPost2010PropOp57
 70
     1
  0
XRECORD
  5
281
102
{ACAD_REACTORS
330
280
102
}
330
280
100
AcDbXrecord
280
     1
102
RTVSPost2010Prop28
280
     0
102
RTVSPost2010PropOp28
 70
     1
102
RTVSPost2010Prop29
280
     1
102
RTVSPost2010PropOp29
 70
     1
102
RTVSPost2010Prop30
280
     1
102
RTVSPost2010PropOp30
 70
     1
102
RTVSPost2010Prop31
280
     0
102
RTVSPost2010PropOp31
 70
     1
102
RTVSPost2010Prop32
280
     0
102
RTVSPost2010PropOp32
 70
     1
102
RTVSPost2010Prop33
280
     0
102
RTVSPost2010PropOp33
 70
     1
102
RTVSPost2010Prop34
280
     0
102
RTVSPost2010PropOp34
 70
     1
102
RTVSPost2010Prop35
280
     0
102
RTVSPost2010PropOp35
 70
     1
102
RTVSPost2010Prop36
280
     0
102
RTVSPost2010PropOp36
 70
     1
102
RTVSPost2010Prop37
 90
       50
102
RTVSPost2010PropOp37
 70
     1
102
RTVSPost2010Prop38
140
0.0
102
RTVSPost2010PropOp38
 70
     1
102
RTVSPost2010Prop39
140
1.0
102
RTVSPost2010PropOp39
 70
     1
102
RTVSPost2010Prop40
 90
        0
102
RTVSPost2010PropOp40
 70
     1
102
RTVSPost2010Prop41ColorIndex
 90
       18
102
RTVSPost2010Prop41ColorRGB
 90
        0
102
RTVSPost2010PropOp41
 70
     1
102
RTVSPost2010Prop42
 90
       50
102
RTVSPost2010PropOp42
 70
     1
102
RTVSPost2010Prop43
 90
        3
102
RTVSPost2010PropOp43
 70
     1
102
RTVSPost2010Prop44ColorIndex
 90
        5
102
RTVSPost2010Prop44ColorRGB
 90
      255
102
RTVSPost2010PropOp44
 70
     1
102
RTVSPost2010Prop45
280
     0
102
RTVSPost2010PropOp45
 70
     1
102
RTVSPost2010Prop46
 90
       50
102
RTVSPost2010PropOp46
 70
     1
102
RTVSPost2010Prop47
 90
       50
102
RTVSPost2010PropOp47
 70
     1
102
RTVSPost2010Prop48
 90
       50
102
RTVSPost2010PropOp48
 70
     1
102
RTVSPost2010Prop49
280
     0
102
RTVSPost2010PropOp49
 70
     1
102
RTVSPost2010Prop50
 90
       50
102
RTVSPost2010PropOp50
 70
     1
102
RTVSPost2010Prop51ColorIndex
 90
      256
102
RTVSPost2010Prop51ColorRGB
 90
-16777216
102
RTVSPost2010PropOp51
 70
     0
102
RTVSPost2010Prop52
140
1.0
102
RTVSPost2010PropOp52
 70
     0
102
RTVSPost2010Prop53
 90
        2
102
RTVSPost2010PropOp53
 70
     1
102
RTVSPost2010Prop54
  1
strokes_ogs.tif
102
RTVSPost2010PropOp54
 70
     1
102
RTVSPost2010Prop55
280
     0
102
RTVSPost2010PropOp55
 70
     1
102
RTVSPost2010Prop56
140
1.0
102
RTVSPost2010PropOp56
 70
     1
102
RTVSPost2010Prop57
140
1.0
102
RTVSPost2010PropOp57
 70
     1
  0
XRECORD
  5
283
102
{ACAD_REACTORS
330
282
102
}
330
282
100
AcDbXrecord
280
     1
102
RTVSPost2010Prop28
280
     0
102
RTVSPost2010PropOp28
 70
     1
102
RTVSPost2010Prop29
280
     1
102
RTVSPost2010PropOp29
 70
     1
102
RTVSPost2010Prop30
280
     1
102
RTVSPost2010PropOp30
 70
     1
102
RTVSPost2010Prop31
280
     0
102
RTVSPost2010PropOp31
 70
     1
102
RTVSPost2010Prop32
280
     0
102
RTVSPost2010PropOp32
 70
     1
102
RTVSPost2010Prop33
280
     0
102
RTVSPost2010PropOp33
 70
     1
102
RTVSPost2010Prop34
280
     0
102
RTVSPost2010PropOp34
 70
     1
102
RTVSPost2010Prop35
280
     0
102
RTVSPost2010PropOp35
 70
     1
102
RTVSPost2010Prop36
280
     0
102
RTVSPost2010PropOp36
 70
     1
102
RTVSPost2010Prop37
 90
       50
102
RTVSPost2010PropOp37
 70
     1
102
RTVSPost2010Prop38
140
0.0
102
RTVSPost2010PropOp38
 70
     1
102
RTVSPost2010Prop39
140
1.0
102
RTVSPost2010PropOp39
 70
     1
102
RTVSPost2010Prop40
 90
        0
102
RTVSPost2010PropOp40
 70
     1
102
RTVSPost2010Prop41ColorIndex
 90
       18
102
RTVSPost2010Prop41ColorRGB
 90
        0
102
RTVSPost2010PropOp41
 70
     1
102
RTVSPost2010Prop42
 90
       50
102
RTVSPost2010PropOp42
 70
     1
102
RTVSPost2010Prop43
 90
        3
102
RTVSPost2010PropOp43
 70
     1
102
RTVSPost2010Prop44ColorIndex
 90
        5
102
RTVSPost2010Prop44ColorRGB
 90
      255
102
RTVSPost2010PropOp44
 70
     1
102
RTVSPost2010Prop45
280
     0
102
RTVSPost2010PropOp45
 70
     1
102
RTVSPost2010Prop46
 90
       50
102
RTVSPost2010PropOp46
 70
     1
102
RTVSPost2010Prop47
 90
       50
102
RTVSPost2010PropOp47
 70
     1
102
RTVSPost2010Prop48
 90
       50
102
RTVSPost2010PropOp48
 70
     1
102
RTVSPost2010Prop49
280
     0
102
RTVSPost2010PropOp49
 70
     1
102
RTVSPost2010Prop50
 90
       50
102
RTVSPost2010PropOp50
 70
     1
102
RTVSPost2010Prop51ColorIndex
 90
      256
102
RTVSPost2010Prop51ColorRGB
 90
-16777216
102
RTVSPost2010PropOp51
 70
     0
102
RTVSPost2010Prop52
140
1.0
102
RTVSPost2010PropOp52
 70
     0
102
RTVSPost2010Prop53
 90
        2
102
RTVSPost2010PropOp53
 70
     1
102
RTVSPost2010Prop54
  1
strokes_ogs.tif
102
RTVSPost2010PropOp54
 70
     1
102
RTVSPost2010Prop55
280
     0
102
RTVSPost2010PropOp55
 70
     1
102
RTVSPost2010Prop56
140
1.0
102
RTVSPost2010PropOp56
 70
     1
102
RTVSPost2010Prop57
140
1.0
102
RTVSPost2010PropOp57
 70
     1
  0
XRECORD
  5
285
102
{ACAD_REACTORS
330
284
102
}
330
284
100
AcDbXrecord
280
     1
102
RTVSPost2010Prop28
280
     0
102
RTVSPost2010PropOp28
 70
     1
102
RTVSPost2010Prop29
280
     1
102
RTVSPost2010PropOp29
 70
     1
102
RTVSPost2010Prop30
280
     1
102
RTVSPost2010PropOp30
 70
     1
102
RTVSPost2010Prop31
280
     0
102
RTVSPost2010PropOp31
 70
     1
102
RTVSPost2010Prop32
280
     0
102
RTVSPost2010PropOp32
 70
     1
102
RTVSPost2010Prop33
280
     0
102
RTVSPost2010PropOp33
 70
     1
102
RTVSPost2010Prop34
280
     0
102
RTVSPost2010PropOp34
 70
     1
102
RTVSPost2010Prop35
280
     0
102
RTVSPost2010PropOp35
 70
     1
102
RTVSPost2010Prop36
280
     0
102
RTVSPost2010PropOp36
 70
     1
102
RTVSPost2010Prop37
 90
       50
102
RTVSPost2010PropOp37
 70
     1
102
RTVSPost2010Prop38
140
0.0
102
RTVSPost2010PropOp38
 70
     1
102
RTVSPost2010Prop39
140
1.0
102
RTVSPost2010PropOp39
 70
     1
102
RTVSPost2010Prop40
 90
        0
102
RTVSPost2010PropOp40
 70
     1
102
RTVSPost2010Prop41ColorIndex
 90
       18
102
RTVSPost2010Prop41ColorRGB
 90
        0
102
RTVSPost2010PropOp41
 70
     1
102
RTVSPost2010Prop42
 90
       50
102
RTVSPost2010PropOp42
 70
     1
102
RTVSPost2010Prop43
 90
        3
102
RTVSPost2010PropOp43
 70
     1
102
RTVSPost2010Prop44ColorIndex
 90
        5
102
RTVSPost2010Prop44ColorRGB
 90
      255
102
RTVSPost2010PropOp44
 70
     1
102
RTVSPost2010Prop45
280
     0
102
RTVSPost2010PropOp45
 70
     1
102
RTVSPost2010Prop46
 90
       50
102
RTVSPost2010PropOp46
 70
     1
102
RTVSPost2010Prop47
 90
       50
102
RTVSPost2010PropOp47
 70
     1
102
RTVSPost2010Prop48
 90
       50
102
RTVSPost2010PropOp48
 70
     1
102
RTVSPost2010Prop49
280
     0
102
RTVSPost2010PropOp49
 70
     1
102
RTVSPost2010Prop50
 90
       50
102
RTVSPost2010PropOp50
 70
     1
102
RTVSPost2010Prop51ColorIndex
 90
      256
102
RTVSPost2010Prop51ColorRGB
 90
-16777216
102
RTVSPost2010PropOp51
 70
     0
102
RTVSPost2010Prop52
140
1.0
102
RTVSPost2010PropOp52
 70
     0
102
RTVSPost2010Prop53
 90
        2
102
RTVSPost2010PropOp53
 70
     1
102
RTVSPost2010Prop54
  1
strokes_ogs.tif
102
RTVSPost2010PropOp54
 70
     1
102
RTVSPost2010Prop55
280
     0
102
RTVSPost2010PropOp55
 70
     1
102
RTVSPost2010Prop56
140
1.0
102
RTVSPost2010PropOp56
 70
     1
102
RTVSPost2010Prop57
140
1.0
102
RTVSPost2010PropOp57
 70
     1
  0
XRECORD
  5
287
102
{ACAD_REACTORS
330
286
102
}
330
286
100
AcDbXrecord
280
     1
102
RTVSPost2010Prop28
280
     0
102
RTVSPost2010PropOp28
 70
     1
102
RTVSPost2010Prop29
280
     1
102
RTVSPost2010PropOp29
 70
     1
102
RTVSPost2010Prop30
280
     1
102
RTVSPost2010PropOp30
 70
     1
102
RTVSPost2010Prop31
280
     0
102
RTVSPost2010PropOp31
 70
     1
102
RTVSPost2010Prop32
280
     0
102
RTVSPost2010PropOp32
 70
     1
102
RTVSPost2010Prop33
280
     0
102
RTVSPost2010PropOp33
 70
     1
102
RTVSPost2010Prop34
280
     0
102
RTVSPost2010PropOp34
 70
     1
102
RTVSPost2010Prop35
280
     0
102
RTVSPost2010PropOp35
 70
     1
102
RTVSPost2010Prop36
280
     0
102
RTVSPost2010PropOp36
 70
     1
102
RTVSPost2010Prop37
 90
       50
102
RTVSPost2010PropOp37
 70
     1
102
RTVSPost2010Prop38
140
0.0
102
RTVSPost2010PropOp38
 70
     1
102
RTVSPost2010Prop39
140
1.0
102
RTVSPost2010PropOp39
 70
     1
102
RTVSPost2010Prop40
 90
        0
102
RTVSPost2010PropOp40
 70
     1
102
RTVSPost2010Prop41ColorIndex
 90
       18
102
RTVSPost2010Prop41ColorRGB
 90
        0
102
RTVSPost2010PropOp41
 70
     1
102
RTVSPost2010Prop42
 90
       50
102
RTVSPost2010PropOp42
 70
     1
102
RTVSPost2010Prop43
 90
        3
102
RTVSPost2010PropOp43
 70
     1
102
RTVSPost2010Prop44ColorIndex
 90
        5
102
RTVSPost2010Prop44ColorRGB
 90
      255
102
RTVSPost2010PropOp44
 70
     1
102
RTVSPost2010Prop45
280
     0
102
RTVSPost2010PropOp45
 70
     1
102
RTVSPost2010Prop46
 90
       50
102
RTVSPost2010PropOp46
 70
     1
102
RTVSPost2010Prop47
 90
       50
102
RTVSPost2010PropOp47
 70
     1
102
RTVSPost2010Prop48
 90
       50
102
RTVSPost2010PropOp48
 70
     1
102
RTVSPost2010Prop49
280
     0
102
RTVSPost2010PropOp49
 70
     1
102
RTVSPost2010Prop50
 90
       50
102
RTVSPost2010PropOp50
 70
     1
102
RTVSPost2010Prop51ColorIndex
 90
      256
102
RTVSPost2010Prop51ColorRGB
 90
-16777216
102
RTVSPost2010PropOp51
 70
     0
102
RTVSPost2010Prop52
140
1.0
102
RTVSPost2010PropOp52
 70
     0
102
RTVSPost2010Prop53
 90
        2
102
RTVSPost2010PropOp53
 70
     1
102
RTVSPost2010Prop54
  1
strokes_ogs.tif
102
RTVSPost2010PropOp54
 70
     1
102
RTVSPost2010Prop55
280
     0
102
RTVSPost2010PropOp55
 70
     1
102
RTVSPost2010Prop56
140
1.0
102
RTVSPost2010PropOp56
 70
     1
102
RTVSPost2010Prop57
140
1.0
102
RTVSPost2010PropOp57
 70
     1
  0
XRECORD
  5
28F
102
{ACAD_REACTORS
330
28E
102
}
330
28E
100
AcDbXrecord
280
     1
102
RTVSPost2010Prop28
280
     0
102
RTVSPost2010PropOp28
 70
     1
102
RTVSPost2010Prop29
280
     1
102
RTVSPost2010PropOp29
 70
     1
102
RTVSPost2010Prop30
280
     1
102
RTVSPost2010PropOp30
 70
     1
102
RTVSPost2010Prop31
280
     0
102
RTVSPost2010PropOp31
 70
     1
102
RTVSPost2010Prop32
280
     0
102
RTVSPost2010PropOp32
 70
     1
102
RTVSPost2010Prop33
280
     0
102
RTVSPost2010PropOp33
 70
     1
102
RTVSPost2010Prop34
280
     0
102
RTVSPost2010PropOp34
 70
     1
102
RTVSPost2010Prop35
280
     0
102
RTVSPost2010PropOp35
 70
     1
102
RTVSPost2010Prop36
280
     0
102
RTVSPost2010PropOp36
 70
     1
102
RTVSPost2010Prop37
 90
       50
102
RTVSPost2010PropOp37
 70
     1
102
RTVSPost2010Prop38
140
0.0
102
RTVSPost2010PropOp38
 70
     1
102
RTVSPost2010Prop39
140
1.0
102
RTVSPost2010PropOp39
 70
     1
102
RTVSPost2010Prop40
 90
        0
102
RTVSPost2010PropOp40
 70
     1
102
RTVSPost2010Prop41ColorIndex
 90
       18
102
RTVSPost2010Prop41ColorRGB
 90
        0
102
RTVSPost2010PropOp41
 70
     1
102
RTVSPost2010Prop42
 90
       50
102
RTVSPost2010PropOp42
 70
     1
102
RTVSPost2010Prop43
 90
        3
102
RTVSPost2010PropOp43
 70
     1
102
RTVSPost2010Prop44ColorIndex
 90
        5
102
RTVSPost2010Prop44ColorRGB
 90
      255
102
RTVSPost2010PropOp44
 70
     1
102
RTVSPost2010Prop45
280
     0
102
RTVSPost2010PropOp45
 70
     1
102
RTVSPost2010Prop46
 90
       50
102
RTVSPost2010PropOp46
 70
     1
102
RTVSPost2010Prop47
 90
       50
102
RTVSPost2010PropOp47
 70
     1
102
RTVSPost2010Prop48
 90
       50
102
RTVSPost2010PropOp48
 70
     1
102
RTVSPost2010Prop49
280
     0
102
RTVSPost2010PropOp49
 70
     1
102
RTVSPost2010Prop50
 90
       50
102
RTVSPost2010PropOp50
 70
     1
102
RTVSPost2010Prop51ColorIndex
 90
      256
102
RTVSPost2010Prop51ColorRGB
 90
-16777216
102
RTVSPost2010PropOp51
 70
     0
102
RTVSPost2010Prop52
140
1.0
102
RTVSPost2010PropOp52
 70
     0
102
RTVSPost2010Prop53
 90
        2
102
RTVSPost2010PropOp53
 70
     1
102
RTVSPost2010Prop54
  1
strokes_ogs.tif
102
RTVSPost2010PropOp54
 70
     1
102
RTVSPost2010Prop55
280
     0
102
RTVSPost2010PropOp55
 70
     1
102
RTVSPost2010Prop56
140
1.0
102
RTVSPost2010PropOp56
 70
     1
102
RTVSPost2010Prop57
140
1.0
102
RTVSPost2010PropOp57
 70
     1
  0
XRECORD
  5
2AB
102
{ACAD_REACTORS
330
2AA
102
}
330
2AA
100
AcDbXrecord
280
     1
102
RTVSPost2010Prop28
280
     0
102
RTVSPost2010PropOp28
 70
     0
102
RTVSPost2010Prop29
280
     1
102
RTVSPost2010PropOp29
 70
     0
102
RTVSPost2010Prop30
280
     1
102
RTVSPost2010PropOp30
 70
     0
102
RTVSPost2010Prop31
280
     0
102
RTVSPost2010PropOp31
 70
     0
102
RTVSPost2010Prop32
280
     0
102
RTVSPost2010PropOp32
 70
     0
102
RTVSPost2010Prop33
280
     0
102
RTVSPost2010PropOp33
 70
     0
102
RTVSPost2010Prop34
280
     0
102
RTVSPost2010PropOp34
 70
     0
102
RTVSPost2010Prop35
280
     0
102
RTVSPost2010PropOp35
 70
     0
102
RTVSPost2010Prop36
280
     0
102
RTVSPost2010PropOp36
 70
     0
102
RTVSPost2010Prop37
 90
       50
102
RTVSPost2010PropOp37
 70
     0
102
RTVSPost2010Prop38
140
0.0
102
RTVSPost2010PropOp38
 70
     0
102
RTVSPost2010Prop39
140
1.0
102
RTVSPost2010PropOp39
 70
     0
102
RTVSPost2010Prop40
 90
        0
102
RTVSPost2010PropOp40
 70
     0
102
RTVSPost2010Prop41ColorIndex
 90
       18
102
RTVSPost2010Prop41ColorRGB
 90
        0
102
RTVSPost2010PropOp41
 70
     0
102
RTVSPost2010Prop42
 90
       50
102
RTVSPost2010PropOp42
 70
     0
102
RTVSPost2010Prop43
 90
        3
102
RTVSPost2010PropOp43
 70
     0
102
RTVSPost2010Prop44ColorIndex
 90
        5
102
RTVSPost2010Prop44ColorRGB
 90
      255
102
RTVSPost2010PropOp44
 70
     0
102
RTVSPost2010Prop45
280
     0
102
RTVSPost2010PropOp45
 70
     0
102
RTVSPost2010Prop46
 90
       50
102
RTVSPost2010PropOp46
 70
     0
102
RTVSPost2010Prop47
 90
       50
102
RTVSPost2010PropOp47
 70
     0
102
RTVSPost2010Prop48
 90
       50
102
RTVSPost2010PropOp48
 70
     0
102
RTVSPost2010Prop49
280
     0
102
RTVSPost2010PropOp49
 70
     0
102
RTVSPost2010Prop50
 90
       50
102
RTVSPost2010PropOp50
 70
     0
102
RTVSPost2010Prop51ColorIndex
 90
      256
102
RTVSPost2010Prop51ColorRGB
 90
-16777216
102
RTVSPost2010PropOp51
 70
     0
102
RTVSPost2010Prop52
140
1.0
102
RTVSPost2010PropOp52
 70
     0
102
RTVSPost2010Prop53
 90
        2
102
RTVSPost2010PropOp53
 70
     0
102
RTVSPost2010Prop54
  1
strokes_ogs.tif
102
RTVSPost2010PropOp54
 70
     0
102
RTVSPost2010Prop55
280
     0
102
RTVSPost2010PropOp55
 70
     0
102
RTVSPost2010Prop56
140
1.0
102
RTVSPost2010PropOp56
 70
     0
102
RTVSPost2010Prop57
140
1.0
102
RTVSPost2010PropOp57
 70
     0
  0
XRECORD
  5
29B
102
{ACAD_REACTORS
330
29A
102
}
330
29A
100
AcDbXrecord
280
     1
102
RTVSPost2010Prop28
280
     0
102
RTVSPost2010PropOp28
 70
     1
102
RTVSPost2010Prop29
280
     1
102
RTVSPost2010PropOp29
 70
     1
102
RTVSPost2010Prop30
280
     1
102
RTVSPost2010PropOp30
 70
     1
102
RTVSPost2010Prop31
280
     0
102
RTVSPost2010PropOp31
 70
     1
102
RTVSPost2010Prop32
280
     0
102
RTVSPost2010PropOp32
 70
     1
102
RTVSPost2010Prop33
280
     0
102
RTVSPost2010PropOp33
 70
     1
102
RTVSPost2010Prop34
280
     0
102
RTVSPost2010PropOp34
 70
     1
102
RTVSPost2010Prop35
280
     0
102
RTVSPost2010PropOp35
 70
     1
102
RTVSPost2010Prop36
280
     0
102
RTVSPost2010PropOp36
 70
     1
102
RTVSPost2010Prop37
 90
       50
102
RTVSPost2010PropOp37
 70
     1
102
RTVSPost2010Prop38
140
0.0
102
RTVSPost2010PropOp38
 70
     1
102
RTVSPost2010Prop39
140
1.0
102
RTVSPost2010PropOp39
 70
     1
102
RTVSPost2010Prop40
 90
        0
102
RTVSPost2010PropOp40
 70
     1
102
RTVSPost2010Prop41ColorIndex
 90
       18
102
RTVSPost2010Prop41ColorRGB
 90
        0
102
RTVSPost2010PropOp41
 70
     1
102
RTVSPost2010Prop42
 90
       50
102
RTVSPost2010PropOp42
 70
     1
102
RTVSPost2010Prop43
 90
        3
102
RTVSPost2010PropOp43
 70
     1
102
RTVSPost2010Prop44ColorIndex
 90
        5
102
RTVSPost2010Prop44ColorRGB
 90
      255
102
RTVSPost2010PropOp44
 70
     1
102
RTVSPost2010Prop45
280
     0
102
RTVSPost2010PropOp45
 70
     1
102
RTVSPost2010Prop46
 90
       50
102
RTVSPost2010PropOp46
 70
     1
102
RTVSPost2010Prop47
 90
       50
102
RTVSPost2010PropOp47
 70
     1
102
RTVSPost2010Prop48
 90
       50
102
RTVSPost2010PropOp48
 70
     1
102
RTVSPost2010Prop49
280
     0
102
RTVSPost2010PropOp49
 70
     1
102
RTVSPost2010Prop50
 90
       50
102
RTVSPost2010PropOp50
 70
     1
102
RTVSPost2010Prop51ColorIndex
 90
      256
102
RTVSPost2010Prop51ColorRGB
 90
-16777216
102
RTVSPost2010PropOp51
 70
     0
102
RTVSPost2010Prop52
140
1.0
102
RTVSPost2010PropOp52
 70
     0
102
RTVSPost2010Prop53
 90
        2
102
RTVSPost2010PropOp53
 70
     1
102
RTVSPost2010Prop54
  1
strokes_ogs.tif
102
RTVSPost2010PropOp54
 70
     1
102
RTVSPost2010Prop55
280
     0
102
RTVSPost2010PropOp55
 70
     1
102
RTVSPost2010Prop56
140
1.0
102
RTVSPost2010PropOp56
 70
     1
102
RTVSPost2010Prop57
140
1.0
102
RTVSPost2010PropOp57
 70
     1
  0
XRECORD
  5
2AD
102
{ACAD_REACTORS
330
2AC
102
}
330
2AC
100
AcDbXrecord
280
     1
102
RTVSPost2010Prop28
280
     0
102
RTVSPost2010PropOp28
 70
     0
102
RTVSPost2010Prop29
280
     1
102
RTVSPost2010PropOp29
 70
     0
102
RTVSPost2010Prop30
280
     1
102
RTVSPost2010PropOp30
 70
     0
102
RTVSPost2010Prop31
280
     0
102
RTVSPost2010PropOp31
 70
     0
102
RTVSPost2010Prop32
280
     0
102
RTVSPost2010PropOp32
 70
     0
102
RTVSPost2010Prop33
280
     0
102
RTVSPost2010PropOp33
 70
     0
102
RTVSPost2010Prop34
280
     0
102
RTVSPost2010PropOp34
 70
     0
102
RTVSPost2010Prop35
280
     0
102
RTVSPost2010PropOp35
 70
     0
102
RTVSPost2010Prop36
280
     0
102
RTVSPost2010PropOp36
 70
     0
102
RTVSPost2010Prop37
 90
       50
102
RTVSPost2010PropOp37
 70
     0
102
RTVSPost2010Prop38
140
0.0
102
RTVSPost2010PropOp38
 70
     0
102
RTVSPost2010Prop39
140
1.0
102
RTVSPost2010PropOp39
 70
     0
102
RTVSPost2010Prop40
 90
        0
102
RTVSPost2010PropOp40
 70
     0
102
RTVSPost2010Prop41ColorIndex
 90
       18
102
RTVSPost2010Prop41ColorRGB
 90
        0
102
RTVSPost2010PropOp41
 70
     0
102
RTVSPost2010Prop42
 90
       50
102
RTVSPost2010PropOp42
 70
     0
102
RTVSPost2010Prop43
 90
        3
102
RTVSPost2010PropOp43
 70
     0
102
RTVSPost2010Prop44ColorIndex
 90
        5
102
RTVSPost2010Prop44ColorRGB
 90
      255
102
RTVSPost2010PropOp44
 70
     0
102
RTVSPost2010Prop45
280
     0
102
RTVSPost2010PropOp45
 70
     0
102
RTVSPost2010Prop46
 90
       50
102
RTVSPost2010PropOp46
 70
     0
102
RTVSPost2010Prop47
 90
       50
102
RTVSPost2010PropOp47
 70
     0
102
RTVSPost2010Prop48
 90
       50
102
RTVSPost2010PropOp48
 70
     0
102
RTVSPost2010Prop49
280
     0
102
RTVSPost2010PropOp49
 70
     0
102
RTVSPost2010Prop50
 90
       50
102
RTVSPost2010PropOp50
 70
     0
102
RTVSPost2010Prop51ColorIndex
 90
      256
102
RTVSPost2010Prop51ColorRGB
 90
-16777216
102
RTVSPost2010PropOp51
 70
     0
102
RTVSPost2010Prop52
140
1.0
102
RTVSPost2010PropOp52
 70
     0
102
RTVSPost2010Prop53
 90
        2
102
RTVSPost2010PropOp53
 70
     0
102
RTVSPost2010Prop54
  1
strokes_ogs.tif
102
RTVSPost2010PropOp54
 70
     0
102
RTVSPost2010Prop55
280
     0
102
RTVSPost2010PropOp55
 70
     0
102
RTVSPost2010Prop56
140
1.0
102
RTVSPost2010PropOp56
 70
     0
102
RTVSPost2010Prop57
140
1.0
102
RTVSPost2010PropOp57
 70
     0
  0
XRECORD
  5
293
102
{ACAD_REACTORS
330
292
102
}
330
292
100
AcDbXrecord
280
     1
102
RTVSPost2010Prop28
280
     0
102
RTVSPost2010PropOp28
 70
     1
102
RTVSPost2010Prop29
280
     1
102
RTVSPost2010PropOp29
 70
     1
102
RTVSPost2010Prop30
280
     1
102
RTVSPost2010PropOp30
 70
     1
102
RTVSPost2010Prop31
280
     0
102
RTVSPost2010PropOp31
 70
     1
102
RTVSPost2010Prop32
280
     0
102
RTVSPost2010PropOp32
 70
     1
102
RTVSPost2010Prop33
280
     0
102
RTVSPost2010PropOp33
 70
     1
102
RTVSPost2010Prop34
280
     0
102
RTVSPost2010PropOp34
 70
     1
102
RTVSPost2010Prop35
280
     0
102
RTVSPost2010PropOp35
 70
     1
102
RTVSPost2010Prop36
280
     0
102
RTVSPost2010PropOp36
 70
     1
102
RTVSPost2010Prop37
 90
       50
102
RTVSPost2010PropOp37
 70
     1
102
RTVSPost2010Prop38
140
0.0
102
RTVSPost2010PropOp38
 70
     1
102
RTVSPost2010Prop39
140
1.0
102
RTVSPost2010PropOp39
 70
     1
102
RTVSPost2010Prop40
 90
        0
102
RTVSPost2010PropOp40
 70
     1
102
RTVSPost2010Prop41ColorIndex
 90
       18
102
RTVSPost2010Prop41ColorRGB
 90
        0
102
RTVSPost2010PropOp41
 70
     1
102
RTVSPost2010Prop42
 90
       50
102
RTVSPost2010PropOp42
 70
     1
102
RTVSPost2010Prop43
 90
        3
102
RTVSPost2010PropOp43
 70
     1
102
RTVSPost2010Prop44ColorIndex
 90
        5
102
RTVSPost2010Prop44ColorRGB
 90
      255
102
RTVSPost2010PropOp44
 70
     1
102
RTVSPost2010Prop45
280
     0
102
RTVSPost2010PropOp45
 70
     1
102
RTVSPost2010Prop46
 90
       50
102
RTVSPost2010PropOp46
 70
     1
102
RTVSPost2010Prop47
 90
       50
102
RTVSPost2010PropOp47
 70
     1
102
RTVSPost2010Prop48
 90
       50
102
RTVSPost2010PropOp48
 70
     1
102
RTVSPost2010Prop49
280
     0
102
RTVSPost2010PropOp49
 70
     1
102
RTVSPost2010Prop50
 90
       50
102
RTVSPost2010PropOp50
 70
     1
102
RTVSPost2010Prop51ColorIndex
 90
      256
102
RTVSPost2010Prop51ColorRGB
 90
-16777216
102
RTVSPost2010PropOp51
 70
     0
102
RTVSPost2010Prop52
140
1.0
102
RTVSPost2010PropOp52
 70
     0
102
RTVSPost2010Prop53
 90
        2
102
RTVSPost2010PropOp53
 70
     1
102
RTVSPost2010Prop54
  1
strokes_ogs.tif
102
RTVSPost2010PropOp54
 70
     1
102
RTVSPost2010Prop55
280
     0
102
RTVSPost2010PropOp55
 70
     1
102
RTVSPost2010Prop56
140
1.0
102
RTVSPost2010PropOp56
 70
     1
102
RTVSPost2010Prop57
140
1.0
102
RTVSPost2010PropOp57
 70
     1
  0
XRECORD
  5
2A9
102
{ACAD_REACTORS
330
2A8
102
}
330
2A8
100
AcDbXrecord
280
     1
102
RTVSPost2010Prop28
280
     0
102
RTVSPost2010PropOp28
 70
     1
102
RTVSPost2010Prop29
280
     1
102
RTVSPost2010PropOp29
 70
     1
102
RTVSPost2010Prop30
280
     1
102
RTVSPost2010PropOp30
 70
     1
102
RTVSPost2010Prop31
280
     0
102
RTVSPost2010PropOp31
 70
     1
102
RTVSPost2010Prop32
280
     0
102
RTVSPost2010PropOp32
 70
     1
102
RTVSPost2010Prop33
280
     0
102
RTVSPost2010PropOp33
 70
     1
102
RTVSPost2010Prop34
280
     0
102
RTVSPost2010PropOp34
 70
     1
102
RTVSPost2010Prop35
280
     0
102
RTVSPost2010PropOp35
 70
     1
102
RTVSPost2010Prop36
280
     0
102
RTVSPost2010PropOp36
 70
     1
102
RTVSPost2010Prop37
 90
       50
102
RTVSPost2010PropOp37
 70
     1
102
RTVSPost2010Prop38
140
0.0
102
RTVSPost2010PropOp38
 70
     1
102
RTVSPost2010Prop39
140
1.0
102
RTVSPost2010PropOp39
 70
     1
102
RTVSPost2010Prop40
 90
        0
102
RTVSPost2010PropOp40
 70
     1
102
RTVSPost2010Prop41ColorIndex
 90
       18
102
RTVSPost2010Prop41ColorRGB
 90
        0
102
RTVSPost2010PropOp41
 70
     1
102
RTVSPost2010Prop42
 90
       50
102
RTVSPost2010PropOp42
 70
     1
102
RTVSPost2010Prop43
 90
        3
102
RTVSPost2010PropOp43
 70
     1
102
RTVSPost2010Prop44ColorIndex
 90
        5
102
RTVSPost2010Prop44ColorRGB
 90
      255
102
RTVSPost2010PropOp44
 70
     1
102
RTVSPost2010Prop45
280
     0
102
RTVSPost2010PropOp45
 70
     1
102
RTVSPost2010Prop46
 90
       50
102
RTVSPost2010PropOp46
 70
     1
102
RTVSPost2010Prop47
 90
       50
102
RTVSPost2010PropOp47
 70
     1
102
RTVSPost2010Prop48
 90
       50
102
RTVSPost2010PropOp48
 70
     1
102
RTVSPost2010Prop49
280
     0
102
RTVSPost2010PropOp49
 70
     1
102
RTVSPost2010Prop50
 90
       50
102
RTVSPost2010PropOp50
 70
     1
102
RTVSPost2010Prop51ColorIndex
 90
      256
102
RTVSPost2010Prop51ColorRGB
 90
-16777216
102
RTVSPost2010PropOp51
 70
     0
102
RTVSPost2010Prop52
140
1.0
102
RTVSPost2010PropOp52
 70
     0
102
RTVSPost2010Prop53
 90
        2
102
RTVSPost2010PropOp53
 70
     1
102
RTVSPost2010Prop54
  1
strokes_ogs.tif
102
RTVSPost2010PropOp54
 70
     1
102
RTVSPost2010Prop55
280
     0
102
RTVSPost2010PropOp55
 70
     1
102
RTVSPost2010Prop56
140
1.0
102
RTVSPost2010PropOp56
 70
     1
102
RTVSPost2010Prop57
140
1.0
102
RTVSPost2010PropOp57
 70
     1
  0
XRECORD
  5
2A7
102
{ACAD_REACTORS
330
2A6
102
}
330
2A6
100
AcDbXrecord
280
     1
102
RTVSPost2010Prop28
280
     0
102
RTVSPost2010PropOp28
 70
     1
102
RTVSPost2010Prop29
280
     1
102
RTVSPost2010PropOp29
 70
     1
102
RTVSPost2010Prop30
280
     1
102
RTVSPost2010PropOp30
 70
     1
102
RTVSPost2010Prop31
280
     0
102
RTVSPost2010PropOp31
 70
     1
102
RTVSPost2010Prop32
280
     0
102
RTVSPost2010PropOp32
 70
     1
102
RTVSPost2010Prop33
280
     0
102
RTVSPost2010PropOp33
 70
     1
102
RTVSPost2010Prop34
280
     0
102
RTVSPost2010PropOp34
 70
     1
102
RTVSPost2010Prop35
280
     0
102
RTVSPost2010PropOp35
 70
     1
102
RTVSPost2010Prop36
280
     0
102
RTVSPost2010PropOp36
 70
     1
102
RTVSPost2010Prop37
 90
       50
102
RTVSPost2010PropOp37
 70
     1
102
RTVSPost2010Prop38
140
0.0
102
RTVSPost2010PropOp38
 70
     1
102
RTVSPost2010Prop39
140
1.0
102
RTVSPost2010PropOp39
 70
     1
102
RTVSPost2010Prop40
 90
        0
102
RTVSPost2010PropOp40
 70
     1
102
RTVSPost2010Prop41ColorIndex
 90
       18
102
RTVSPost2010Prop41ColorRGB
 90
        0
102
RTVSPost2010PropOp41
 70
     1
102
RTVSPost2010Prop42
 90
       50
102
RTVSPost2010PropOp42
 70
     1
102
RTVSPost2010Prop43
 90
        3
102
RTVSPost2010PropOp43
 70
     1
102
RTVSPost2010Prop44ColorIndex
 90
        5
102
RTVSPost2010Prop44ColorRGB
 90
      255
102
RTVSPost2010PropOp44
 70
     1
102
RTVSPost2010Prop45
280
     0
102
RTVSPost2010PropOp45
 70
     1
102
RTVSPost2010Prop46
 90
       50
102
RTVSPost2010PropOp46
 70
     1
102
RTVSPost2010Prop47
 90
       50
102
RTVSPost2010PropOp47
 70
     1
102
RTVSPost2010Prop48
 90
       50
102
RTVSPost2010PropOp48
 70
     1
102
RTVSPost2010Prop49
280
     0
102
RTVSPost2010PropOp49
 70
     1
102
RTVSPost2010Prop50
 90
       50
102
RTVSPost2010PropOp50
 70
     1
102
RTVSPost2010Prop51ColorIndex
 90
      256
102
RTVSPost2010Prop51ColorRGB
 90
-16777216
102
RTVSPost2010PropOp51
 70
     0
102
RTVSPost2010Prop52
140
1.0
102
RTVSPost2010PropOp52
 70
     0
102
RTVSPost2010Prop53
 90
        2
102
RTVSPost2010PropOp53
 70
     1
102
RTVSPost2010Prop54
  1
strokes_ogs.tif
102
RTVSPost2010PropOp54
 70
     1
102
RTVSPost2010Prop55
280
     0
102
RTVSPost2010PropOp55
 70
     1
102
RTVSPost2010Prop56
140
1.0
102
RTVSPost2010PropOp56
 70
     1
102
RTVSPost2010Prop57
140
1.0
102
RTVSPost2010PropOp57
 70
     1
  0
XRECORD
  5
2A1
102
{ACAD_REACTORS
330
2A0
102
}
330
2A0
100
AcDbXrecord
280
     1
102
RTVSPost2010Prop28
280
     0
102
RTVSPost2010PropOp28
 70
     1
102
RTVSPost2010Prop29
280
     1
102
RTVSPost2010PropOp29
 70
     1
102
RTVSPost2010Prop30
280
     1
102
RTVSPost2010PropOp30
 70
     1
102
RTVSPost2010Prop31
280
     0
102
RTVSPost2010PropOp31
 70
     1
102
RTVSPost2010Prop32
280
     0
102
RTVSPost2010PropOp32
 70
     1
102
RTVSPost2010Prop33
280
     0
102
RTVSPost2010PropOp33
 70
     1
102
RTVSPost2010Prop34
280
     0
102
RTVSPost2010PropOp34
 70
     1
102
RTVSPost2010Prop35
280
     0
102
RTVSPost2010PropOp35
 70
     1
102
RTVSPost2010Prop36
280
     0
102
RTVSPost2010PropOp36
 70
     1
102
RTVSPost2010Prop37
 90
       50
102
RTVSPost2010PropOp37
 70
     1
102
RTVSPost2010Prop38
140
0.0
102
RTVSPost2010PropOp38
 70
     1
102
RTVSPost2010Prop39
140
1.0
102
RTVSPost2010PropOp39
 70
     1
102
RTVSPost2010Prop40
 90
        0
102
RTVSPost2010PropOp40
 70
     1
102
RTVSPost2010Prop41ColorIndex
 90
       18
102
RTVSPost2010Prop41ColorRGB
 90
        0
102
RTVSPost2010PropOp41
 70
     1
102
RTVSPost2010Prop42
 90
       50
102
RTVSPost2010PropOp42
 70
     1
102
RTVSPost2010Prop43
 90
        3
102
RTVSPost2010PropOp43
 70
     1
102
RTVSPost2010Prop44ColorIndex
 90
        5
102
RTVSPost2010Prop44ColorRGB
 90
      255
102
RTVSPost2010PropOp44
 70
     1
102
RTVSPost2010Prop45
280
     0
102
RTVSPost2010PropOp45
 70
     1
102
RTVSPost2010Prop46
 90
       50
102
RTVSPost2010PropOp46
 70
     1
102
RTVSPost2010Prop47
 90
       50
102
RTVSPost2010PropOp47
 70
     1
102
RTVSPost2010Prop48
 90
       50
102
RTVSPost2010PropOp48
 70
     1
102
RTVSPost2010Prop49
280
     0
102
RTVSPost2010PropOp49
 70
     1
102
RTVSPost2010Prop50
 90
       50
102
RTVSPost2010PropOp50
 70
     1
102
RTVSPost2010Prop51ColorIndex
 90
      256
102
RTVSPost2010Prop51ColorRGB
 90
-16777216
102
RTVSPost2010PropOp51
 70
     0
102
RTVSPost2010Prop52
140
1.0
102
RTVSPost2010PropOp52
 70
     0
102
RTVSPost2010Prop53
 90
        2
102
RTVSPost2010PropOp53
 70
     1
102
RTVSPost2010Prop54
  1
strokes_ogs.tif
102
RTVSPost2010PropOp54
 70
     1
102
RTVSPost2010Prop55
280
     0
102
RTVSPost2010PropOp55
 70
     1
102
RTVSPost2010Prop56
140
1.0
102
RTVSPost2010PropOp56
 70
     1
102
RTVSPost2010Prop57
140
1.0
102
RTVSPost2010PropOp57
 70
     1
  0
XRECORD
  5
2A3
102
{ACAD_REACTORS
330
2A2
102
}
330
2A2
100
AcDbXrecord
280
     1
102
RTVSPost2010Prop28
280
     0
102
RTVSPost2010PropOp28
 70
     1
102
RTVSPost2010Prop29
280
     1
102
RTVSPost2010PropOp29
 70
     1
102
RTVSPost2010Prop30
280
     1
102
RTVSPost2010PropOp30
 70
     1
102
RTVSPost2010Prop31
280
     0
102
RTVSPost2010PropOp31
 70
     1
102
RTVSPost2010Prop32
280
     0
102
RTVSPost2010PropOp32
 70
     1
102
RTVSPost2010Prop33
280
     0
102
RTVSPost2010PropOp33
 70
     1
102
RTVSPost2010Prop34
280
     0
102
RTVSPost2010PropOp34
 70
     1
102
RTVSPost2010Prop35
280
     0
102
RTVSPost2010PropOp35
 70
     1
102
RTVSPost2010Prop36
280
     0
102
RTVSPost2010PropOp36
 70
     1
102
RTVSPost2010Prop37
 90
       50
102
RTVSPost2010PropOp37
 70
     1
102
RTVSPost2010Prop38
140
0.0
102
RTVSPost2010PropOp38
 70
     1
102
RTVSPost2010Prop39
140
1.0
102
RTVSPost2010PropOp39
 70
     1
102
RTVSPost2010Prop40
 90
        0
102
RTVSPost2010PropOp40
 70
     1
102
RTVSPost2010Prop41ColorIndex
 90
       18
102
RTVSPost2010Prop41ColorRGB
 90
        0
102
RTVSPost2010PropOp41
 70
     1
102
RTVSPost2010Prop42
 90
       50
102
RTVSPost2010PropOp42
 70
     1
102
RTVSPost2010Prop43
 90
        3
102
RTVSPost2010PropOp43
 70
     1
102
RTVSPost2010Prop44ColorIndex
 90
        5
102
RTVSPost2010Prop44ColorRGB
 90
      255
102
RTVSPost2010PropOp44
 70
     1
102
RTVSPost2010Prop45
280
     0
102
RTVSPost2010PropOp45
 70
     1
102
RTVSPost2010Prop46
 90
       50
102
RTVSPost2010PropOp46
 70
     1
102
RTVSPost2010Prop47
 90
       50
102
RTVSPost2010PropOp47
 70
     1
102
RTVSPost2010Prop48
 90
       50
102
RTVSPost2010PropOp48
 70
     1
102
RTVSPost2010Prop49
280
     0
102
RTVSPost2010PropOp49
 70
     1
102
RTVSPost2010Prop50
 90
       50
102
RTVSPost2010PropOp50
 70
     1
102
RTVSPost2010Prop51ColorIndex
 90
      256
102
RTVSPost2010Prop51ColorRGB
 90
-16777216
102
RTVSPost2010PropOp51
 70
     0
102
RTVSPost2010Prop52
140
1.0
102
RTVSPost2010PropOp52
 70
     0
102
RTVSPost2010Prop53
 90
        2
102
RTVSPost2010PropOp53
 70
     1
102
RTVSPost2010Prop54
  1
strokes_ogs.tif
102
RTVSPost2010PropOp54
 70
     1
102
RTVSPost2010Prop55
280
     0
102
RTVSPost2010PropOp55
 70
     1
102
RTVSPost2010Prop56
140
1.0
102
RTVSPost2010PropOp56
 70
     1
102
RTVSPost2010Prop57
140
1.0
102
RTVSPost2010PropOp57
 70
     1
  0
XRECORD
  5
299
102
{ACAD_REACTORS
330
298
102
}
330
298
100
AcDbXrecord
280
     1
102
RTVSPost2010Prop28
280
     0
102
RTVSPost2010PropOp28
 70
     1
102
RTVSPost2010Prop29
280
     1
102
RTVSPost2010PropOp29
 70
     1
102
RTVSPost2010Prop30
280
     1
102
RTVSPost2010PropOp30
 70
     1
102
RTVSPost2010Prop31
280
     0
102
RTVSPost2010PropOp31
 70
     1
102
RTVSPost2010Prop32
280
     0
102
RTVSPost2010PropOp32
 70
     1
102
RTVSPost2010Prop33
280
     0
102
RTVSPost2010PropOp33
 70
     1
102
RTVSPost2010Prop34
280
     0
102
RTVSPost2010PropOp34
 70
     1
102
RTVSPost2010Prop35
280
     0
102
RTVSPost2010PropOp35
 70
     1
102
RTVSPost2010Prop36
280
     0
102
RTVSPost2010PropOp36
 70
     1
102
RTVSPost2010Prop37
 90
       50
102
RTVSPost2010PropOp37
 70
     1
102
RTVSPost2010Prop38
140
0.0
102
RTVSPost2010PropOp38
 70
     1
102
RTVSPost2010Prop39
140
1.0
102
RTVSPost2010PropOp39
 70
     1
102
RTVSPost2010Prop40
 90
        0
102
RTVSPost2010PropOp40
 70
     1
102
RTVSPost2010Prop41ColorIndex
 90
       18
102
RTVSPost2010Prop41ColorRGB
 90
        0
102
RTVSPost2010PropOp41
 70
     1
102
RTVSPost2010Prop42
 90
       50
102
RTVSPost2010PropOp42
 70
     1
102
RTVSPost2010Prop43
 90
        3
102
RTVSPost2010PropOp43
 70
     1
102
RTVSPost2010Prop44ColorIndex
 90
        5
102
RTVSPost2010Prop44ColorRGB
 90
      255
102
RTVSPost2010PropOp44
 70
     1
102
RTVSPost2010Prop45
280
     0
102
RTVSPost2010PropOp45
 70
     1
102
RTVSPost2010Prop46
 90
       50
102
RTVSPost2010PropOp46
 70
     1
102
RTVSPost2010Prop47
 90
       50
102
RTVSPost2010PropOp47
 70
     1
102
RTVSPost2010Prop48
 90
       50
102
RTVSPost2010PropOp48
 70
     1
102
RTVSPost2010Prop49
280
     0
102
RTVSPost2010PropOp49
 70
     1
102
RTVSPost2010Prop50
 90
       50
102
RTVSPost2010PropOp50
 70
     1
102
RTVSPost2010Prop51ColorIndex
 90
      256
102
RTVSPost2010Prop51ColorRGB
 90
-16777216
102
RTVSPost2010PropOp51
 70
     0
102
RTVSPost2010Prop52
140
1.0
102
RTVSPost2010PropOp52
 70
     0
102
RTVSPost2010Prop53
 90
        2
102
RTVSPost2010PropOp53
 70
     1
102
RTVSPost2010Prop54
  1
strokes_ogs.tif
102
RTVSPost2010PropOp54
 70
     1
102
RTVSPost2010Prop55
280
     0
102
RTVSPost2010PropOp55
 70
     1
102
RTVSPost2010Prop56
140
1.0
102
RTVSPost2010PropOp56
 70
     1
102
RTVSPost2010Prop57
140
1.0
102
RTVSPost2010PropOp57
 70
     1
  0
XRECORD
  5
28D
102
{ACAD_REACTORS
330
28C
102
}
330
28C
100
AcDbXrecord
280
     1
102
RTVSPost2010Prop28
280
     0
102
RTVSPost2010PropOp28
 70
     1
102
RTVSPost2010Prop29
280
     1
102
RTVSPost2010PropOp29
 70
     1
102
RTVSPost2010Prop30
280
     1
102
RTVSPost2010PropOp30
 70
     1
102
RTVSPost2010Prop31
280
     0
102
RTVSPost2010PropOp31
 70
     1
102
RTVSPost2010Prop32
280
     0
102
RTVSPost2010PropOp32
 70
     1
102
RTVSPost2010Prop33
280
     0
102
RTVSPost2010PropOp33
 70
     1
102
RTVSPost2010Prop34
280
     0
102
RTVSPost2010PropOp34
 70
     1
102
RTVSPost2010Prop35
280
     0
102
RTVSPost2010PropOp35
 70
     1
102
RTVSPost2010Prop36
280
     0
102
RTVSPost2010PropOp36
 70
     1
102
RTVSPost2010Prop37
 90
       50
102
RTVSPost2010PropOp37
 70
     1
102
RTVSPost2010Prop38
140
0.0
102
RTVSPost2010PropOp38
 70
     1
102
RTVSPost2010Prop39
140
1.0
102
RTVSPost2010PropOp39
 70
     1
102
RTVSPost2010Prop40
 90
        0
102
RTVSPost2010PropOp40
 70
     1
102
RTVSPost2010Prop41ColorIndex
 90
       18
102
RTVSPost2010Prop41ColorRGB
 90
        0
102
RTVSPost2010PropOp41
 70
     1
102
RTVSPost2010Prop42
 90
       50
102
RTVSPost2010PropOp42
 70
     1
102
RTVSPost2010Prop43
 90
        3
102
RTVSPost2010PropOp43
 70
     1
102
RTVSPost2010Prop44ColorIndex
 90
        5
102
RTVSPost2010Prop44ColorRGB
 90
      255
102
RTVSPost2010PropOp44
 70
     1
102
RTVSPost2010Prop45
280
     0
102
RTVSPost2010PropOp45
 70
     1
102
RTVSPost2010Prop46
 90
       50
102
RTVSPost2010PropOp46
 70
     1
102
RTVSPost2010Prop47
 90
       50
102
RTVSPost2010PropOp47
 70
     1
102
RTVSPost2010Prop48
 90
       50
102
RTVSPost2010PropOp48
 70
     1
102
RTVSPost2010Prop49
280
     0
102
RTVSPost2010PropOp49
 70
     1
102
RTVSPost2010Prop50
 90
       50
102
RTVSPost2010PropOp50
 70
     1
102
RTVSPost2010Prop51ColorIndex
 90
      256
102
RTVSPost2010Prop51ColorRGB
 90
-16777216
102
RTVSPost2010PropOp51
 70
     0
102
RTVSPost2010Prop52
140
1.0
102
RTVSPost2010PropOp52
 70
     0
102
RTVSPost2010Prop53
 90
        2
102
RTVSPost2010PropOp53
 70
     1
102
RTVSPost2010Prop54
  1
strokes_ogs.tif
102
RTVSPost2010PropOp54
 70
     1
102
RTVSPost2010Prop55
280
     0
102
RTVSPost2010PropOp55
 70
     1
102
RTVSPost2010Prop56
140
1.0
102
RTVSPost2010PropOp56
 70
     1
102
RTVSPost2010Prop57
140
1.0
102
RTVSPost2010PropOp57
 70
     1
  0
XRECORD
  5
2A5
102
{ACAD_REACTORS
330
2A4
102
}
330
2A4
100
AcDbXrecord
280
     1
102
RTVSPost2010Prop28
280
     0
102
RTVSPost2010PropOp28
 70
     1
102
RTVSPost2010Prop29
280
     1
102
RTVSPost2010PropOp29
 70
     1
102
RTVSPost2010Prop30
280
     1
102
RTVSPost2010PropOp30
 70
     1
102
RTVSPost2010Prop31
280
     0
102
RTVSPost2010PropOp31
 70
     1
102
RTVSPost2010Prop32
280
     0
102
RTVSPost2010PropOp32
 70
     1
102
RTVSPost2010Prop33
280
     0
102
RTVSPost2010PropOp33
 70
     1
102
RTVSPost2010Prop34
280
     0
102
RTVSPost2010PropOp34
 70
     1
102
RTVSPost2010Prop35
280
     0
102
RTVSPost2010PropOp35
 70
     1
102
RTVSPost2010Prop36
280
     0
102
RTVSPost2010PropOp36
 70
     1
102
RTVSPost2010Prop37
 90
       50
102
RTVSPost2010PropOp37
 70
     1
102
RTVSPost2010Prop38
140
0.0
102
RTVSPost2010PropOp38
 70
     1
102
RTVSPost2010Prop39
140
1.0
102
RTVSPost2010PropOp39
 70
     1
102
RTVSPost2010Prop40
 90
        0
102
RTVSPost2010PropOp40
 70
     1
102
RTVSPost2010Prop41ColorIndex
 90
       18
102
RTVSPost2010Prop41ColorRGB
 90
        0
102
RTVSPost2010PropOp41
 70
     1
102
RTVSPost2010Prop42
 90
       50
102
RTVSPost2010PropOp42
 70
     1
102
RTVSPost2010Prop43
 90
        3
102
RTVSPost2010PropOp43
 70
     1
102
RTVSPost2010Prop44ColorIndex
 90
        5
102
RTVSPost2010Prop44ColorRGB
 90
      255
102
RTVSPost2010PropOp44
 70
     1
102
RTVSPost2010Prop45
280
     0
102
RTVSPost2010PropOp45
 70
     1
102
RTVSPost2010Prop46
 90
       50
102
RTVSPost2010PropOp46
 70
     1
102
RTVSPost2010Prop47
 90
       50
102
RTVSPost2010PropOp47
 70
     1
102
RTVSPost2010Prop48
 90
       50
102
RTVSPost2010PropOp48
 70
     1
102
RTVSPost2010Prop49
280
     0
102
RTVSPost2010PropOp49
 70
     1
102
RTVSPost2010Prop50
 90
       50
102
RTVSPost2010PropOp50
 70
     1
102
RTVSPost2010Prop51ColorIndex
 90
      256
102
RTVSPost2010Prop51ColorRGB
 90
-16777216
102
RTVSPost2010PropOp51
 70
     0
102
RTVSPost2010Prop52
140
1.0
102
RTVSPost2010PropOp52
 70
     0
102
RTVSPost2010Prop53
 90
        2
102
RTVSPost2010PropOp53
 70
     1
102
RTVSPost2010Prop54
  1
strokes_ogs.tif
102
RTVSPost2010PropOp54
 70
     1
102
RTVSPost2010Prop55
280
     0
102
RTVSPost2010PropOp55
 70
     1
102
RTVSPost2010Prop56
140
1.0
102
RTVSPost2010PropOp56
 70
     1
102
RTVSPost2010Prop57
140
1.0
102
RTVSPost2010PropOp57
 70
     1
  0
ENDSEC
  0
EOF
