  0
SECTION
  2
HEADER
  9
$ACADVER
  1
AC1009
  9
$INSBASE
 10
0.0
 20
0.0
 30
0.0
  9
$EXTMIN
 10
655.81107458043255
 20
3266.0751608457649
 30
0.0
  9
$EXTMAX
 10
1358.790213476969
 20
3370.6725192813992
 30
0.0
  9
$LIMMIN
 10
0.0
 20
0.0
  9
$LIMMAX
 10
12.0
 20
9.0
  9
$ORTHOMODE
 70
     0
  9
$REGENMODE
 70
     1
  9
$FILLMODE
 70
     1
  9
$QTEXTMODE
 70
     0
  9
$MIRRTEXT
 70
     0
  9
$DRAGMODE
 70
     2
  9
$LTSCALE
 40
1.0
  9
$OSMODE
 70
     0
  9
$ATTMODE
 70
     1
  9
$TEXTSIZE
 40
0.2
  9
$TRACEWID
 40
0.05
  9
$TEXTSTYLE
  7
STANDARD
  9
$CLAYER
  8
_LINES
  9
$CELTYPE
  6
BYLAYER
  9
$CECOLOR
 62
   256
  9
$DIMSCALE
 40
1.0
  9
$DIMASZ
 40
0.18
  9
$DIMEXO
 40
0.0625
  9
$DIMDLI
 40
0.38
  9
$DIMRND
 40
0.0
  9
$DIMDLE
 40
0.0
  9
$DIMEXE
 40
0.18
  9
$DIMTP
 40
0.0
  9
$DIMTM
 40
0.0
  9
$DIMTXT
 40
0.18
  9
$DIMCEN
 40
0.09
  9
$DIMTSZ
 40
0.0
  9
$DIMTOL
 70
     0
  9
$DIMLIM
 70
     0
  9
$DIMTIH
 70
     1
  9
$DIMTOH
 70
     1
  9
$DIMSE1
 70
     0
  9
$DIMSE2
 70
     0
  9
$DIMTAD
 70
     0
  9
$DIMZIN
 70
     0
  9
$DIMBLK
  1

  9
$DIMASO
 70
     1
  9
$DIMSHO
 70
     1
  9
$DIMPOST
  1

  9
$DIMAPOST
  1

  9
$DIMALT
 70
     0
  9
$DIMALTD
 70
     2
  9
$DIMALTF
 40
25.399999999999999
  9
$DIMLFAC
 40
1.0
  9
$DIMTOFL
 70
     0
  9
$DIMTVP
 40
0.0
  9
$DIMTIX
 70
     0
  9
$DIMSOXD
 70
     0
  9
$DIMSAH
 70
     0
  9
$DIMBLK1
  1

  9
$DIMBLK2
  1

  9
$DIMSTYLE
  2
STANDARD
  9
$DIMCLRD
 70
     0
  9
$DIMCLRE
 70
     0
  9
$DIMCLRT
 70
     0
  9
$DIMTFAC
 40
1.0
  9
$DIMGAP
 40
0.09
  9
$LUNITS
 70
     2
  9
$LUPREC
 70
     4
  9
$SKETCHINC
 40
0.1
  9
$FILLETRAD
 40
0.0
  9
$AUNITS
 70
     0
  9
$AUPREC
 70
     0
  9
$MENU
  1
.
  9
$ELEVATION
 40
0.0
  9
$PELEVATION
 40
0.0
  9
$THICKNESS
 40
0.0
  9
$LIMCHECK
 70
     0
  9
$BLIPMODE
 70
     0
  9
$CHAMFERA
 40
0.0
  9
$CHAMFERB
 40
0.0
  9
$SKPOLY
 70
     0
  9
$TDCREATE
 40
2458243.0065393518
  9
$TDUPDATE
 40
2458243.0325100352
  9
$TDINDWG
 40
0.000141412
  9
$TDUSRTIMER
 40
0.000141412
  9
$USRTIMER
 70
     1
  9
$ANGBASE
 50
0.0
  9
$ANGDIR
 70
     0
  9
$PDMODE
 70
     0
  9
$PDSIZE
 40
0.0
  9
$PLINEWID
 40
0.0
  9
$COORDS
 70
     2
  9
$SPLFRAME
 70
     0
  9
$SPLINETYPE
 70
     6
  9
$SPLINESEGS
 70
     8
  9
$ATTDIA
 70
     1
  9
$ATTREQ
 70
     0
  9
$HANDLING
 70
     1
  9
$HANDSEED
  5
4E6
  9
$SURFTAB1
 70
     6
  9
$SURFTAB2
 70
     6
  9
$SURFTYPE
 70
     6
  9
$SURFU
 70
     6
  9
$SURFV
 70
     6
  9
$UCSNAME
  2

  9
$UCSORG
 10
0.0
 20
0.0
 30
0.0
  9
$UCSXDIR
 10
1.0
 20
0.0
 30
0.0
  9
$UCSYDIR
 10
0.0
 20
1.0
 30
0.0
  9
$PUCSNAME
  2

  9
$PUCSORG
 10
0.0
 20
0.0
 30
0.0
  9
$PUCSXDIR
 10
1.0
 20
0.0
 30
0.0
  9
$PUCSYDIR
 10
0.0
 20
1.0
 30
0.0
  9
$USERI1
 70
     0
  9
$USERI2
 70
     0
  9
$USERI3
 70
     0
  9
$USERI4
 70
     0
  9
$USERI5
 70
     0
  9
$USERR1
 40
0.0
  9
$USERR2
 40
0.0
  9
$USERR3
 40
0.0
  9
$USERR4
 40
0.0
  9
$USERR5
 40
0.0
  9
$WORLDVIEW
 70
     1
  9
$SHADEDGE
 70
     3
  9
$SHADEDIF
 70
    70
  9
$TILEMODE
 70
     1
  9
$MAXACTVP
 70
    64
  9
$PLIMCHECK
 70
     0
  9
$PEXTMIN
 10
25.699999999999989
 20
19.5
 30
0.0
  9
$PEXTMAX
 10
231.30000000000001
 20
175.5
 30
0.0
  9
$PLIMMIN
 10
-20.0
 20
-7.5
  9
$PLIMMAX
 10
277.0
 20
202.5
  9
$UNITMODE
 70
     0
  9
$VISRETAIN
 70
     1
  9
$PLINEGEN
 70
     0
  9
$PSLTSCALE
 70
     1
  0
ENDSEC
  0
SECTION
  2
TABLES
  0
TABLE
  2
VPORT
 70
     1
  0
VPORT
  2
*ACTIVE
 70
     0
 10
0.0
 20
0.0
 11
1.0
 21
1.0
 12
1007.93584184589
 22
3390.8994737282169
 13
0.0
 23
0.0
 14
1.0
 24
1.0
 15
0.0
 25
0.0
 16
0.0
 26
0.0
 36
1.0
 17
0.0
 27
0.0
 37
0.0
 40
249.2084349421803
 41
2.815750371471025
 42
50.0
 43
0.0
 44
0.0
 50
0.0
 51
0.0
 71
     0
 72
  1000
 73
     1
 74
     3
 75
     0
 76
     0
 77
     0
 78
     0
  0
ENDTAB
  0
TABLE
  2
LTYPE
 70
     1
  0
LTYPE
  2
CONTINUOUS
 70
     0
  3
Solid line
 72
    65
 73
     0
 40
0.0
  0
ENDTAB
  0
TABLE
  2
LAYER
 70
    12
  0
LAYER
  2
0
 70
     0
 62
     7
  6
CONTINUOUS
  0
LAYER
  2
DEFPOINTS
 70
     0
 62
     7
  6
CONTINUOUS
  0
LAYER
  2
_DIM
 70
     0
 62
   151
  6
CONTINUOUS
  0
LAYER
  2
_LINES
 70
     0
 62
     3
  6
CONTINUOUS
  0
ENDTAB
  0
TABLE
  2
STYLE
 70
     8
  0
STYLE
  2
STANDARD
 70
     0
 40
0.0
 41
1.0
 50
0.0
 71
     0
 42
0.2
  3
txt
  4

  0
STYLE
  2
ARIAL
 70
     0
 40
4.799999999999998
 41
1.0
 50
0.0
 71
     0
 42
0.2
  3
txt
  4

  0
STYLE
  2
ARIAL_1
 70
     0
 40
5.0
 41
1.0
 50
0.0
 71
     0
 42
0.2
  3
txt
  4

  0
STYLE
  2
ARIAL_2
 70
     0
 40
2.399999999999999
 41
1.0
 50
0.0
 71
     0
 42
0.2
  3
txt
  4

  0
ENDTAB
  0
TABLE
  2
VIEW
 70
     1
  0
ENDTAB
  0
TABLE
  2
UCS
 70
     0
  0
ENDTAB
  0
TABLE
  2
APPID
 70
     6
  0
APPID
  2
ACAD
 70
     0
  0
APPID
  2
ACADANNOTATIVE
 70
     0
  0
APPID
  2
REVIT
 70
     0
  0
APPID
  2
ACAD_PSEXT
 70
     0
  0
APPID
  2
ACAD_NAV_VCDISPLAY
 70
     0
  0
APPID
  2
ACAD_MLEADERVER
 70
     0
  0
ENDTAB
  0
TABLE
  2
DIMSTYLE
 70
     9
  0
DIMSTYLE
  2
STANDARD
 70
     0
  3

  4

  5

  6

  7

 40
1.0
 41
0.18
 42
0.0625
 43
0.38
 44
0.18
 45
0.0
 46
0.0
 47
0.0
 48
0.0
140
0.18
141
0.09
142
0.0
143
25.399999999999999
144
1.0
145
0.0
146
1.0
147
0.09
 71
     0
 72
     0
 73
     1
 74
     1
 75
     0
 76
     0
 77
     0
 78
     0
170
     0
171
     2
172
     0
173
     0
174
     0
175
     0
176
     0
177
     0
178
     0
  0
DIMSTYLE
  2
DIAGONAL_1DP
 70
     0
  3
<>
  4

  5

  6
OBLIQUE
  7
OBLIQUE
 40
304.80000000000001
 41
0.0208333333333333
 42
0.0625
 43
0.38
 44
0.015748031496063
 45
0.1
 46
0.0
 47
0.0
 48
0.0
140
4.897245119793455
141
0.09
142
0.0
143
25.399999999999999
144
1.0
145
1.0
146
1.0
147
0.0098425196850394
 71
     0
 72
     0
 73
     0
 74
     0
 75
     0
 76
     0
 77
     1
 78
     8
170
     0
171
     2
172
     1
173
     1
174
     1
175
     0
176
     0
177
     0
178
     0
  0
DIMSTYLE
  2
DIAGONAL_1DP_1
 70
     0
  3
<>
  4

  5

  6
OBLIQUE
  7
OBLIQUE
 40
304.80000000000001
 41
0.0208333333333333
 42
0.0625
 43
0.38
 44
0.015748031496063
 45
0.1
 46
0.0
 47
0.0
 48
0.0
140
4.897245119793455
141
0.09
142
0.0
143
25.399999999999999
144
1.0
145
1.0
146
1.0
147
0.0098425196850394
 71
     0
 72
     0
 73
     0
 74
     0
 75
     0
 76
     0
 77
     1
 78
     8
170
     0
171
     2
172
     1
173
     1
174
     1
175
     0
176
     0
177
     0
178
     0
  0
DIMSTYLE
  2
DIAGONAL_-_2_5MM_ARIAL
 70
     0
  3
<>
  4

  5

  6
OBLIQUE
  7
OBLIQUE
 40
304.80000000000001
 41
0.0196850393700788
 42
0.0098425196850394
 43
0.38
 44
0.015748031496063
 45
0.0
 46
0.015748031496063
 47
0.0
 48
0.0
140
5.1012969997848501
141
0.09
142
0.0
143
25.399999999999999
144
1.0
145
1.0
146
1.0
147
0.0114829396325459
 71
     0
 72
     0
 73
     0
 74
     0
 75
     0
 76
     0
 77
     1
 78
     0
170
     0
171
     2
172
     1
173
     1
174
     1
175
     0
176
     0
177
     0
178
     0
  0
DIMSTYLE
  2
DIAGONAL_-_2_5MM_ARIAL_1
 70
     0
  3
<>
  4

  5

  6
OBLIQUE
  7
OBLIQUE
 40
304.80000000000001
 41
0.0196850393700788
 42
0.0098425196850394
 43
0.38
 44
0.015748031496063
 45
0.0
 46
0.015748031496063
 47
0.0
 48
0.0
140
5.1012969997848501
141
0.09
142
0.0
143
25.399999999999999
144
1.0
145
1.0
146
1.0
147
0.0114829396325459
 71
     0
 72
     0
 73
     0
 74
     0
 75
     0
 76
     0
 77
     1
 78
     0
170
     0
171
     2
172
     1
173
     1
174
     1
175
     0
176
     0
177
     0
178
     0
  0
DIMSTYLE
  2
DIAGONAL_1DP_2
 70
     0
  3
<>
  4

  5

  6
OBLIQUE
  7
OBLIQUE
 40
304.80000000000001
 41
0.0208333333333333
 42
0.0625
 43
0.38
 44
0.015748031496063
 45
0.1
 46
0.0
 47
0.0
 48
0.0
140
4.897245119793455
141
0.09
142
0.0
143
25.399999999999999
144
1.0
145
1.0
146
1.0
147
0.0098425196850394
 71
     0
 72
     0
 73
     0
 74
     0
 75
     0
 76
     0
 77
     1
 78
     8
170
     0
171
     2
172
     1
173
     1
174
     1
175
     0
176
     0
177
     0
178
     0
  0
DIMSTYLE
  2
DIAGONAL_-_2_5MM_ARIAL_2
 70
     0
  3
<>
  4

  5

  6
OBLIQUE
  7
OBLIQUE
 40
304.80000000000001
 41
0.0196850393700788
 42
0.0098425196850394
 43
0.38
 44
0.015748031496063
 45
0.0
 46
0.015748031496063
 47
0.0
 48
0.0
140
5.1012969997848501
141
0.09
142
0.0
143
25.399999999999999
144
1.0
145
1.0
146
1.0
147
0.0114829396325459
 71
     0
 72
     0
 73
     0
 74
     0
 75
     0
 76
     0
 77
     1
 78
     0
170
     0
171
     2
172
     1
173
     1
174
     1
175
     0
176
     0
177
     0
178
     0
  0
DIMSTYLE
  2
DIAGONAL_1DP_3
 70
     0
  3
<>
  4

  5

  6
OBLIQUE
  7
OBLIQUE
 40
304.80000000000001
 41
0.0104166666666667
 42
0.0625
 43
0.38
 44
0.0078740157480315
 45
0.1
 46
0.0
 47
0.0
 48
0.0
140
2.4486225598967271
141
0.09
142
0.0
143
25.399999999999999
144
1.0
145
1.0
146
1.0
147
0.0049212598425197
 71
     0
 72
     0
 73
     0
 74
     0
 75
     0
 76
     0
 77
     1
 78
     8
170
     0
171
     2
172
     1
173
     1
174
     1
175
     0
176
     0
177
     0
178
     0
  0
ENDTAB
  0
ENDSEC
  0
SECTION
  2
BLOCKS
  0
BLOCK
  8
0
  2
$MODEL_SPACE
 70
     0
 10
0.0
 20
0.0
 30
0.0
  3
$MODEL_SPACE
  1

  0
ENDBLK
  5
72
  8
0
  0
BLOCK
 67
     1
  8
0
  2
$PAPER_SPACE
 70
     0
 10
0.0
 20
0.0
 30
0.0
  3
$PAPER_SPACE
  1

  0
ENDBLK
  5
76
 67
     1
  8
0
  0
BLOCK
  8
0
  2
_OBLIQUE
 70
     0
 10
0.0
 20
0.0
 30
0.0
  3
_OBLIQUE
  1

  0
LINE
  5
D2
  8
0
  6
BYBLOCK
 62
     0
 10
-0.5
 20
-0.5
 30
0.0
 11
0.5
 21
0.5
 31
0.0
  0
ENDBLK
  5
D4
  8
0
  0
BLOCK
  8
0
  2
DIMBLOCK1-TRSIL01_PROFILE_
 70
     0
 10
0.0
 20
0.0
 30
0.0
  3
DIMBLOCK1-TRSIL01_PROFILE_
  1

  0
LINE
  5
3C8
  8
_DIM
 62
     0
 10
932.06783810235527
 20
3281.6936696169569
 30
0.0
 11
932.06783810235527
 21
3276.8936696169571
 31
0.0
  0
LINE
  5
3C9
  8
_DIM
 62
     0
 10
970.06783810235606
 20
3281.6936696169569
 30
0.0
 11
970.06783810235606
 21
3276.8936696169571
 31
0.0
  0
LINE
  5
3CA
  8
_DIM
 62
     0
 10
932.06783810235527
 20
3281.6936696169569
 30
0.0
 11
970.06783810235606
 21
3281.6936696169569
 31
0.0
  0
INSERT
  5
3CB
  8
_LINES
  2
*U26
 10
0.0
 20
0.0
 30
0.0
  0
INSERT
  5
3CC
  8
_DIM
 62
     0
  2
_OBLIQUE
 10
932.06783810235527
 20
3281.6936696169569
 30
0.0
 41
6.3499999999999988
 42
6.3499999999999988
 43
6.3499999999999988
 50
180.0
  0
INSERT
  5
3CD
  8
_DIM
 62
     0
  2
_OBLIQUE
 10
970.06783810235606
 20
3281.6936696169569
 30
0.0
 41
6.3499999999999988
 42
6.3499999999999988
 43
6.3499999999999988
  0
POINT
  5
3CE
  8
DEFPOINTS
 62
     0
 10
932.06783810235527
 20
3290.1164310886361
 30
0.0
  0
POINT
  5
3CF
  8
DEFPOINTS
 62
     0
 10
970.06783810235606
 20
3291.6936696169569
 30
0.0
  0
POINT
  5
3D0
  8
DEFPOINTS
 62
     0
 10
970.06783810235606
 20
3281.6936696169569
 30
0.0
  0
ENDBLK
  5
CF
  8
0
  0
BLOCK
  8
0
  2
DIMBLOCK2-TRSIL01_PROFILE_
 70
     0
 10
0.0
 20
0.0
 30
0.0
  3
DIMBLOCK2-TRSIL01_PROFILE_
  1

  0
LINE
  5
3BE
  8
_DIM
 62
     0
 10
732.06783810235493
 20
3360.170621227388
 30
0.0
 11
732.06783810235493
 21
3364.9706212273891
 31
0.0
  0
LINE
  5
3BF
  8
_DIM
 62
     0
 10
932.06783810235515
 20
3360.170621227388
 30
0.0
 11
932.06783810235515
 21
3364.9706212273891
 31
0.0
  0
LINE
  5
3C0
  8
_DIM
 62
     0
 10
732.06783810235493
 20
3360.170621227388
 30
0.0
 11
932.06783810235515
 21
3360.170621227388
 31
0.0
  0
INSERT
  5
3C1
  8
_DIM
 62
     0
  2
_OBLIQUE
 10
732.06783810235493
 20
3360.170621227388
 30
0.0
 41
6.3499999999999988
 42
6.3499999999999988
 43
6.3499999999999988
 50
180.0
  0
INSERT
  5
3C2
  8
_DIM
 62
     0
  2
_OBLIQUE
 10
932.06783810235515
 20
3360.170621227388
 30
0.0
 41
6.3499999999999988
 42
6.3499999999999988
 43
6.3499999999999988
  0
INSERT
  5
3C3
  8
_LINES
  2
*U24
 10
0.0
 20
0.0
 30
0.0
  0
INSERT
  5
3C4
  8
_LINES
  2
*U25
 10
0.0
 20
0.0
 30
0.0
  0
POINT
  5
3C5
  8
DEFPOINTS
 62
     0
 10
732.06783810235493
 20
3350.170621227388
 30
0.0
  0
POINT
  5
3C6
  8
DEFPOINTS
 62
     0
 10
932.06783810235515
 20
3350.170621227388
 30
0.0
  0
POINT
  5
3C7
  8
DEFPOINTS
 62
     0
 10
932.06783810235515
 20
3360.170621227388
 30
0.0
  0
ENDBLK
  5
F0
  8
0
  0
BLOCK
  8
0
  2
DIMBLOCK3-TRSIL01_PROFILE_
 70
     0
 10
0.0
 20
0.0
 30
0.0
  3
DIMBLOCK3-TRSIL01_PROFILE_
  1

  0
LINE
  5
493
  8
_DIM
 62
     0
 10
732.06783810235515
 20
3322.8341429923371
 30
0.0
 11
732.06783810235515
 21
3334.2341429923381
 31
0.0
  0
LINE
  5
494
  8
_DIM
 62
     0
 10
750.12895136714587
 20
3340.895256257128
 30
0.0
 11
738.72895136714533
 21
3340.895256257128
 31
0.0
  0
ARC
  5
495
  8
_DIM
 62
     0
 10
732.06783810235504
 20
3340.8952562571289
 30
0.0
 40
11.461113264790431
 50
269.99999999999977
 51
287.97548728646439
  0
ARC
  5
496
  8
_DIM
 62
     0
 10
732.06783810235504
 20
3340.8952562571289
 30
0.0
 40
11.461113264790431
 50
342.0245127135363
 51
0.0000000000007994
  0
INSERT
  5
497
  8
_DIM
 62
     0
  2
_OBLIQUE
 10
732.06783810235459
 20
3329.434142992337
 30
0.0
 41
5.9999999999999991
 42
5.9999999999999991
 43
5.9999999999999991
 50
179.9999999999998
  0
INSERT
  5
498
  8
_DIM
 62
     0
  2
_OBLIQUE
 10
743.52895136714562
 20
3340.895256257128
 30
0.0
 41
5.9999999999999991
 42
5.9999999999999991
 43
5.9999999999999991
 50
90.000000000000796
  0
TEXT
  8
_DIM
  40
5
  5
4E3
  62
0
  72
0
  71
0
 10
729.338
 20
3319.93
 30
0.000000
  1
90.00?
  7
ARIAL_1
  0
POINT
  5
49A
  8
DEFPOINTS
 62
     0
 10
732.06783810235493
 20
3340.895256257128
 30
0.0
  0
POINT
  5
49B
  8
DEFPOINTS
 62
     0
 10
732.06783810235504
 20
3319.834142992338
 30
0.0
  0
POINT
  5
49C
  8
DEFPOINTS
 62
     0
 10
753.12895136714599
 20
3340.895256257128
 30
0.0
  0
POINT
  5
49D
  8
DEFPOINTS
 62
     0
 10
737.79839473475022
 20
3330.9696410141692
 30
0.0
  0
ENDBLK
  5
10F
  8
0
  0
BLOCK
  8
0
  2
DIMBLOCK4-TRSIL01_PROFILE_
 70
     0
 10
0.0
 20
0.0
 30
0.0
  3
DIMBLOCK4-TRSIL01_PROFILE_
  1

  0
LINE
  5
49E
  8
_DIM
 62
     0
 10
907.98969114447823
 20
3340.8952562571289
 30
0.0
 11
919.38969114448037
 21
3340.895256257128
 31
0.0
  0
LINE
  5
49F
  8
_DIM
 62
     0
 10
932.06783810235515
 20
3316.817109299252
 30
0.0
 11
932.06783810235515
 21
3328.2171092992539
 31
0.0
  0
ARC
  5
4A0
  8
_DIM
 62
     0
 10
932.06783810235515
 20
3340.8952562571289
 30
0.0
 40
17.4781469578745
 50
179.99999999999949
 51
214.76913592945471
  0
ARC
  5
4A1
  8
_DIM
 62
     0
 10
932.06783810235515
 20
3340.8952562571289
 30
0.0
 40
17.4781469578745
 50
235.23086407054569
 51
270.0000000000008
  0
INSERT
  5
4A2
  8
_DIM
 62
     0
  2
_OBLIQUE
 10
914.58969114448018
 20
3340.8952562571289
 30
0.0
 41
5.9999999999999991
 42
5.9999999999999991
 43
5.9999999999999991
 50
89.999999999999517
  0
INSERT
  5
4A3
  8
_DIM
 62
     0
  2
_OBLIQUE
 10
932.06783810235515
 20
3323.4171092992542
 30
0.0
 41
5.9999999999999991
 42
5.9999999999999991
 43
5.9999999999999991
 50
0.0000000000007994
  0
TEXT
  8
_DIM
  40
5
  5
4E4
  62
0
  72
0
  71
0
 10
901.956
 20
3322.88
 30
0.000000
  1
90.00?
  7
ARIAL_1
  0
POINT
  5
4A5
  8
DEFPOINTS
 62
     0
 10
932.06783810235493
 20
3340.895256257128
 30
0.0
  0
POINT
  5
4A6
  8
DEFPOINTS
 62
     0
 10
904.98969114447834
 20
3340.895256257128
 30
0.0
  0
POINT
  5
4A7
  8
DEFPOINTS
 62
     0
 10
932.06783810235527
 20
3313.817109299252
 30
0.0
  0
POINT
  5
4A8
  8
DEFPOINTS
 62
     0
 10
916.93131882575801
 20
3332.156182778192
 30
0.0
  0
ENDBLK
  5
12E
  8
0
  0
BLOCK
  8
0
  2
DIMBLOCK5-TRSIL01_PROFILE_
 70
     0
 10
0.0
 20
0.0
 30
0.0
  3
DIMBLOCK5-TRSIL01_PROFILE_
  1

  0
LINE
  5
39F
  8
_DIM
 62
     0
 10
984.74349455218089
 20
3318.6952562571309
 30
0.0
 11
989.54349455218096
 21
3318.6952562571309
 31
0.0
  0
LINE
  5
3A0
  8
_DIM
 62
     0
 10
954.18646298770614
 20
3340.8952562571289
 30
0.0
 11
989.54349455218107
 21
3340.8952562571289
 31
0.0
  0
LINE
  5
3A1
  8
_DIM
 62
     0
 10
984.74349455218089
 20
3318.6952562571309
 30
0.0
 11
984.74349455218112
 21
3340.8952562571289
 31
0.0
  0
INSERT
  5
3A2
  8
_DIM
 62
     0
  2
_OBLIQUE
 10
984.74349455218089
 20
3318.6952562571309
 30
0.0
 41
6.3499999999999988
 42
6.3499999999999988
 43
6.3499999999999988
 50
270.0
  0
INSERT
  5
3A3
  8
_DIM
 62
     0
  2
_OBLIQUE
 10
984.74349455218112
 20
3340.8952562571289
 30
0.0
 41
6.3499999999999988
 42
6.3499999999999988
 43
6.3499999999999988
 50
90.0
  0
INSERT
  5
3A4
  8
_LINES
  2
*U23
 10
0.0
 20
0.0
 30
0.0
  0
POINT
  5
3A5
  8
DEFPOINTS
 62
     0
 10
979.20337474763824
 20
3318.6952562571309
 30
0.0
  0
POINT
  5
3A6
  8
DEFPOINTS
 62
     0
 10
935.13646298770595
 20
3340.8952562571289
 30
0.0
  0
POINT
  5
3A7
  8
DEFPOINTS
 62
     0
 10
984.74349455218112
 20
3340.8952562571289
 30
0.0
  0
ENDBLK
  5
14B
  8
0
  0
BLOCK
  8
0
  2
DIMBLOCK6-TRSIL01_PROFILE_
 70
     0
 10
0.0
 20
0.0
 30
0.0
  3
DIMBLOCK6-TRSIL01_PROFILE_
  1

  0
LINE
  5
4A9
  8
_DIM
 62
     0
 10
951.1463752362713
 20
3318.6952562571309
 30
0.0
 11
939.74637523627121
 21
3318.6952562571309
 31
0.0
  0
LINE
  5
4AA
  8
_DIM
 62
     0
 10
932.06783810235515
 20
3337.7737933910471
 30
0.0
 11
932.06783810235515
 21
3326.3737933910479
 31
0.0
  0
ARC
  5
4AB
  8
_DIM
 62
     0
 10
932.06783810235527
 20
3318.6952562571309
 30
0.0
 40
12.478537133916269
 50
0.0000000000003308
 51
90.000000000000327
  0
INSERT
  5
4AC
  8
_DIM
 62
     0
  2
_OBLIQUE
 10
944.54637523627093
 20
3318.6952562571309
 30
0.0
 41
5.9999999999999991
 42
5.9999999999999991
 43
5.9999999999999991
 50
270.00000000000028
  0
INSERT
  5
4AD
  8
_DIM
 62
     0
  2
_OBLIQUE
 10
932.06783810235493
 20
3331.1737933910472
 30
0.0
 41
5.9999999999999991
 42
5.9999999999999991
 43
5.9999999999999991
 50
180.00000000000031
  0
TEXT
  8
_DIM
  40
5
  5
4E5
  62
0
  72
0
  71
0
 10
935.253
 20
3329.10
 30
0.000000
  1
90.00?
  7
ARIAL_1
  0
POINT
  5
4AF
  8
DEFPOINTS
 62
     0
 10
932.06783810235515
 20
3318.6952562571309
 30
0.0
  0
POINT
  5
4B0
  8
DEFPOINTS
 62
     0
 10
954.14637523627141
 20
3318.6952562571309
 30
0.0
  0
POINT
  5
4B1
  8
DEFPOINTS
 62
     0
 10
932.06783810235515
 20
3340.7737933910471
 30
0.0
  0
POINT
  5
4B2
  8
DEFPOINTS
 62
     0
 10
938.30710666931373
 20
3329.50198641717
 30
0.0
  0
ENDBLK
  5
168
  8
0
  0
BLOCK
  8
0
  2
DIMBLOCK7-TRSIL01_PROFILE_
 70
     0
 10
0.0
 20
0.0
 30
0.0
  3
DIMBLOCK7-TRSIL01_PROFILE_
  1

  0
LINE
  5
38C
  8
_DIM
 62
     0
 10
691.95410591663256
 20
3318.6952562571291
 30
0.0
 11
683.48435485063965
 21
3318.6952562571291
 31
0.0
  0
LINE
  5
38D
  8
_DIM
 62
     0
 10
688.28435485063983
 20
3340.8952562571271
 30
0.0
 11
683.48435485063976
 21
3340.8952562571271
 31
0.0
  0
LINE
  5
38E
  8
_DIM
 62
     0
 10
688.28435485063972
 20
3318.6952562571291
 30
0.0
 11
688.28435485063983
 21
3340.8952562571271
 31
0.0
  0
INSERT
  5
38F
  8
_DIM
 62
     0
  2
_OBLIQUE
 10
688.28435485063972
 20
3318.6952562571291
 30
0.0
 41
6.3499999999999988
 42
6.3499999999999988
 43
6.3499999999999988
 50
270.0
  0
INSERT
  5
390
  8
_DIM
 62
     0
  2
_OBLIQUE
 10
688.28435485063983
 20
3340.8952562571271
 30
0.0
 41
6.3499999999999988
 42
6.3499999999999988
 43
6.3499999999999988
 50
90.0
  0
INSERT
  5
391
  8
_LINES
  2
*U22
 10
0.0
 20
0.0
 30
0.0
  0
POINT
  5
392
  8
DEFPOINTS
 62
     0
 10
711.00410591663262
 20
3318.6952562571291
 30
0.0
  0
POINT
  5
393
  8
DEFPOINTS
 62
     0
 10
703.51249598741185
 20
3340.8952562571271
 30
0.0
  0
POINT
  5
394
  8
DEFPOINTS
 62
     0
 10
688.28435485063983
 20
3340.8952562571271
 30
0.0
  0
ENDBLK
  5
184
  8
0
  0
BLOCK
  8
0
  2
DIMBLOCK8-TRSIL01_PROFILE_
 70
     0
 10
0.0
 20
0.0
 30
0.0
  3
DIMBLOCK8-TRSIL01_PROFILE_
  1

  0
LINE
  5
383
  8
_DIM
 62
     0
 10
715.71110177465687
 20
3320.8952562571271
 30
0.0
 11
710.91110177465691
 21
3320.8952562571271
 31
0.0
  0
LINE
  5
384
  8
_DIM
 62
     0
 10
715.71110177465687
 20
3340.8952562571271
 30
0.0
 11
710.91110177465703
 21
3340.8952562571271
 31
0.0
  0
LINE
  5
385
  8
_DIM
 62
     0
 10
715.71110177465687
 20
3320.8952562571271
 30
0.0
 11
715.71110177465687
 21
3340.8952562571271
 31
0.0
  0
INSERT
  5
386
  8
_DIM
 62
     0
  2
_OBLIQUE
 10
715.71110177465687
 20
3320.8952562571271
 30
0.0
 41
6.3499999999999988
 42
6.3499999999999988
 43
6.3499999999999988
 50
270.0
  0
INSERT
  5
387
  8
_DIM
 62
     0
  2
_OBLIQUE
 10
715.71110177465687
 20
3340.8952562571271
 30
0.0
 41
6.3499999999999988
 42
6.3499999999999988
 43
6.3499999999999988
 50
90.0
  0
INSERT
  5
388
  8
_LINES
  2
*U21
 10
0.0
 20
0.0
 30
0.0
  0
POINT
  5
389
  8
DEFPOINTS
 62
     0
 10
726.42853986457521
 20
3320.8952562571271
 30
0.0
  0
POINT
  5
38A
  8
DEFPOINTS
 62
     0
 10
726.09947756596023
 20
3340.8952562571271
 30
0.0
  0
POINT
  5
38B
  8
DEFPOINTS
 62
     0
 10
715.71110177465687
 20
3340.8952562571271
 30
0.0
  0
ENDBLK
  5
19E
  8
0
  0
BLOCK
  8
0
  2
DIMBLOCK9-TRSIL01_PROFILE_
 70
     0
 10
0.0
 20
0.0
 30
0.0
  3
DIMBLOCK9-TRSIL01_PROFILE_
  1

  0
LINE
  5
37A
  8
_DIM
 62
     0
 10
666.3129726344439
 20
3316.2952562571272
 30
0.0
 11
661.51297263444394
 21
3316.2952562571272
 31
0.0
  0
LINE
  5
37B
  8
_DIM
 62
     0
 10
666.31297263444401
 20
3340.8952562571271
 30
0.0
 11
661.51297263444405
 21
3340.8952562571271
 31
0.0
  0
LINE
  5
37C
  8
_DIM
 62
     0
 10
666.3129726344439
 20
3316.2952562571272
 30
0.0
 11
666.31297263444401
 21
3340.8952562571271
 31
0.0
  0
INSERT
  5
37D
  8
_DIM
 62
     0
  2
_OBLIQUE
 10
666.3129726344439
 20
3316.2952562571272
 30
0.0
 41
6.3499999999999988
 42
6.3499999999999988
 43
6.3499999999999988
 50
270.0
  0
INSERT
  5
37E
  8
_DIM
 62
     0
  2
_OBLIQUE
 10
666.31297263444401
 20
3340.8952562571271
 30
0.0
 41
6.3499999999999988
 42
6.3499999999999988
 43
6.3499999999999988
 50
90.0
  0
INSERT
  5
37F
  8
_LINES
  2
*U20
 10
0.0
 20
0.0
 30
0.0
  0
POINT
  5
380
  8
DEFPOINTS
 62
     0
 10
676.31297263444378
 20
3316.2952562571272
 30
0.0
  0
POINT
  5
381
  8
DEFPOINTS
 62
     0
 10
676.31297263444378
 20
3340.8952562571271
 30
0.0
  0
POINT
  5
382
  8
DEFPOINTS
 62
     0
 10
666.31297263444401
 20
3340.8952562571271
 30
0.0
  0
ENDBLK
  5
1B8
  8
0
  0
BLOCK
  8
0
  2
DIMBLOCK10-TRSIL01_PROFILE
 70
     0
 10
0.0
 20
0.0
 30
0.0
  3
DIMBLOCK10-TRSIL01_PROFILE
  1

  0
LINE
  5
36F
  8
_DIM
 62
     0
 10
1307.5035696860709
 20
3346.6261076329838
 30
0.0
 11
1307.5035696860709
 21
3349.0261076329848
 31
0.0
  0
LINE
  5
370
  8
_DIM
 62
     0
 10
1309.5035696860709
 20
3346.6261076329838
 30
0.0
 11
1309.5035696860709
 21
3349.0261076329848
 31
0.0
  0
LINE
  5
371
  8
_DIM
 62
     0
 10
1307.5035696860709
 20
3346.6261076329838
 30
0.0
 11
1304.328569686071
 21
3346.6261076329838
 31
0.0
  0
LINE
  5
372
  8
_DIM
 62
     0
 10
1309.5035696860709
 20
3346.6261076329838
 30
0.0
 11
1312.6785696860709
 21
3346.6261076329838
 31
0.0
  0
LINE
  5
373
  8
_DIM
 62
     0
 10
1307.5035696860709
 20
3346.6261076329838
 30
0.0
 11
1309.5035696860709
 21
3346.6261076329838
 31
0.0
  0
INSERT
  5
374
  8
_DIM
 62
     0
  2
_OBLIQUE
 10
1307.5035696860709
 20
3346.6261076329838
 30
0.0
 41
3.1749999999999989
 42
3.1749999999999989
 43
3.1749999999999989
  0
INSERT
  5
375
  8
_DIM
 62
     0
  2
_OBLIQUE
 10
1309.5035696860709
 20
3346.6261076329838
 30
0.0
 41
3.1749999999999989
 42
3.1749999999999989
 43
3.1749999999999989
 50
180.0
  0
INSERT
  5
376
  8
_LINES
  2
*U19
 10
0.0
 20
0.0
 30
0.0
  0
POINT
  5
377
  8
DEFPOINTS
 62
     0
 10
1307.5035696860709
 20
3341.6261076329852
 30
0.0
  0
POINT
  5
378
  8
DEFPOINTS
 62
     0
 10
1309.5035696860709
 20
3341.6261076329852
 30
0.0
  0
POINT
  5
379
  8
DEFPOINTS
 62
     0
 10
1309.5035696860709
 20
3346.6261076329838
 30
0.0
  0
ENDBLK
  5
1D4
  8
0
  0
BLOCK
  8
0
  2
DIMBLOCK11-TRSIL01_PROFILE
 70
     0
 10
0.0
 20
0.0
 30
0.0
  3
DIMBLOCK11-TRSIL01_PROFILE
  1

  0
LINE
  5
366
  8
_DIM
 62
     0
 10
1284.5035696860709
 20
3298.3218066607219
 30
0.0
 11
1284.5035696860709
 21
3300.721806660722
 31
0.0
  0
LINE
  5
367
  8
_DIM
 62
     0
 10
1309.5035696860709
 20
3298.3218066607219
 30
0.0
 11
1309.5035696860709
 21
3300.721806660722
 31
0.0
  0
LINE
  5
368
  8
_DIM
 62
     0
 10
1284.5035696860709
 20
3298.3218066607219
 30
0.0
 11
1309.5035696860709
 21
3298.3218066607219
 31
0.0
  0
INSERT
  5
369
  8
_DIM
 62
     0
  2
_OBLIQUE
 10
1284.5035696860709
 20
3298.3218066607219
 30
0.0
 41
3.1749999999999989
 42
3.1749999999999989
 43
3.1749999999999989
 50
180.0
  0
INSERT
  5
36A
  8
_DIM
 62
     0
  2
_OBLIQUE
 10
1309.5035696860709
 20
3298.3218066607219
 30
0.0
 41
3.1749999999999989
 42
3.1749999999999989
 43
3.1749999999999989
  0
INSERT
  5
36B
  8
_LINES
  2
*U18
 10
0.0
 20
0.0
 30
0.0
  0
POINT
  5
36C
  8
DEFPOINTS
 62
     0
 10
1284.5035696860709
 20
3293.3218066607228
 30
0.0
  0
POINT
  5
36D
  8
DEFPOINTS
 62
     0
 10
1309.5035696860709
 20
3293.3218066607228
 30
0.0
  0
POINT
  5
36E
  8
DEFPOINTS
 62
     0
 10
1309.5035696860709
 20
3298.3218066607219
 30
0.0
  0
ENDBLK
  5
1F1
  8
0
  0
BLOCK
  8
0
  2
*U18
 70
     1
 10
0.0
 20
0.0
 30
0.0
  3
*U18
  1

  0
TEXT
  5
4C0
  8
_DIM
 62
     0
 10
1288.3440881035331
 20
3299.8676456784578
 30
0.0
 40
2.399999999999999
  1
25mm max.
  7
ARIAL_2
  0
ENDBLK
  5
4C2
  8
0
  0
BLOCK
  8
0
  2
*U19
 70
     1
 10
0.0
 20
0.0
 30
0.0
  3
*U19
  1

  0
TEXT
  5
4C4
  8
_DIM
 62
     0
 10
1301.2421781444609
 20
3348.13265606409
 30
0.0
 40
2.399999999999999
  1
2mm min.
  7
ARIAL_2
  0
ENDBLK
  5
4C6
  8
0
  0
BLOCK
  8
0
  2
*U20
 70
     1
 10
0.0
 20
0.0
 30
0.0
  3
*U20
  1

  0
TEXT
  5
4C8
  8
_DIM
 62
     0
 10
663.2212945989728
 20
3322.12540632534
 30
0.0
 40
4.799999999999998
  1
24.6
 50
90.0
  7
ARIAL
  0
ENDBLK
  5
4CA
  8
0
  0
BLOCK
  8
0
  2
*U21
 70
     1
 10
0.0
 20
0.0
 30
0.0
  3
*U21
  1

  0
TEXT
  5
4CC
  8
_DIM
 62
     0
 10
712.61942373918578
 20
3327.2281348382999
 30
0.0
 40
4.799999999999998
  1
20
 50
90.0
  7
ARIAL
  0
ENDBLK
  5
4CE
  8
0
  0
BLOCK
  8
0
  2
*U22
 70
     1
 10
0.0
 20
0.0
 30
0.0
  3
*U22
  1

  0
TEXT
  5
4D0
  8
_DIM
 62
     0
 10
685.27453220398183
 20
3323.3483258342089
 30
0.0
 40
4.799999999999998
  1
22.2
 50
90.0
  7
ARIAL
  0
ENDBLK
  5
4D2
  8
0
  0
BLOCK
  8
0
  2
*U23
 70
     1
 10
0.0
 20
0.0
 30
0.0
  3
*U23
  1

  0
TEXT
  5
4D4
  8
_DIM
 62
     0
 10
981.73367190552324
 20
3323.3483258342098
 30
0.0
 40
4.799999999999998
  1
22.2
 50
90.0
  7
ARIAL
  0
ENDBLK
  5
4D6
  8
0
  0
BLOCK
  8
0
  2
*U24
 70
     1
 10
0.0
 20
0.0
 30
0.0
  3
*U24
  1

  0
TEXT
  5
4D8
  8
_DIM
 62
     0
 10
801.14614642431934
 20
3363.262299262859
 30
0.0
 40
4.799999999999998
  1
Variable 155-400mm
  7
ARIAL
  0
ENDBLK
  5
4DA
  8
0
  0
BLOCK
  8
0
  2
*U25
 70
     1
 10
0.0
 20
0.0
 30
0.0
  3
*U25
  1

  0
TEXT
  5
4DC
  8
_DIM
 62
     0
 10
741.05446838884882
 20
3352.3296935329809
 30
0.0
 40
4.799999999999998
  1
(Recommend 280mm max. - Consult with The Roofing Store)
  7
ARIAL
  0
ENDBLK
  5
4DE
  8
0
  0
BLOCK
  8
0
  2
*U26
 70
     1
 10
0.0
 20
0.0
 30
0.0
  3
*U26
  1

  0
TEXT
  5
4E0
  8
_DIM
 62
     0
 10
926.21089694797104
 20
3268.8751608457651
 30
0.0
 40
4.799999999999998
  1
12.7-38.5 Adjustable
  7
ARIAL
  0
ENDBLK
  5
4E2
  8
0
  0
ENDSEC
  0
SECTION
  2
ENTITIES
  0
DIMENSION
  5
D5
  8
_DIM
  2
DIMBLOCK1-TRSIL01_PROFILE_
 10
970.06783810235606
 20
3281.6936696169569
 30
0.0
 11
957.19316161372797
 21
3270.4751608457659
 31
0.0
 70
   128
  1
12.7-38.5 Adjustable
 13
932.06783810235527
 23
3290.1164310886361
 33
0.0
 14
970.06783810235606
 24
3291.6936696169569
 34
0.0
1001
ACAD
1000
DSTYLE
1002
{
1070
    49
1040
38.032718564090047
1002
}
1001
REVIT
1002
{
1070
     1
1000
427814
1002
}
1002
{
1070
     5
1000
240857
1002
}
1002
{
1070
     2
1000
-2000260
1002
}
  0
DIMENSION
  5
F2
  8
_DIM
  2
DIMBLOCK2-TRSIL01_PROFILE_
 10
932.06783810235515
 20
3360.170621227388
 30
0.0
 11
832.06783810235493
 21
3360.170621227388
 31
0.0
 70
     0
  1
Variable 155-400mm\X(Recommend 280mm max. - Consult with The Roofing Store)
 13
732.06783810235493
 23
3350.170621227388
 33
0.0
 14
932.06783810235515
 24
3350.170621227388
 34
0.0
1001
ACAD
1000
DSTYLE
1002
{
1070
    49
1040
200.00000000000011
1002
}
1001
REVIT
1002
{
1070
     1
1000
427821
1002
}
1002
{
1070
     5
1000
240857
1002
}
1002
{
1070
     2
1000
-2000260
1002
}
  0
DIMENSION
  5
111
  8
_DIM
  2
DIMBLOCK3-TRSIL01_PROFILE_
 10
737.79839473475022
 20
3330.9696410141692
 30
0.0
 11
748.59642795116633
 21
3333.321357687395
 31
0.0
 70
   133
 53
45.000000000000327
 13
732.06783810235493
 23
3319.8341429923371
 33
0.0
 14
753.12895136714565
 24
3340.895256257128
 34
0.0
 15
732.06783810235493
 25
3340.895256257128
 35
0.0
1001
REVIT
1002
{
1070
     1
1000
427849
1002
}
1002
{
1070
     5
1000
32425
1002
}
1002
{
1070
     2
1000
-2000260
1002
}
1001
ACAD
1000
DSTYLE
1002
{
1070
   271
1070
     2
1070
    49
1040
29.784912017743089
1002
}
  0
DIMENSION
  5
130
  8
_DIM
  2
DIMBLOCK4-TRSIL01_PROFILE_
 10
916.93131882575801
 20
3332.156182778192
 30
0.0
 11
916.49974763277669
 21
3322.4747333036789
 31
0.0
 70
   133
 53
315.00000000000023
 13
904.98969114447834
 23
3340.8952562571289
 33
0.0
 14
932.06783810235527
 24
3313.817109299252
 34
0.0
 15
932.06783810235515
 25
3340.8952562571289
 35
0.0
1001
REVIT
1002
{
1070
     1
1000
427855
1002
}
1002
{
1070
     5
1000
32425
1002
}
1002
{
1070
     2
1000
-2000260
1002
}
1001
ACAD
1000
DSTYLE
1002
{
1070
   271
1070
     2
1070
    49
1040
38.294282671761387
1002
}
  0
DIMENSION
  5
14D
  8
_DIM
  2
DIMBLOCK5-TRSIL01_PROFILE_
 10
984.74349455218112
 20
3340.8952562571289
 30
0.0
 11
979.33367190552315
 21
3329.7952562571299
 31
0.0
 70
     0
 13
979.20337474763824
 23
3318.6952562571309
 33
0.0
 14
935.13646298770595
 24
3340.8952562571289
 34
0.0
 50
89.999999999999915
1001
ACAD
1000
DSTYLE
1002
{
1070
    49
1040
49.343010772119982
1002
}
1001
REVIT
1002
{
1070
     1
1000
428604
1002
}
1002
{
1070
     5
1000
240857
1002
}
1002
{
1070
     2
1000
-2000260
1002
}
  0
DIMENSION
  5
16A
  8
_DIM
  2
DIMBLOCK6-TRSIL01_PROFILE_
 10
938.30710666931373
 20
3329.50198641717
 30
0.0
 11
949.79735295519845
 21
3328.6938373880589
 31
0.0
 70
   133
 53
315.00000000000063
 13
954.14637523627118
 23
3318.6952562571309
 33
0.0
 14
932.06783810235493
 24
3340.7737933910471
 34
0.0
 15
932.06783810235527
 25
3318.6952562571309
 35
0.0
1001
REVIT
1002
{
1070
     1
1000
428611
1002
}
1002
{
1070
     5
1000
32425
1002
}
1002
{
1070
     2
1000
-2000260
1002
}
1001
ACAD
1000
DSTYLE
1002
{
1070
   271
1070
     2
1070
    49
1040
31.22376665214205
1002
}
  0
DIMENSION
  5
185
  8
_DIM
  2
DIMBLOCK7-TRSIL01_PROFILE_
 10
688.28435485063983
 20
3340.8952562571271
 30
0.0
 11
682.87453220398174
 21
3329.7952562571281
 31
0.0
 70
     0
 13
711.00410591663262
 23
3318.6952562571291
 33
0.0
 14
703.51249598741185
 24
3340.8952562571271
 34
0.0
 50
89.999999999999915
1001
ACAD
1000
DSTYLE
1002
{
1070
    49
1040
23.429985474419968
1002
}
1001
REVIT
1002
{
1070
     1
1000
432882
1002
}
1002
{
1070
     5
1000
240857
1002
}
1002
{
1070
     2
1000
-2000260
1002
}
  0
DIMENSION
  5
19F
  8
_DIM
  2
DIMBLOCK8-TRSIL01_PROFILE_
 10
715.71110177465687
 20
3340.8952562571271
 30
0.0
 11
710.26035143359229
 21
3330.8952562571271
 31
0.0
 70
     0
 13
726.42853986457521
 23
3320.8952562571271
 33
0.0
 14
726.09947756596023
 24
3340.8952562571271
 34
0.0
 50
89.999999999999915
1001
ACAD
1000
DSTYLE
1002
{
1070
    49
1040
20.002706866730598
1002
}
1001
REVIT
1002
{
1070
     1
1000
432889
1002
}
1002
{
1070
     5
1000
240857
1002
}
1002
{
1070
     2
1000
-2000260
1002
}
  0
DIMENSION
  5
1B9
  8
_DIM
  2
DIMBLOCK9-TRSIL01_PROFILE_
 10
666.31297263444401
 20
3340.8952562571271
 30
0.0
 11
660.86222229337932
 21
3328.5952562571269
 31
0.0
 70
     0
 13
676.31297263444378
 23
3316.2952562571272
 33
0.0
 14
676.31297263444378
 24
3340.8952562571271
 34
0.0
 50
89.999999999999915
1001
ACAD
1000
DSTYLE
1002
{
1070
    49
1040
24.599999999999461
1002
}
1001
REVIT
1002
{
1070
     1
1000
473435
1002
}
1002
{
1070
     5
1000
240857
1002
}
1002
{
1070
     2
1000
-2000260
1002
}
  0
DIMENSION
  5
1D6
  8
_DIM
  2
DIMBLOCK10-TRSIL01_PROFILE
 10
1309.5035696860709
 20
3346.6261076329838
 30
0.0
 11
1308.5035696860709
 21
3349.3318375102008
 31
0.0
 70
     0
  1
2mm min.
 13
1307.5035696860709
 23
3341.6261076329852
 33
0.0
 14
1309.5035696860709
 24
3341.6261076329852
 34
0.0
1001
ACAD
1000
DSTYLE
1002
{
1070
    49
1040
2.0000000000004539
1002
}
1001
REVIT
1002
{
1070
     1
1000
432980
1002
}
1002
{
1070
     5
1000
240857
1002
}
1002
{
1070
     2
1000
-2000260
1002
}
  0
DIMENSION
  5
1F2
  8
_DIM
  2
DIMBLOCK11-TRSIL01_PROFILE
 10
1309.5035696860709
 20
3298.3218066607219
 30
0.0
 11
1297.0035696860709
 21
3301.0471818312549
 31
0.0
 70
     0
  1
25mm max.
 13
1284.5035696860709
 23
3293.3218066607228
 33
0.0
 14
1309.5035696860709
 24
3293.3218066607228
 34
0.0
1001
ACAD
1000
DSTYLE
1002
{
1070
    49
1040
25.0
1002
}
1001
REVIT
1002
{
1070
     1
1000
433000
1002
}
1002
{
1070
     5
1000
240857
1002
}
1002
{
1070
     2
1000
-2000260
1002
}
  0
LINE
  5
25E
  8
_LINES
 10
1358.7902134769679
 20
3290.8952562571262
 30
0.0
 11
1311.5035696860709
 21
3290.8952562571249
 31
0.0
1001
REVIT
1002
{
1070
     3
1000
241982
1002
}
  0
ARC
  5
25F
  8
_LINES
 10
1311.5035696860709
 20
3288.8952562571271
 30
0.0
 40
1.9999999999999489
 50
90.0
 51
180.0
1001
REVIT
1002
{
1070
     3
1000
241982
1002
}
  0
LINE
  5
260
  8
_LINES
 10
1309.5035696860709
 20
3272.8952562571271
 30
0.0
 11
1309.5035696860709
 21
3288.8952562571271
 31
0.0
1001
REVIT
1002
{
1070
     3
1000
241982
1002
}
  0
ARC
  5
261
  8
_LINES
 10
1311.50356968607
 20
3272.8952562571271
 30
0.0
 40
1.9999999999999529
 50
180.0
 51
270.0
1001
REVIT
1002
{
1070
     3
1000
241982
1002
}
  0
LINE
  5
262
  8
_LINES
 10
1311.50356968607
 20
3270.8952562571262
 30
0.0
 11
1346.9035696860731
 21
3270.8952562571239
 31
0.0
1001
REVIT
1002
{
1070
     3
1000
241982
1002
}
  0
LINE
  5
263
  8
_LINES
 10
1304.5035696860709
 20
3268.6952562571269
 30
0.0
 11
1346.9035696860731
 21
3268.6952562571269
 31
0.0
1001
REVIT
1002
{
1070
     3
1000
241982
1002
}
  0
ARC
  5
264
  8
_LINES
 10
1346.9035696860731
 20
3269.7952562571249
 30
0.0
 40
1.0999999999994821
 50
270.0
 51
90.0
1001
REVIT
1002
{
1070
     3
1000
241982
1002
}
  0
LINE
  5
265
  8
_LINES
 10
1289.5035696860709
 20
3266.2952562571272
 30
0.0
 11
1304.5035696860709
 21
3268.6952562571269
 31
0.0
1001
REVIT
1002
{
1070
     3
1000
241982
1002
}
  0
LINE
  5
266
  8
_LINES
 10
1289.5035696860709
 20
3266.2952562571272
 30
0.0
 11
1274.5035696860709
 21
3266.2952562571272
 31
0.0
1001
REVIT
1002
{
1070
     3
1000
241982
1002
}
  0
LINE
  5
267
  8
_LINES
 10
1282.5035696860721
 20
3290.8952562571299
 30
0.0
 11
1263.7902134769679
 21
3290.8952562571299
 31
0.0
1001
REVIT
1002
{
1070
     3
1000
241982
1002
}
  0
LINE
  5
268
  8
_LINES
 10
1284.5035696860709
 20
3271.4952562571302
 30
0.0
 11
1284.5035696860709
 21
3288.895256257128
 31
0.0
1001
REVIT
1002
{
1070
     3
1000
241982
1002
}
  0
ARC
  5
269
  8
_LINES
 10
1282.5035696860721
 20
3288.895256257128
 30
0.0
 40
1.999999999999942
 50
0.0
 51
90.0
1001
REVIT
1002
{
1070
     3
1000
241982
1002
}
  0
LINE
  5
26A
  8
_LINES
 10
1286.5035696860709
 20
3269.4952562571302
 30
0.0
 11
1341.8654139613559
 21
3269.4952562571302
 31
0.0
1001
REVIT
1002
{
1070
     3
1000
241982
1002
}
  0
LINE
  5
26B
  8
_LINES
 10
1347.5035696860709
 20
3269.4952562571302
 30
0.0
 11
1344.6844918237141
 21
3270.5213166871072
 31
0.0
1001
REVIT
1002
{
1070
     3
1000
241982
1002
}
  0
LINE
  5
26C
  8
_LINES
 10
1341.8654139613559
 20
3269.4952562571302
 30
0.0
 11
1344.6844918237141
 21
3270.5213166871072
 31
0.0
1001
REVIT
1002
{
1070
     3
1000
241982
1002
}
  0
ARC
  5
26D
  8
_LINES
 10
1286.5035696860709
 20
3271.4952562571302
 30
0.0
 40
1.9999999999999529
 50
180.0
 51
270.0
1001
REVIT
1002
{
1070
     3
1000
241982
1002
}
  0
LINE
  5
26E
  8
_LINES
 10
1358.790213476969
 20
3340.8952562571262
 30
0.0
 11
1311.5035696860709
 21
3340.8952562571249
 31
0.0
1001
REVIT
1002
{
1070
     3
1000
241982
1002
}
  0
ARC
  5
26F
  8
_LINES
 10
1311.5035696860709
 20
3338.8952562571271
 30
0.0
 40
1.9999999999999489
 50
90.0
 51
180.0
1001
REVIT
1002
{
1070
     3
1000
241982
1002
}
  0
LINE
  5
270
  8
_LINES
 10
1309.5035696860709
 20
3322.8952562571271
 30
0.0
 11
1309.5035696860709
 21
3338.8952562571271
 31
0.0
1001
REVIT
1002
{
1070
     3
1000
241982
1002
}
  0
ARC
  5
271
  8
_LINES
 10
1311.5035696860709
 20
3322.8952562571271
 30
0.0
 40
1.9999999999999529
 50
180.0
 51
270.0
1001
REVIT
1002
{
1070
     3
1000
241982
1002
}
  0
LINE
  5
272
  8
_LINES
 10
1311.5035696860709
 20
3320.8952562571262
 30
0.0
 11
1346.9035696860731
 21
3320.8952562571239
 31
0.0
1001
REVIT
1002
{
1070
     3
1000
241982
1002
}
  0
LINE
  5
273
  8
_LINES
 10
1304.5035696860721
 20
3318.6952562571269
 30
0.0
 11
1346.9035696860731
 21
3318.6952562571269
 31
0.0
1001
REVIT
1002
{
1070
     3
1000
241982
1002
}
  0
ARC
  5
274
  8
_LINES
 10
1346.9035696860731
 20
3319.7952562571249
 30
0.0
 40
1.0999999999994821
 50
270.0
 51
90.0
1001
REVIT
1002
{
1070
     3
1000
241982
1002
}
  0
LINE
  5
275
  8
_LINES
 10
1289.5035696860709
 20
3316.2952562571259
 30
0.0
 11
1304.5035696860721
 21
3318.6952562571269
 31
0.0
1001
REVIT
1002
{
1070
     3
1000
241982
1002
}
  0
LINE
  5
276
  8
_LINES
 10
1289.5035696860709
 20
3316.2952562571259
 30
0.0
 11
1274.5035696860709
 21
3316.2952562571259
 31
0.0
1001
REVIT
1002
{
1070
     3
1000
241982
1002
}
  0
LINE
  5
277
  8
_LINES
 10
1305.5035696860721
 20
3340.8952562571299
 30
0.0
 11
1263.790213476969
 21
3340.8952562571289
 31
0.0
1001
REVIT
1002
{
1070
     3
1000
241982
1002
}
  0
LINE
  5
278
  8
_LINES
 10
1307.5035696860721
 20
3321.4952562571302
 30
0.0
 11
1307.5035696860721
 21
3338.895256257128
 31
0.0
1001
REVIT
1002
{
1070
     3
1000
241982
1002
}
  0
ARC
  5
279
  8
_LINES
 10
1305.5035696860721
 20
3338.895256257128
 30
0.0
 40
1.999999999999942
 50
0.0
 51
90.0
1001
REVIT
1002
{
1070
     3
1000
241982
1002
}
  0
LINE
  5
27A
  8
_LINES
 10
1309.5035696860721
 20
3319.4952562571302
 30
0.0
 11
1339.8654139613559
 21
3319.4952562571302
 31
0.0
1001
REVIT
1002
{
1070
     3
1000
241982
1002
}
  0
ARC
  5
27B
  8
_LINES
 10
1309.5035696860721
 20
3321.4952562571302
 30
0.0
 40
1.9999999999999529
 50
180.0
 51
270.0
1001
REVIT
1002
{
1070
     3
1000
241982
1002
}
  0
LINE
  5
27C
  8
_LINES
 10
1345.5035696860721
 20
3319.4952562571302
 30
0.0
 11
1342.6844918237141
 21
3320.5213166871072
 31
0.0
1001
REVIT
1002
{
1070
     3
1000
241982
1002
}
  0
LINE
  5
27D
  8
_LINES
 10
1339.8654139613559
 20
3319.4952562571302
 30
0.0
 11
1342.6844918237141
 21
3320.5213166871072
 31
0.0
1001
REVIT
1002
{
1070
     3
1000
241982
1002
}
  0
LINE
  5
27E
  8
_LINES
 10
930.06783810235584
 20
3340.8952562571299
 30
0.0
 11
734.0678381023547
 21
3340.8952562571262
 31
0.0
1001
REVIT
1002
{
1070
     3
1000
241982
1002
}
  0
LINE
  5
27F
  8
_LINES
 10
932.06783810235584
 20
3321.4952562571302
 30
0.0
 11
932.06783810235584
 21
3338.895256257128
 31
0.0
1001
REVIT
1002
{
1070
     3
1000
241982
1002
}
  0
LINE
  5
280
  8
_LINES
 10
934.06783810235584
 20
3318.69525625713
 30
0.0
 11
964.42968237764035
 21
3318.69525625713
 31
0.0
1001
REVIT
1002
{
1070
     3
1000
241982
1002
}
  0
ARC
  5
281
  8
_LINES
 10
934.06783810235584
 20
3320.69525625713
 30
0.0
 40
1.9999999999999729
 50
180.0
 51
270.0
1001
REVIT
1002
{
1070
     3
1000
241982
1002
}
  0
ARC
  5
282
  8
_LINES
 10
930.06783810235584
 20
3338.895256257128
 30
0.0
 40
1.999999999999944
 50
0.0
 51
90.0
1001
REVIT
1002
{
1070
     3
1000
241982
1002
}
  0
ARC
  5
283
  8
_LINES
 10
734.0678381023547
 20
3338.895256257128
 30
0.0
 40
1.9999999999999509
 50
90.0
 51
180.0
1001
REVIT
1002
{
1070
     3
1000
241982
1002
}
  0
LINE
  5
284
  8
_LINES
 10
732.06783810235459
 20
3322.8952562571271
 30
0.0
 11
732.06783810235459
 21
3338.895256257128
 31
0.0
1001
REVIT
1002
{
1070
     3
1000
241982
1002
}
  0
ARC
  5
285
  8
_LINES
 10
734.06783810235447
 20
3322.8952562571271
 30
0.0
 40
1.999999999999954
 50
180.0
 51
269.99999999999352
1001
REVIT
1002
{
1070
     3
1000
241982
1002
}
  0
LINE
  5
286
  8
_LINES
 10
734.06783810235436
 20
3320.8952562571271
 30
0.0
 11
769.46783810235684
 21
3320.8952562571262
 31
0.0
1001
REVIT
1002
{
1070
     3
1000
241982
1002
}
  0
LINE
  5
287
  8
_LINES
 10
727.06783810235515
 20
3318.6952562571291
 30
0.0
 11
769.46783810235684
 21
3318.6952562571291
 31
0.0
1001
REVIT
1002
{
1070
     3
1000
241982
1002
}
  0
ARC
  5
288
  8
_LINES
 10
769.46783810235684
 20
3319.7952562571272
 30
0.0
 40
1.0999999999994829
 50
270.0
 51
90.0
1001
REVIT
1002
{
1070
     3
1000
241982
1002
}
  0
LINE
  5
289
  8
_LINES
 10
712.06783810235493
 20
3316.2952562571272
 30
0.0
 11
727.06783810235504
 21
3318.6952562571291
 31
0.0
1001
REVIT
1002
{
1070
     3
1000
241982
1002
}
  0
LINE
  5
28A
  8
_LINES
 10
932.06783810235584
 20
3320.69525625713
 30
0.0
 11
932.06783810235584
 21
3321.4952562571302
 31
0.0
  0
LINE
  5
28B
  8
_LINES
 10
970.06783810235595
 20
3318.69525625713
 30
0.0
 11
967.24876023999798
 21
3319.7213166871079
 31
0.0
1001
REVIT
1002
{
1070
     3
1000
241982
1002
}
  0
LINE
  5
28C
  8
_LINES
 10
964.42968237764035
 20
3318.69525625713
 30
0.0
 11
967.24876023999798
 21
3319.7213166871079
 31
0.0
1001
REVIT
1002
{
1070
     3
1000
241982
1002
}
  0
LINE
  5
28D
  8
_LINES
 10
712.06783810235493
 20
3316.2952562571272
 30
0.0
 11
697.06783810235493
 21
3316.2952562571272
 31
0.0
1001
REVIT
1002
{
1070
     3
1000
241982
1002
}
  0
VIEWPORT
  5
24D
 67
     1
  8
0
 10
128.5
 20
97.5
 30
0.0
 40
625.60341753343243
 41
222.18000000000001
 68
     1
 69
     1
1001
ACAD
1000
MVIEW
1002
{
1070
    16
1010
0.0
1020
0.0
1030
0.0
1010
0.0
1020
0.0
1030
1.0
1040
0.0
1040
222.18000000000001
1040
128.5
1040
97.5
1040
50.0
1040
0.0
1040
0.0
1070
     0
1070
   100
1070
     1
1070
     1
1070
     0
1070
     0
1070
     0
1070
     0
1040
0.0
1040
0.0
1040
0.0
1040
10.0
1040
10.0
1040
10.0
1040
10.0
1070
     0
1002
{
1002
}
1002
}
  0
VIEWPORT
  5
251
 67
     1
  8
0
 10
128.5
 20
97.5
 30
0.0
 40
205.59999999999999
 41
156.0
 68
     2
 69
     2
1001
ACAD
1000
MVIEW
1002
{
1070
    16
1010
0.0
1020
0.0
1030
0.0
1010
0.0
1020
0.0
1030
1.0
1040
0.0
1040
537.56085365323202
1040
1007.93584184589
1040
3317.848689952074
1040
50.0
1040
0.0
1040
0.0
1070
     0
1070
  1000
1070
     1
1070
     1
1070
     0
1070
     0
1070
     0
1070
     0
1040
0.0
1040
0.0
1040
0.0
1040
1.0
1040
1.0
1040
0.0
1040
0.0
1070
     0
1002
{
1002
}
1002
}
  0
ENDSEC
  0
EOF
